(Classical) Vaughan Williams, Delius, Butterworth, Finzi - Visions of England (BBC SO, Sir Andrew Davis, Jonathan Lemalu, Andrew Kennedy, Royal String Quartet, Simon Crawford-Phillips, Iain Burnside, Jac van Steen) - 2008, FLAC (tracks+.cue) lossless


 

[Цитировать]

The BBC Music Magazine Collection Vol. 17 No. 2
Жанр: Classical
Страна-производитель диска: UK
Год издания диска: 2008
Издатель (лейбл): BBC Music
Номер по каталогу: BBC MM298
Дата записи: 1995-2006
Аудиокодек: FLAC
Тип рипа: tracks+.cue
Битрейт аудио: lossless
Продолжительность: 01:05:49
Источник: собственный рип
Наличие сканов в содержимом раздачи: да
Треклист:
Frederick Delius (1862-1934)
01. Brigg Fair 15:22
Ralph Vaughan Williams (1872-1958)
On Wenlock Edge
02. On Wenlock Edge 3:55
03. From Far, From Eve and Morning 2:25
04. Is My Team Ploughing? 3:47
05. Oh, When I Was in Love With You 0:45
06. Bredon Hill 7:31
07. Clun 3:23
Georege Butterworth (1885-1916)
Six Songs from a Shropshire Lad
08. Lovliest of Trees 2:34
09. When I Was One-and-Twenty 1:12
10. Look Not Into My Eyes 1:51
11. Think No More, Lad 1:19
12. The Lads in Their Hundreds 2:15
13. Is My Team Ploughing? 3:30
Gerald Finzi (1901-1956)
Let Us Garlands Bring
14. Come Away, Death 3:55
15. Who Is Sylvia 1:33
16. Fear No More the Heat o' the Sun 5:47
17. O Mistress Mine 1:58
18. It Was a Lover and His Lass 2:45
Исполнители:
01. - BBC Symphony Orchestra, Sir Andrew Davis (Conductor)
02-07. - Andrew Kennedy (Tenor), Royal String Quartet, Simon Crawford-Phillips (Piano)
08-13. - Jonathan Lemalu (Baritone), Iain Burnside (Piano)
14-18. - Jonathan Lemalu (Baritone), BBC Symphony Orchestra, Jac van Steen (Conductor)

Лог создания рипа

Exact Audio Copy V1.0 beta 3 from 29. August 2011
EAC extraction logfile from 24. March 2013, 15:34
VA / BBC MM298: Visions of England
Used drive : ATAPI iHAS120 X Adapter: 6 ID: 0
Read mode : SecureUtilize accurate stream : YesDefeat audio cache : YesMake use of C2 pointers : No
Read offset correction : 48Overread into Lead-In and Lead-Out : NoFill up missing offset samples with silence : YesDelete leading and trailing silent blocks : NoNull samples used in CRC calculations : YesUsed interface : Native Win32 interface for Win NT & 2000Gap handling : Appended to previous track
Used output format : User Defined EncoderSelected bitrate : 128 kBit/sQuality : HighAdd ID3 tag : NoCommand line compressor : C:\Program Files\Exact Audio Copy\Flac\flac.exeAdditional command line options : -V -8 -T "Genre=%genre%" -T "Artist=%artist%" -T "Title=%title%" -T "Album=%albumtitle%" -T "Date=%year%" -T "Tracknumber=%tracknr%" -T "Comment=%comment%" %source%
TOC of the extracted CD
Track | Start | Length | Start sector | End sector --------------------------------------------------------- 1 | 0:00.00 | 15:26.30 | 0 | 69479 2 | 15:26.30 | 3:55.69 | 69480 | 87173 3 | 19:22.24 | 2:25.56 | 87174 | 98104 4 | 21:48.05 | 3:47.53 | 98105 | 115182 5 | 25:35.58 | 0:45.38 | 115183 | 118595 6 | 26:21.21 | 7:31.25 | 118596 | 152445 7 | 33:52.46 | 3:26.73 | 152446 | 167968 8 | 37:19.44 | 2:34.26 | 167969 | 179544 9 | 39:53.70 | 1:12.48 | 179545 | 184992 10 | 41:06.43 | 1:51.23 | 184993 | 193340 11 | 42:57.66 | 1:19.24 | 193341 | 199289 12 | 44:17.15 | 2:15.36 | 199290 | 209450 13 | 46:32.51 | 3:37.19 | 209451 | 225744 14 | 50:09.70 | 3:35.03 | 225745 | 241872 15 | 53:44.73 | 1:33.05 | 241873 | 248852 16 | 55:18.03 | 5:47.30 | 248853 | 274907 17 | 61:05.33 | 1:58.06 | 274908 | 283763 18 | 63:03.39 | 2:45.40 | 283764 | 296178
Track 1
Filename D:\what.cd\BBC MM298- Visions of England\01. BBC Symphony Orchestra - Brigg Fair.wav
Pre-gap length 0:00:02.00
Peak level 90.1 % Extraction speed 2.9 X Track quality 100.0 % Test CRC AB5C5AC7 Copy CRC AB5C5AC7 Accurately ripped (confidence 16) [7915BCFB] (AR v1) Copy OK
Track 2
Filename D:\what.cd\BBC MM298- Visions of England\02. Royal String Quartet - On Wenlock Edge- On Wenlock Edge.wav
Pre-gap length 0:00:03.57
Peak level 31.6 % Extraction speed 3.2 X Track quality 100.0 % Test CRC 45651C20 Copy CRC 45651C20 Accurately ripped (confidence 16) [4AA5DA20] (AR v1) Copy OK
Track 3
Filename D:\what.cd\BBC MM298- Visions of England\03. Royal String Quartet - On Wenlock Edge- From Far, From Eve and Morning.wav
Peak level 17.3 % Extraction speed 2.5 X Track quality 99.9 % Test CRC 115152E4 Copy CRC 115152E4 Accurately ripped (confidence 16) [6C8C3DFE] (AR v1) Copy OK
Track 4
Filename D:\what.cd\BBC MM298- Visions of England\04. Royal String Quartet - On Wenlock Edge- Is My Team Ploughing.wav
Peak level 31.6 % Extraction speed 3.0 X Track quality 99.9 % Test CRC 0ABB6041 Copy CRC 0ABB6041 Accurately ripped (confidence 16) [68DACF60] (AR v1) Copy OK
Track 5
Filename D:\what.cd\BBC MM298- Visions of England\05. Royal String Quartet - On Wenlock Edge- Oh, When I Was in Love With You.wav
Peak level 16.2 % Extraction speed 1.6 X Track quality 99.7 % Test CRC B4FCDA41 Copy CRC B4FCDA41 Accurately ripped (confidence 16) [B004DA7E] (AR v1) Copy OK
Track 6
Filename D:\what.cd\BBC MM298- Visions of England\06. Royal String Quartet - On Wenlock Edge- Bredon Hill.wav
Peak level 31.6 % Extraction speed 4.0 X Track quality 100.0 % Test CRC 3EA76F42 Copy CRC 3EA76F42 Accurately ripped (confidence 16) [68C9C9EB] (AR v1) Copy OK
Track 7
Filename D:\what.cd\BBC MM298- Visions of England\07. Royal String Quartet - On Wenlock Edge- Clun.wav
Peak level 24.1 % Extraction speed 3.8 X Track quality 100.0 % Test CRC 2209C369 Copy CRC 2209C369 Accurately ripped (confidence 16) [E8E386F1] (AR v1) Copy OK
Track 8
Filename D:\what.cd\BBC MM298- Visions of England\08. Jonathan Lemalu, Iain Burnside - Six Songs from a Shropshire Lad- Lovliest of Trees.wav
Pre-gap length 0:00:03.42
Peak level 29.2 % Extraction speed 3.2 X Track quality 99.9 % Test CRC BEDF9857 Copy CRC BEDF9857 Accurately ripped (confidence 16) [1FADA401] (AR v1) Copy OK
Track 9
Filename D:\what.cd\BBC MM298- Visions of England\09. Jonathan Lemalu, Iain Burnside - Six Songs from a Shropshire Lad- When I Was One-and-Twenty.wav
Peak level 31.6 % Extraction speed 3.2 X Track quality 100.0 % Test CRC 02AFBAEA Copy CRC 02AFBAEA Accurately ripped (confidence 16) [6DF3F2B3] (AR v1) Copy OK
Track 10
Filename D:\what.cd\BBC MM298- Visions of England\10. Jonathan Lemalu, Iain Burnside - Six Songs from a Shropshire Lad- Look Not Into My Eyes.wav
Peak level 23.7 % Extraction speed 3.6 X Track quality 100.0 % Test CRC EA77F511 Copy CRC EA77F511 Accurately ripped (confidence 16) [4CEE8D21] (AR v1) Copy OK
Track 11
Filename D:\what.cd\BBC MM298- Visions of England\11. Jonathan Lemalu, Iain Burnside - Six Songs from a Shropshire Lad- Think No More, Lad.wav
Peak level 30.6 % Extraction speed 2.6 X Track quality 99.8 % Test CRC 86B32C77 Copy CRC 86B32C77 Accurately ripped (confidence 16) [0E8602DA] (AR v1) Copy OK
Track 12
Filename D:\what.cd\BBC MM298- Visions of England\12. Jonathan Lemalu, Iain Burnside - Six Songs from a Shropshire Lad- The Lads in Their Hundreds.wav
Peak level 27.9 % Extraction speed 3.8 X Track quality 100.0 % Test CRC 5EC7B1C7 Copy CRC 5EC7B1C7 Accurately ripped (confidence 16) [7F081EE1] (AR v1) Copy OK
Track 13
Filename D:\what.cd\BBC MM298- Visions of England\13. Jonathan Lemalu, Iain Burnside - Six Songs from a Shropshire Lad- Is My Team Ploughing.wav
Peak level 26.8 % Extraction speed 4.3 X Track quality 100.0 % Test CRC F1F4C4B7 Copy CRC F1F4C4B7 Accurately ripped (confidence 16) [3FFFB359] (AR v1) Copy OK
Track 14
Filename D:\what.cd\BBC MM298- Visions of England\14. BBC Symphony Orchestra - Let Us Garlands Bring- Come Away, Death.wav
Pre-gap length 0:00:06.26
Peak level 22.5 % Extraction speed 4.4 X Track quality 100.0 % Test CRC BC5A6EB8 Copy CRC BC5A6EB8 Accurately ripped (confidence 16) [9A849DA8] (AR v1) Copy OK
Track 15
Filename D:\what.cd\BBC MM298- Visions of England\15. BBC Symphony Orchestra - Let Us Garlands Bring- Who Is Sylvia.wav
Peak level 41.7 % Extraction speed 3.8 X Track quality 100.0 % Test CRC 8A9EEF70 Copy CRC 8A9EEF70 Accurately ripped (confidence 16) [8AE10240] (AR v1) Copy OK
Track 16
Filename D:\what.cd\BBC MM298- Visions of England\16. BBC Symphony Orchestra - Let Us Garlands Bring- Fear No More the Heat o' the Sun.wav
Peak level 29.9 % Extraction speed 4.9 X Track quality 100.0 % Test CRC 3016B23A Copy CRC 3016B23A Accurately ripped (confidence 16) [BEDBEF8F] (AR v1) Copy OK
Track 17
Filename D:\what.cd\BBC MM298- Visions of England\17. BBC Symphony Orchestra - Let Us Garlands Bring- O Mistress Mine.wav
Peak level 38.4 % Extraction speed 4.2 X Track quality 100.0 % Test CRC 45AB68AA Copy CRC 45AB68AA Accurately ripped (confidence 16) [FE7CC936] (AR v1) Copy OK
Track 18
Filename D:\what.cd\BBC MM298- Visions of England\18. BBC Symphony Orchestra - Let Us Garlands Bring- It Was a Lover and His Lass.wav
Peak level 38.3 % Extraction speed 4.6 X Track quality 100.0 % Test CRC 7E06B21F Copy CRC 7E06B21F Accurately ripped (confidence 16) [EC39DEE8] (AR v1) Copy OK
All tracks accurately ripped
No errors occurred
End of status report
---- CUETools DB Plugin V2.1.3
[CTDB TOCID: fc_Z5JEoGw_KJ_zcrzk2iYeBh0E-] found, Submit result: already submitted[f1d59cd1] (2/2) Accurately ripped
==== Log checksum 76A7295F040C651C62FFD73A7631F799B1C735B155FA530C8B4CEC7CC0F93272 ====

Содержание индексной карты (.CUE)

REM GENRE ClassicalREM DATE 2008REM DISCID 0B0F6D12REM COMMENT "ExactAudioCopy v1.0b3"PERFORMER "VA"TITLE "BBC MM298: Visions of England"FILE "01. BBC Symphony Orchestra - Brigg Fair.wav" WAVE TRACK 01 AUDIO TITLE "Brigg Fair" PERFORMER "BBC Symphony Orchestra" INDEX 01 00:00:00 TRACK 02 AUDIO TITLE "On Wenlock Edge: On Wenlock Edge" PERFORMER "Royal String Quartet" INDEX 00 15:22:48FILE "02. Royal String Quartet - On Wenlock Edge- On Wenlock Edge.wav" WAVE INDEX 01 00:00:00FILE "03. Royal String Quartet - On Wenlock Edge- From Far, From Eve and Morning.wav" WAVE TRACK 03 AUDIO TITLE "On Wenlock Edge: From Far, From Eve and Morning" PERFORMER "Royal String Quartet" INDEX 01 00:00:00FILE "04. Royal String Quartet - On Wenlock Edge- Is My Team Ploughing.wav" WAVE TRACK 04 AUDIO TITLE "On Wenlock Edge: Is My Team Ploughing?" PERFORMER "Royal String Quartet" INDEX 01 00:00:00FILE "05. Royal String Quartet - On Wenlock Edge- Oh, When I Was in Love With You.wav" WAVE TRACK 05 AUDIO TITLE "On Wenlock Edge: Oh, When I Was in Love With You" PERFORMER "Royal String Quartet" INDEX 01 00:00:00FILE "06. Royal String Quartet - On Wenlock Edge- Bredon Hill.wav" WAVE TRACK 06 AUDIO TITLE "On Wenlock Edge: Bredon Hill" PERFORMER "Royal String Quartet" INDEX 01 00:00:00FILE "07. Royal String Quartet - On Wenlock Edge- Clun.wav" WAVE TRACK 07 AUDIO TITLE "On Wenlock Edge: Clun" PERFORMER "Royal String Quartet" INDEX 01 00:00:00 TRACK 08 AUDIO TITLE "Six Songs from a Shropshire Lad: Lovliest of Trees" PERFORMER "Jonathan Lemalu, Iain Burnside" INDEX 00 03:23:31FILE "08. Jonathan Lemalu, Iain Burnside - Six Songs from a Shropshire Lad- Lovliest of Trees.wav" WAVE INDEX 01 00:00:00FILE "09. Jonathan Lemalu, Iain Burnside - Six Songs from a Shropshire Lad- When I Was One-and-Twenty.wav" WAVE TRACK 09 AUDIO TITLE "Six Songs from a Shropshire Lad: When I Was One-and-Twenty" PERFORMER "Jonathan Lemalu, Iain Burnside" INDEX 01 00:00:00FILE "10. Jonathan Lemalu, Iain Burnside - Six Songs from a Shropshire Lad- Look Not Into My Eyes.wav" WAVE TRACK 10 AUDIO TITLE "Six Songs from a Shropshire Lad: Look Not Into My Eyes" PERFORMER "Jonathan Lemalu, Iain Burnside" INDEX 01 00:00:00FILE "11. Jonathan Lemalu, Iain Burnside - Six Songs from a Shropshire Lad- Think No More, Lad.wav" WAVE TRACK 11 AUDIO TITLE "Six Songs from a Shropshire Lad: Think No More, Lad" PERFORMER "Jonathan Lemalu, Iain Burnside" INDEX 01 00:00:00FILE "12. Jonathan Lemalu, Iain Burnside - Six Songs from a Shropshire Lad- The Lads in Their Hundreds.wav" WAVE TRACK 12 AUDIO TITLE "Six Songs from a Shropshire Lad: The Lads in Their Hundreds" PERFORMER "Jonathan Lemalu, Iain Burnside" INDEX 01 00:00:00FILE "13. Jonathan Lemalu, Iain Burnside - Six Songs from a Shropshire Lad- Is My Team Ploughing.wav" WAVE TRACK 13 AUDIO TITLE "Six Songs from a Shropshire Lad: Is My Team Ploughing?" PERFORMER "Jonathan Lemalu, Iain Burnside" INDEX 01 00:00:00 TRACK 14 AUDIO TITLE "Let Us Garlands Bring: Come Away, Death" PERFORMER "BBC Symphony Orchestra" INDEX 00 03:30:68FILE "14. BBC Symphony Orchestra - Let Us Garlands Bring- Come Away, Death.wav" WAVE INDEX 01 00:00:00FILE "15. BBC Symphony Orchestra - Let Us Garlands Bring- Who Is Sylvia.wav" WAVE TRACK 15 AUDIO TITLE "Let Us Garlands Bring: Who Is Sylvia?" PERFORMER "BBC Symphony Orchestra" INDEX 01 00:00:00FILE "16. BBC Symphony Orchestra - Let Us Garlands Bring- Fear No More the Heat o' the Sun.wav" WAVE TRACK 16 AUDIO TITLE "Let Us Garlands Bring: Fear No More the Heat o' the Sun" PERFORMER "BBC Symphony Orchestra" INDEX 01 00:00:00FILE "17. BBC Symphony Orchestra - Let Us Garlands Bring- O Mistress Mine.wav" WAVE TRACK 17 AUDIO TITLE "Let Us Garlands Bring: O Mistress Mine" PERFORMER "BBC Symphony Orchestra" INDEX 01 00:00:00FILE "18. BBC Symphony Orchestra - Let Us Garlands Bring- It Was a Lover and His Lass.wav" WAVE TRACK 18 AUDIO TITLE "Let Us Garlands Bring: It Was a Lover and His Lass" PERFORMER "BBC Symphony Orchestra" INDEX 01 00:00:00



Показать сообщения:    

Текущее время: 08-Дек 07:04

Часовой пояс: UTC + 3


Вы не можете начинать темы
Вы не можете отвечать на сообщения
Вы не можете редактировать свои сообщения
Вы не можете удалять свои сообщения
Вы не можете голосовать в опросах
Вы не можете прикреплять файлы к сообщениям
Вы не можете скачивать файлы