(Choral / Vocal Music) I Fagiolini - The Art of Monteverdi - 1990, APE (image+.cue) lossless


 

[Цитировать]

I Fagiolini - The Art of Monteverdi
Жанр: Choral / Vocal Music
Страна-производитель диска: England
Год издания диска: 1990
Издатель (лейбл): Factory Records
Номер по каталогу: Facd316
Дата записи: 8-10 May 1990
Аудиокодек: APE
Тип рипа: image+.cue
Битрейт аудио: lossless
Продолжительность: 64:04
Источник: собственный рип
Наличие сканов в содержимом раздачи: нет
Треклист:
1. Altri canti d'Amor - Book VIII
2. Interrote speranze - Book VII
3. Lamento della ninfa - Book VIII
4. Ninfa che scalza il piede - Book VIII
5. Quell' augellin - Book IV
6. Piagne e Sospira - Book IV
7. Si ch'io vorrei morire - Book IV
8. Vorrei baciarti - Book VII
9. Quel sguardo sdegnosetto - Book X
10. Gira, il nemico - Book VIII
11. Vago augelletto - Book VIII
12. Ohime il bel viso - Book VI
13. Lamento d'Arianna - Book VI

Исполнители

The singers:
Anna Crookes - soprano
Lindsay Wagstaff - soprano
Richard Wyn-Roberts - counter-tenor
Andrew Tusa - tenor
Andrew Burden - tenor
Hugh Wilson - tenor
Henry Wickham - baritone
Mark Holloway - bass
Directed by: Robert Hollingworth
The players:
Tom Finucane - archlute
David Roblou - harpsichord
Hannelore de Vaere - harp
Risa Browder - violin
Stephen Jones - violin
Susanah Pell - viol
Julia Hodgson - viol
Sarah Groser - viol
Mark Lacy - violone

Лог создания рипа

Exact Audio Copy V0.99 prebeta 5 from 4. May 2009
Звіт EAC про видобування, котре виконане 2. квітня 2013, 14:33
I Fagiolini / The Art of Monteverdi
Дисковод: SONY DVD RW DRU-190A Adapter: 0 ID: 0
Режим читання : ТочнийВикористати точний потік : ТакВимкнути аудіо кеш : ТакЗастосувати мітки C2 : Ні
Корекція зміщення при читанні : 6Екстрачитання областей Lead-in і Lead-out : НіЗаповнення пропущених семплів тишею : ТакВидалення блоків з тишею на початку і кінці : НіПри вирахуванні CRC використовувались нульові семпли : ТакВикористаний інтерфейс : Встановлений зовнішній ASPI-інтерфейс
Застосований вихідний формат : Кодер Monkey's Audio LosslessОбраний бітрейт : High Lossless CompressionЯкість : ВисокийДодати тег ID3 : ТакКомпресор командного рядка : D:\Program Files\Monkey's Audio\MAC.exeДодаткові параметри командного рядка : %source% %dest% -c3000
TOC видобутого CD
Трек | Старт | Довжина | Початковий сектор | Кінцевий сектор ------------------------------------------------------------------ 1 | 0:00.50 | 8:59.25 | 50 | 40499 2 | 9:00.00 | 2:59.00 | 40500 | 53924 3 | 11:59.00 | 5:56.05 | 53925 | 80629 4 | 17:55.05 | 5:00.45 | 80630 | 103174 5 | 22:55.50 | 2:07.47 | 103175 | 112746 6 | 25:03.22 | 3:51.33 | 112747 | 130104 7 | 28:54.55 | 2:42.67 | 130105 | 142321 8 | 31:37.47 | 4:11.65 | 142322 | 161211 9 | 35:49.37 | 2:32.70 | 161212 | 172681 10 | 38:22.32 | 5:28.18 | 172682 | 197299 11 | 43:50.50 | 4:38.55 | 197300 | 218204 12 | 48:29.30 | 4:21.00 | 218205 | 237779 13 | 52:50.30 | 11:25.20 | 237780 | 289174
Статус діапазону і помилки
Обраний діапазон
Ім'я файлу M:\I Fagiolini - The Art of Monteverdi\I Fagiolini - The Art of Monteverdi.wav
Піковий рівень 97.8 % Якість діапазону 100.0 % CRC тесту 5BF44ABE CRC копії 5BF44ABE Копіювання... OK
Помилки не траплялися
Звіт Точного Видобування
Трек 1 не присутнє в базі данихТрек 2 не присутнє в базі данихТрек 3 не присутнє в базі данихТрек 4 не присутнє в базі данихТрек 5 не присутнє в базі данихТрек 6 не присутнє в базі данихТрек 7 не присутнє в базі данихТрек 8 не присутнє в базі данихТрек 9 не присутнє в базі данихТрек 10 не присутнє в базі данихТрек 11 не присутнє в базі данихТрек 12 не присутнє в базі данихТрек 13 не присутнє в базі даних
Жодного трека немає в базі AccurateRip
Кінець звіту



Показать сообщения:    

Текущее время: 06-Дек 22:53

Часовой пояс: UTC + 3


Вы не можете начинать темы
Вы не можете отвечать на сообщения
Вы не можете редактировать свои сообщения
Вы не можете удалять свои сообщения
Вы не можете голосовать в опросах
Вы не можете прикреплять файлы к сообщениям
Вы не можете скачивать файлы