Медея (Михаил Цитриняк) [2011, драма, DVB, AVC] Государственный Академический театр имени Евг. Вахтангова


 

[Цитировать]

Медея
Название театра: Государственный Академический театр имени Евг. Вахтангова
Жанр: драма
Год выпуска: 2011
Продолжительность: 01:21:35
Режиссёр: Михаил Цитриняк
В ролях: Юлия Рутберг, Григорий Антипенко, Андрей Зарецкий, Инна Алабина, Наталья Молева, Василий Симонов, Владимир Логвинов, Василий Цыганцов, Федор Воронцов, Владислав Гандрабура, Василий Симонов, Юрий Поляк, Валерий Ушаков, Андрей Злобин, Павел Юдин, Владимир Шульев, Анастасия Васильева, Ирина Калистратова, Елена Мельникова, Нино Кантария, Екатерина Крамзина, Полина Кузьминская, Лада Чуровская, Аделина Гизатуллина, Полина Чернышова
Описание: Медея Юлии Рутберг живет не сегодня, а вчера, у нее нет завтра. Ее память неистребимо возвращается к истокам, когда она, дочь царя Колхиды, похитила ради любимого золотое руно. Для Медеи предательство Ясона не только попрание любви, это разрушение ее жизненного пространства, гармонии души.
В их поединке не может быть победителя. В единоборстве столкнулись разные миры, где долг, честь и «здравый смысл» — антагонисты. Смерть — граница их вражды и выбор ее - высшее проявление свободы личности.
Медея уходит в небытие вместе с детьми, ибо не может оставить их такому Ясону, благоденствующему в созданном им мире филистерского равнодушия. Она не позволит им оказаться заложниками пошлой философии сытого равенства. Смерть — не поражение Медеи, а ее нравственная победа.
В трагедии Ануя столкнулись два Мира — Медея и Ясон, свобода и мещанский стандарт жизни.
Финальная мизансцена — метафора. Фигура Медеи рифмуется с мифической Никой — символом Победы.
Доп. информация:
Запись потока *.ts со спутника Intelsat-15 / Horizons 2, 85.2° в.д., ремукс в *.mkv программой VideoReDo.
Семпл: https://cloud.mail.ru/public/EtgQ/UMr7m6ncq
Качество видео: DVB
Формат видео: MKV
Видео: Advanced Video Codec, 720(1044)x576 (4:3), 25,000 кадров/сек, 977 Кбит/сек
Аудио: MPEG Audio, 48,0 КГц, 160 Кбит/сек, 2 канала

MediaInfo

Общее
Уникальный идентификатор : 161246878646649311882263143639726386075 (0x794F04EA73BF188EE4AC104946B36B9B)
Полное имя : D:\MPG\МЕДЕЯ\МЕДЕЯ (Театр).mkv
Формат : Matroska
Версия формата : Version 2
Размер файла : 677 Мбайт
Продолжительность : 1 ч. 21 м.
Общий поток : 1160 Кбит/сек
Программа кодирования : Lavf52.64.2
Библиотека кодирования : Lavf52.64.2
Видео
Идентификатор : 1
Формат : AVC
Формат/Информация : Advanced Video Codec
Профиль формата : Main@L3.0
Параметр CABAC формата : Да
Параметр ReFrames формата : 3 кадра
Идентификатор кодека : V_MPEG4/ISO/AVC
Продолжительность : 1 ч. 21 м.
Битрейт : 977 Кбит/сек
Ширина : 720 пикселей
Высота : 576 пикселей
Соотношение сторон : 16:9
Соотношение сторон в оригинале : 16:9
Режим частоты кадров : Постоянный
Частота кадров : 25,000 кадров/сек
Стандарт вещания : Component
Цветовое пространство : YUV
Субдискретизация насыщенности : 4:2:0
Битовая глубина : 8 бит
Тип развёртки : Чересстрочная
Порядок развёртки : Верхнее поле первое
Бит/(Пиксели*Кадры) : 0.094
Размер потока : 570 Мбайт (84%)
Default : Да
Forced : Нет
Основные цвета : BT.601 PAL
Характеристики трансфера : BT.470 System B, BT.470 System G
Коэффициенты матрицы : BT.601
Аудио
Идентификатор : 2
Формат : MPEG Audio
Версия формата : Version 1
Профиль формата : Layer 2
Идентификатор кодека : A_MPEG/L2
Идентификатор кодека/Подсказка : MP2
Продолжительность : 1 ч. 21 м.
Вид битрейта : Постоянный
Битрейт : 160 Кбит/сек
Каналы : 2 канала
Частота : 48,0 КГц
Метод сжатия : С потерями
Размер потока : 93,4 Мбайт (14%)
Язык : Russian
Default : Да
Forced : Нет

Скриншот с названием постановки



Последний раз редактировалось: admin (2015-10-31 16:25), всего редактировалось 1 раз

[Цитировать]

И здесь нет торрента! А спектакль бы с удовольствием скачала - видела его живьем!
Значит опять в системе неполадки?

[Цитировать]

Админ!
А вот такие спектакли стоит раздавать только в DVD! ah Если есть такой формат, плиз, сделайте мне на диске! Буду премного благодарна! ax

[Цитировать]

aga, все торренты на месте. Отписался вам в лс. Диска с dvd у меня нету.


Показать сообщения:    

Текущее время: 05-Дек 03:30

Часовой пояс: UTC + 3


Вы не можете начинать темы
Вы не можете отвечать на сообщения
Вы не можете редактировать свои сообщения
Вы не можете удалять свои сообщения
Вы не можете голосовать в опросах
Вы не можете прикреплять файлы к сообщениям
Вы не можете скачивать файлы