Гамлет / Hamlet (Майкл Алмерейда / Michael Almereyda) [2000, США, драма, WEB-DL 720p] MVO + Sub Eng, Rus + Original Eng


 

[Цитировать]

Гамлет / Hamlet
Страна: США
Жанр: Драма
Год выпуска: 2000
Продолжительность: 01:47:58-Перевод: Профессиональный (многоголосый закадровый)
Cубтитры: английские, русские
Оригинальная аудиодорожка: английский-Режиссер: Майкл Алмерейда / Michael Almereyda-В ролях: Итан Хоук, Кайл МакЛахлан, Дайан Венора, Джулия Стайлс, Билл Мюррей, Лив Шрайбер, Карл Гири, Стив Зан, Дечен Термэн, Пола Мэлкомсон, Джеффри Райт , Роум Нил, Пол Бартел, Сэм Шепард-Описание:
Версия бессмертного «Гамлета», жестокой саги о любви, предательстве и смерти. Нью-Йорк, 2000 год. Король и президент датской корпорации умер. Вдова поспешила выйти замуж за его младшего брата. Сын короля, Гамлет, вернувшись из колледжа, заподозрил грязную игру.-Сэмпл: Скачать-Тип релиза: WEB-DL 720p
Контейнер: MKV-Видео: 1 208x690 (1.85:1); 3 960 Kbps; 23.976 fps; 0.187 bpp
Аудио 1: Russian; AC3; 48.0 KHz; 6ch; 384 Kbps
Аудио 2: English; AC3; 48.0 KHz; 6ch; 384 Kbps
Формат субтитров: softsub (SRT)

MediaInfo

Format : Matroska
Format version : Version 4 / Version 2
File size : 3.76 GiB
Duration : 1h 51mn
Overall bit rate : 4 824 Kbps
Encoded date : UTC 2015-08-07 15:59:21
Writing application : mkvmerge v8.1.0 ('Psychedelic Postcard') 64bit
Writing library : libebml v1.3.1 + libmatroska v1.4.2
Attachements : poster.jpg
DURATION : 01:44:36.559000000
NUMBER_OF_FRAMES : 836
NUMBER_OF_BYTES : 68640
_STATISTICS_WRITING_APP : mkvmerge v8.1.0 ('Psychedelic Postcard') 64bit
_STATISTICS_WRITING_DATE_UTC : 2015-08-07 15:59:21
_STATISTICS_TAGS : BPS DURATION NUMBER_OF_FRAMES NUMBER_OF_BYTES
Video
ID : 1
Format : AVC
Format/Info : Advanced Video Codec
Format profile : High@L3.1
Format settings, CABAC : No
Format settings, ReFrames : 2 frames
Format settings, GOP : N=1
Codec ID : V_MPEG4/ISO/AVC
Duration : 1h 51mn
Bit rate : 3 960 Kbps
Width : 1 280 pixels
Height : 690 pixels
Display aspect ratio : 1.85:1
Frame rate mode : Constant
Frame rate : 23.976 fps
Color space : YUV
Chroma subsampling : 4:2:0
Bit depth : 8 bits
Scan type : Progressive
Bits/(Pixel*Frame) : 0.187
Stream size : 3.08 GiB (82%)
Language : English
Default : Yes
Forced : No
Color primaries : BT.709
Transfer characteristics : BT.709
Matrix coefficients : BT.709
Audio #1
ID : 2
Format : AC-3
Format/Info : Audio Coding 3
Mode extension : CM (complete main)
Format settings, Endianness : Big
Codec ID : A_AC3
Duration : 1h 51mn
Bit rate mode : Constant
Bit rate : 384 Kbps
Channel(s) : 6 channels
Channel positions : Front: L C R, Side: L R, LFE
Sampling rate : 48.0 KHz
Bit depth : 16 bits
Compression mode : Lossy
Stream size : 306 MiB (8%)
Language : Russian
Default : Yes
Forced : No
Audio #2
ID : 3
Format : AC-3
Format/Info : Audio Coding 3
Mode extension : CM (complete main)
Format settings, Endianness : Big
Codec ID : A_AC3
Duration : 1h 51mn
Bit rate mode : Constant
Bit rate : 384 Kbps
Channel(s) : 6 channels
Channel positions : Front: L C R, Side: L R, LFE
Sampling rate : 48.0 KHz
Bit depth : 16 bits
Compression mode : Lossy
Stream size : 306 MiB (8%)
Language : English
Default : No
Forced : No
Text #1
ID : 4
Format : UTF-8
Codec ID : S_TEXT/UTF8
Codec ID/Info : UTF-8 Plain Text
Language : Russian
Default : No
Forced : No
Text #2
ID : 5
Format : UTF-8
Codec ID : S_TEXT/UTF8
Codec ID/Info : UTF-8 Plain Text
Language : English
Default : No
Forced : No
Menu
00:00:00.000 : en:Opening/New York 2000
00:07:46.000 : en:A Ghostly Sight
00:14:28.000 : en:Beware Your Heart
00:19:38.000 : en:Thy Father's Spirit
00:27:29.000 : en:Avoid Hamlet!
00:29:43.000 : en:Oh, Ophelia
00:33:16.000 : en:To Be Or Not To Be
00:35:51.000 : en:"Your Son Is Mad"
00:40:08.000 : en:Cowards Of Us All
00:42:38.000 : en:Denmark The Prison
00:45:36.000 : en:Guilty Creatures
00:47:14.000 : en:Scheming Players
00:52:34.000 : en:The Mousetrap
01:00:04.000 : en:Foul Murderer
01:10:51.000 : en:A Thing Of Nothing
01:15:10.000 : en:Off To London
01:18:12.000 : en:A Family Scorned
01:22:56.000 : en:Laertes' Revenge
01:28:48.000 : en:Hamlet's Return
01:32:42.000 : en:King Calls A Trail
01:37:46.000 : en:Duel To The Death
01:45:14.000 : en:End Credits

Скриншоты




Показать сообщения:    

Текущее время: 10-Дек 08:05

Часовой пояс: UTC + 3


Вы не можете начинать темы
Вы не можете отвечать на сообщения
Вы не можете редактировать свои сообщения
Вы не можете удалять свои сообщения
Вы не можете голосовать в опросах
Вы не можете прикреплять файлы к сообщениям
Вы не можете скачивать файлы