Истории Догвиля / Признания Догвилля / Dogville Confessions (Сами Саиф / Sami Saif) [2003, Документальный, DVD5 (Custom)] MVO(Рен-Тв) + Sub Por + Original Eng / California Filmes


Статистика раздачи [Обновить пиров]
Размер:  2.98 GB   |    Зарегистрирован:  1 год 1 месяц   |    Скачан:  0 раз

Полного источника не было: Никогда

 
   
 
 
 

[Цитировать]

Истории Догвиля / Признания Догвилля / Dogville Confessions / California Filmes«Dogs & Deer - Dogville Confessions»Скачать Диск 1 - Текущий Диск 2 - Пилот Страна:Дания
Студия:Almaz Film Productions S.A., Film i Vast, Zentropa Real ApS.
Жанр:ДокументальныйГод выпуска:2003
Продолжительность:00:53:20Перевод :Профессиональный (многоголосый закадровый) Рен-ТвCубтитры:Португальские
Оригинальная аудиодорожка:Английский
Премьера (мир):27.06.2003
Режиссер:Сами Саиф / Sami SaifВ ролях:Харриет Андерссон, Лорен Бэколл, Пол Беттани, Блэр Браун, Патришия Кларксон, Джереми Дэвис, Энтони Дод Мэнтл, Шиван Фэллон, Бен Газзара, Николь Кидман
Описание:Документальный фильм о съемках картины «Догвилль» Ларса фон Триера содержит уникальные кадры со съемочной площадки и интервью с актерами и режиссером фильма
Доп. информация:Исходник найден в сети.Профессиональный (многоголосый, закадровый)-Рен-Тв
Реавторинг Нордер.
Огромное Спасибо Всем, без чьей помощи этот релиз не состоялся бы!Продюсер:Карстен Хольст, Сигне Биркет-Смит, Томас ЭскильссонКомпозитор:Сёрен ХюлльгорМонтаж:Камилла Шейберг

Это интересно[b][color=olive]Сами Саиф[/color]-[url=https://en.wikipedia.org/wiki/Sami_Saif]https://en.wikipedia.org/wiki/Sami_Saif[/url] [/b]Награды и номинации

Рецензия

Софт

PGCDemux (извлечение).
BeSweet, Sony Vegas 9 (звук).
MuxMan (сборка). DvdReMakePro (финал).

Бонусы:(Без перевода)

- -In English with Portuguese subs:
- Dogville Confessions (53:20)
- Interview with Lars von Trier (14:39)
- Trailer
Меню:Португальский, статичное , озвученное.Сэмпл:https://www.sendspace.com/file/4izlpzТип релиза:DVD5 (Custom)
Контейнер:DVD-Video
Видео:NTSC 4:3 (720x480) VBR, 5792 Кбит/сек, 29,970 кадров/секАудио 1:Русский:AC3, 2 ch, 48.0 KHz, 192 Кбит/сек / Профессиональный (многоголосый, закадровый)-Рен-ТвАудио 2:Английский:AC3, 2 ch, 48.0 KHz, 192 Кбит/сек / (Оригинал)Формат субтитров:prerendered (DVD/IDX+SUB)

Dvd Info

Title: Dogville Confessions DVD-5_Custom
Size: 2.98 Gb ( 3 129 612,00 KBytes ) - DVD-5
Enabled regions: 1, 2, 3, 4, 5, 6, 7, 8
VTS_01 :
Play Length: 00:53:20+00:00:12+00:00:10
Video: NTSC 4:3 (720x480) VBR
Audio:
Russian (Dolby AC3, 2 ch)
English (Dolby AC3, 2 ch)
Subtitles:
Portugues
VTS_02 :
Play Length: 00:14:39+00:02:08
Video: NTSC 4:3 (720x480) VBR
Audio:
English (Dolby AC3, 2 ch)
Subtitles:
Portugues

Mediainfo

Общее
Полное имя: F:\Dogville Confessions DVD-5_Custom\VIDEO_TS\VTS_01_2.VOB
Формат : MPEG-PS
Размер файла : 1024 Мбайт
Продолжительность : 22 м.
Режим общего битрейта : Переменный
Общий поток : 6302 Кбит/сек
Видео
Идентификатор : 224 (0xE0)
Формат : MPEG Video
Версия формата : Version 2
Профиль формата : Main@Main
Параметр BVOP формата : Да
Параметр матрицы формата : Выборочная
Параметр GOP формата : M=3, N=15
Структура изображения : Frame
Продолжительность : 22 м.
Вид битрейта : Переменный
Битрейт : 5792 Кбит/сек
Максимальный битрейт : 7500 Кбит/сек
Ширина : 720 пикселей
Высота : 480 пикселей
Соотношение сторон : 4:3
Частота кадров : 29,970 кадров/сек
Стандарт вещания : NTSC
Цветовое пространство : YUV
Субдискретизация насыщенности : 4:2:0
Битовая глубина : 8 бит
Тип развёртки : Чересстрочная
Порядок развёртки : Верхнее поле первое
Метод сжатия : С потерями
Бит/(Пиксели*Кадры) : 0.559
Временной код первого кадра : 00:23:54;18
Оригинал временного кода : Group of pictures header
GOP, открыто/закрыто : Открыто
Размер потока : 941 Мбайт (92%)
Аудио #1
Идентификатор : 189 (0xBD)-128 (0x80)
Формат : AC-3
Формат/Информация : Audio Coding 3
Расширение режима : CM (complete main)
Параметр Endianness формата : Big
Режим смешивания : DVD-Video
Продолжительность : 22 м.
Вид битрейта : Постоянный
Битрейт : 192 Кбит/сек
Каналы : 2 канала
Расположение каналов : Front: L R
Частота : 48,0 КГц
Метод сжатия : С потерями
Задержка видео : -264 мс.
Размер потока : 31,2 Мбайт (3%)
Аудио #2
Идентификатор : 189 (0xBD)-129 (0x81)
Формат : AC-3
Формат/Информация : Audio Coding 3
Расширение режима : CM (complete main)
Параметр Endianness формата : Big
Режим смешивания : DVD-Video
Продолжительность : 22 м.
Вид битрейта : Постоянный
Битрейт : 192 Кбит/сек
Каналы : 2 канала
Расположение каналов : Front: L R
Частота : 48,0 КГц
Метод сжатия : С потерями
Задержка видео : -264 мс.
Размер потока : 31,2 Мбайт (3%)
Текст
Идентификатор : 189 (0xBD)-32 (0x20)
Формат : RLE
Формат/Информация : Run-length encoding
Режим смешивания : DVD-Video

Скриншоты меню

Скриншоты

Скриншоты доп. материалов

Полиграфия

[teatrix.ru].t8200.torrent 
Торрент: Зарегистрирован [ 2015-10-14 22:37 ] · 70FCE61066B27DD422197C26681B32C95F534DCB

Скачать .torrent

Скачать

16 KB

Статус: проверено
Скачан: 0 раз
Размер: 2.98 GB
terms.php



Быстрый ответ

Имя:

      
Для отправки сообщений необходимо включить JavaScript
Показать сообщения:    

Текущее время: 07-Дек 15:28

Часовой пояс: UTC + 3


Вы можете начинать темы
Вы можете отвечать на сообщения
Вы не можете редактировать свои сообщения
Вы не можете удалять свои сообщения
Вы не можете голосовать в опросах
Вы не можете прикреплять файлы к сообщениям
Вы можете скачивать файлы