(Opera) Рахманинов (Rachmaninov, Rachmaninoff) - Алеко • Чайковский - Иоланта (Урбанович, Борисов, Горбунова - Хор и окестр Новосибирской государственной оперы, Людмилин) - 1996, APE (image+.cue) lossless


 

[Цитировать]

Sergei Rachmaninov - Aleko • Peter Ilyich Tchaikovsky - Iolanta
Жанр: Opera
Страна-производитель диска: Germany
Год издания диска: 1996
Издатель (лейбл): Arte Nova
Номер по каталогу: 74321 391192
Дата записи: 1996
Аудиокодек: APE
Тип рипа: image+.cue
Битрейт аудио: lossless
Продолжительность: 70'17+74'15
Источник: собственный рип
Наличие сканов в содержимом раздачи: да
Треклист / Исполнители:
Aleko
Треклист:
CD1
1. Introduction
2. Chorus I
3. The Old Gipsy's Narrative
4. Chorus II
5. Women's Dance
6. Men's Dance
7. Chorus III
8. Duettino
9. Scene By The Cradle
10. Aleko's Cavatina
11. Intermezzo
12. The Young Gipsy's Romance
13. Duet And Finale
Sergei Rachmaninov - Aleko
Igor Borissov (Tenor)
Olga Babkina (Soprano)
Tatyana Gorbunova (Alto),
Vitaly Efanov (Bass)
Vladimir Urbanovitch (Baritone)
Novosibirsk State Opera Chorus
Novosibirsk State Opera Orchestra
Conductor: Alexei Ludmilin
Iolanta
Треклист:
CD1
14. Overture
15. Iolanta, My Little One, Are You Tired?
16. Martha
CD2
1. Brigitta, Is That You?
2. A Bugle Call
3. The Expression You Wear
4. Hurry Not, It Is So Dark Here
5. No, The Charming Attentions
6. But Where On Earth Are We?
7. Iolanta! Where Are You?
8. Please Forgive Me
Peter Ilyich Tchaikovsky - Iolanta Op. 69
Olga Obuchova (Mezzo Soprano
Vladimir Prudnik (Baritone)
Liliya Ustiuzhanina (Mezzo Soprano),
Tatyana Gorbunova (Alto)
Andrei Alekseev (Tenor)
Ivan Potritsayev (Bass),
Vassily Gorshkov (Tenor)
Sergei Nikitin (Baritone)
Alexei Levitsky (Bass),
Tatyana Vorozhzova (Soprano)
Novosibirsk State Opera Chorus
Novosibirsk State Opera Orchestra
Conductor: Alexei Ludmilin

Лог создания рипа

CD1

Exact Audio Copy V1.0 beta 6 from 9. April 2015
EAC extraction logfile from 5. October 2015, 12:08
Novosibirsk State Opera Orchestra - A.Ludmilin; / Rachmaninov - Aleko
Used drive : TSSTcorpCDDVDW SE-208AB Adapter: 1 ID: 1
Read mode : Secure
Utilize accurate stream : Yes
Defeat audio cache : Yes
Make use of C2 pointers : No
Read offset correction : 6
Overread into Lead-In and Lead-Out : No
Fill up missing offset samples with silence : Yes
Delete leading and trailing silent blocks : No
Null samples used in CRC calculations : Yes
Used interface : Native Win32 interface for Win NT & 2000
Used output format : Monkey's Audio Lossless Encoder
Selected bitrate : High Lossless Compression
Quality : High
Add ID3 tag : Yes
Command line compressor : C:\Program Files (x86)\Exact Audio Copy\MAC\MAC.exe
TOC of the extracted CD
Track | Start | Length | Start sector | End sector
---------------------------------------------------------
1 | 0:00.32 | 2:57.18 | 32 | 13324
2 | 2:57.50 | 4:34.07 | 13325 | 33881
3 | 7:31.57 | 5:00.70 | 33882 | 56451
4 | 12:32.52 | 2:23.63 | 56452 | 67239
5 | 14:56.40 | 4:08.17 | 67240 | 85856
6 | 19:04.57 | 4:24.60 | 85857 | 105716
7 | 23:29.42 | 3:12.40 | 105717 | 120156
8 | 26:42.07 | 2:48.65 | 120157 | 132821
9 | 29:30.72 | 4:20.35 | 132822 | 152356
10 | 33:51.32 | 5:37.15 | 152357 | 177646
11 | 39:28.47 | 2:18.68 | 177647 | 188064
12 | 41:47.40 | 1:45.00 | 188065 | 195939
13 | 43:32.40 | 13:08.42 | 195940 | 255081
14 | 56:41.07 | 2:24.48 | 255082 | 265929
15 | 59:05.55 | 9:03.05 | 265930 | 306659
16 | 68:08.60 | 2:08.22 | 306660 | 316281
Range status and errors
Selected range
Filename D:\EAC\Rachmaninov - Aleko.wav
Peak level 76.8 %
Extraction speed 5.1 X
Range quality 100.0 %
Test CRC 67804983
Copy CRC 67804983
Copy OK
No errors occurred
AccurateRip summary
Track 1 accurately ripped (confidence 1) [D2D858E7] (AR v1)
Track 2 accurately ripped (confidence 1) [28E09A78] (AR v1)
Track 3 accurately ripped (confidence 1) [FCAD3D01] (AR v1)
Track 4 accurately ripped (confidence 1) [7C5AC13E] (AR v1)
Track 5 accurately ripped (confidence 1) [9E83980B] (AR v1)
Track 6 accurately ripped (confidence 1) [78F08729] (AR v1)
Track 7 accurately ripped (confidence 1) [6B5D18C3] (AR v1)
Track 8 accurately ripped (confidence 1) [A64E5158] (AR v1)
Track 9 accurately ripped (confidence 1) [4D48D955] (AR v1)
Track 10 accurately ripped (confidence 1) [E6779E26] (AR v1)
Track 11 accurately ripped (confidence 1) [8C9B65D6] (AR v1)
Track 12 accurately ripped (confidence 1) [35035413] (AR v1)
Track 13 accurately ripped (confidence 1) [BC387E91] (AR v1)
Track 14 accurately ripped (confidence 1) [1BB67452] (AR v1)
Track 15 accurately ripped (confidence 1) [FED09B48] (AR v1)
Track 16 accurately ripped (confidence 1) [7FFCF8D8] (AR v1)
All tracks accurately ripped
End of status report
---- CUETools DB Plugin V2.1.6
[CTDB TOCID: WbeXiPCNEQMzthOV767le3m1DwE-] disk not present in database
Submit result: WbeXiPCNEQMzthOV767le3m1DwE- has been uploaded
==== Log checksum 6D4728EA8F6B045184C6DAE960E637854FE1A8EB846A4CC56525CDF3D0E4A7FD ====

CD2

Exact Audio Copy V1.0 beta 6 from 9. April 2015
EAC extraction logfile from 5. October 2015, 12:31
Novosibirsk State Opera Orchestra - A.Ludmilin; / Tchaikovsky - Iolanta
Used drive : TS8XDVDSTRANSCEND Adapter: 1 ID: 2
Read mode : Secure
Utilize accurate stream : Yes
Defeat audio cache : Yes
Make use of C2 pointers : No
Read offset correction : 6
Overread into Lead-In and Lead-Out : No
Fill up missing offset samples with silence : Yes
Delete leading and trailing silent blocks : No
Null samples used in CRC calculations : Yes
Used interface : Native Win32 interface for Win NT & 2000
Used output format : Monkey's Audio Lossless Encoder
Selected bitrate : High Lossless Compression
Quality : High
Add ID3 tag : Yes
Command line compressor : C:\Program Files (x86)\Exact Audio Copy\MAC\MAC.exe
TOC of the extracted CD
Track | Start | Length | Start sector | End sector
---------------------------------------------------------
1 | 0:00.32 | 5:24.20 | 32 | 24351
2 | 5:24.52 | 11:30.13 | 24352 | 76114
3 | 16:54.65 | 6:15.60 | 76115 | 104299
4 | 23:10.50 | 4:56.35 | 104300 | 126534
5 | 28:07.10 | 3:18.40 | 126535 | 141424
6 | 31:25.50 | 19:50.05 | 141425 | 230679
7 | 51:15.55 | 10:50.10 | 230680 | 279439
8 | 62:05.65 | 12:09.00 | 279440 | 334114
Range status and errors
Selected range
Filename D:\EAC\Tchaikovsky - Iolanta.wav
Peak level 100.0 %
Extraction speed 2.1 X
Range quality 100.0 %
Test CRC 2746679C
Copy CRC 2746679C
Copy OK
No errors occurred
AccurateRip summary
Track 1 accurately ripped (confidence 1) [9A7E5004] (AR v1)
Track 2 accurately ripped (confidence 1) [E967E78D] (AR v1)
Track 3 accurately ripped (confidence 1) [13ED9DF2] (AR v1)
Track 4 accurately ripped (confidence 1) [34EE420E] (AR v1)
Track 5 accurately ripped (confidence 1) [588AE234] (AR v1)
Track 6 accurately ripped (confidence 1) [DCE6DBF6] (AR v1)
Track 7 accurately ripped (confidence 1) [10736BB4] (AR v1)
Track 8 accurately ripped (confidence 1) [C38944C5] (AR v1)
All tracks accurately ripped
End of status report
---- CUETools DB Plugin V2.1.6
[CTDB TOCID: JFybNfI8Oh5yunoeQDhRXZuLrwM-] disk not present in database
Submit result: unrecognized or virtual drive
==== Log checksum EC0EFEFD7DFA19424897E94B529B5E00C0B8B462A49901BA43E614E7FACF85E5 ====

Содержание индексной карты (.CUE)

CD1

REM GENRE Opera
REM DATE 1996
REM DISCID D2107910
REM COMMENT "ExactAudioCopy v1.0b6"
CATALOG 0000000000000
PERFORMER "Novosibirsk State Opera Orchestra - A.Ludmilin;"
TITLE "Rachmaninov - Aleko"
FILE "Rachmaninov - Aleko.ape" WAVE
TRACK 01 AUDIO
TITLE "Aleko: Introduction"
PERFORMER "Novosibirsk State Opera Orchestra - A.Ludmilin;"
INDEX 00 00:00:00
INDEX 01 00:00:32
TRACK 02 AUDIO
TITLE "Chorus I"
PERFORMER "Novosibirsk State Opera Orchestra - A.Ludmilin;"
INDEX 00 02:55:58
INDEX 01 02:57:50
TRACK 03 AUDIO
TITLE "The Old Gipsy's Narrative"
PERFORMER "Novosibirsk State Opera Orchestra - A.Ludmilin;"
INDEX 00 07:30:57
INDEX 01 07:31:57
TRACK 04 AUDIO
TITLE "Scene and Chorus II"
PERFORMER "Novosibirsk State Opera Orchestra - A.Ludmilin;"
INDEX 01 12:32:52
TRACK 05 AUDIO
TITLE "Women's Dance"
PERFORMER "Novosibirsk State Opera Orchestra - A.Ludmilin;"
INDEX 01 14:56:40
TRACK 06 AUDIO
TITLE "Men's Dance"
PERFORMER "Novosibirsk State Opera Orchestra - A.Ludmilin;"
INDEX 00 19:03:57
INDEX 01 19:04:57
TRACK 07 AUDIO
TITLE "Chorus III"
PERFORMER "Novosibirsk State Opera Orchestra - A.Ludmilin;"
INDEX 01 23:29:42
TRACK 08 AUDIO
TITLE "Duettino"
PERFORMER "Novosibirsk State Opera Orchestra - A.Ludmilin;"
INDEX 00 26:40:57
INDEX 01 26:42:07
TRACK 09 AUDIO
TITLE "Scene by the Cradle"
PERFORMER "Novosibirsk State Opera Orchestra - A.Ludmilin;"
INDEX 00 29:28:57
INDEX 01 29:30:72
TRACK 10 AUDIO
TITLE "Aleko's Cavatina"
PERFORMER "Novosibirsk State Opera Orchestra - A.Ludmilin;"
INDEX 01 33:51:32
TRACK 11 AUDIO
TITLE "Intermezzo"
PERFORMER "Novosibirsk State Opera Orchestra - A.Ludmilin;"
INDEX 00 39:26:57
INDEX 01 39:28:47
TRACK 12 AUDIO
TITLE "The Young Gipsy's Romance"
PERFORMER "Novosibirsk State Opera Orchestra - A.Ludmilin;"
INDEX 00 41:45:58
INDEX 01 41:47:40
TRACK 13 AUDIO
TITLE "Duet and Finale"
PERFORMER "Novosibirsk State Opera Orchestra - A.Ludmilin;"
INDEX 00 43:30:57
INDEX 01 43:32:40
TRACK 14 AUDIO
TITLE "Iolanta: Overture"
PERFORMER "Novosibirsk State Opera Orchestra - A.Ludmilin;"
INDEX 00 56:26:57
INDEX 01 56:41:07
TRACK 15 AUDIO
TITLE "Iolanta, my little one, are you tired?"
PERFORMER "Novosibirsk State Opera Orchestra - A.Ludmilin;"
INDEX 01 59:05:55
TRACK 16 AUDIO
TITLE "That's enough, dear, no more now"
PERFORMER "Novosibirsk State Opera Orchestra - A.Ludmilin;"
INDEX 01 68:08:60

CD2

REM GENRE Opera
REM DATE 1996
REM DISCID 78116608
REM COMMENT "ExactAudioCopy v1.0b6"
CATALOG 0000000000000
PERFORMER "Novosibirsk State Opera Orchestra - A.Ludmilin;"
TITLE "Tchaikovsky - Iolanta"
FILE "Tchaikovsky - Iolanta.ape" WAVE
TRACK 01 AUDIO
TITLE "Iolanta: Brigitta, is that you"
PERFORMER "Novosibirsk State Opera Orchestra - A.Ludmilin;"
INDEX 00 00:00:00
INDEX 01 00:00:32
TRACK 02 AUDIO
TITLE "A bugle call"
PERFORMER "Novosibirsk State Opera Orchestra - A.Ludmilin;"
INDEX 01 05:24:52
TRACK 03 AUDIO
TITLE "The expression you wear"
PERFORMER "Novosibirsk State Opera Orchestra - A.Ludmilin;"
INDEX 00 16:53:65
INDEX 01 16:54:65
TRACK 04 AUDIO
TITLE "Hurry not, it is so dark here"
PERFORMER "Novosibirsk State Opera Orchestra - A.Ludmilin;"
INDEX 01 23:10:50
TRACK 05 AUDIO
TITLE "No, the charming attentions"
PERFORMER "Novosibirsk State Opera Orchestra - A.Ludmilin;"
INDEX 00 28:06:66
INDEX 01 28:07:10
TRACK 06 AUDIO
TITLE "Bur were on earth are we?"
PERFORMER "Novosibirsk State Opera Orchestra - A.Ludmilin;"
INDEX 01 31:25:50
TRACK 07 AUDIO
TITLE "Iolanta! Were are you"
PERFORMER "Novosibirsk State Opera Orchestra - A.Ludmilin;"
INDEX 01 51:15:55
TRACK 08 AUDIO
TITLE "Please forgive me"
PERFORMER "Novosibirsk State Opera Orchestra - A.Ludmilin;"
INDEX 01 62:05:65



Показать сообщения:    

Текущее время: 08-Дек 21:04

Часовой пояс: UTC + 3


Вы не можете начинать темы
Вы не можете отвечать на сообщения
Вы не можете редактировать свои сообщения
Вы не можете удалять свои сообщения
Вы не можете голосовать в опросах
Вы не можете прикреплять файлы к сообщениям
Вы не можете скачивать файлы