(Opera) Римский-Корсаков - Садко/Rimsky-Korsakov - Sadko (Lutziuk, Belov, Vaneev, Gorbunova, Schellenberger, Demurishvili - Orchestra Del Teatro La Fenice, Karabtchevsky) - 2000, APE (image+.cue) lossless


 

[Цитировать]

Nicolaj Rimsky-Korsakov - Sadko
Жанр: Opera
Страна-производитель диска: Germany
Год издания диска: 2000
Издатель (лейбл): Mondo Musica
Номер по каталогу: MFOH 22248
Дата записи: 2000
Аудиокодек: APE
Тип рипа: image+.cue
Битрейт аудио: lossless
Продолжительность: 64'48+45'59+57'54
Источник: собственный рип
Наличие сканов в содержимом раздачи: да
Треклист:

CD1

1. Introduction
2. We Are Assembled, Merchant Traders
3. Tune Up Your Strings/The Moon Shone Brightly In The Sky
4. 'Tis A Beautiful Day In The Middle Of The Day
5. If I Had A Hoard Of Gold
6. Ho, Young Sad-Sadko, Good Fellow
7. In Great Novgorod There Lived A Simpleton
8. Oh, You Dark Little Grove!
9. Come Out Of The Blue Lake
10. Ah-ah-ah
11. Strike Up, My Gusli
12. Your Tresses Shine With Mellifluous Dew
13. The Moon, Golden-horned

CD2

1. Look, Free People
2. On Lake Ilmen
3. On The Terrible Rocks The Waves Break With A Roar
4. Innumerable Are The Diamonds In The Stone Caves
5. City of stone, mother to all cities

CD3

1. Look how on the sea, on the blue sea (Sadko, Chorus)
2. Ho, My Faithful Bodyguard, My Subordinates!
3. Is That Singing?
4. Deep Depths, Okian Sea
5. Terrible, Broad Blue Sea
6. Strike Up Your Ringing Gusli
7. Glorious, Terrible Sea King
8. My dearest one
9. Slumber Steals Over The Bank
10. I Wandered In Distant Parts
Исполнители:
Nicolaj Rimsky-Korsakov - Sadko
Opera in 7 tableaus
Libretto: Nicolaj Rimsky-Korsakov
Sadko - Viktor Lutziuk (Tenor)
Volchova - Dagmar Schellenberger (Soprano)
Il Mare Oceano - Vladimir Vaneev (Bass)
Ljubava Buslaevna - Tatiana Gorbunova
Niezhata - Tea Demurishvili (Mezzo Soprano)
Duda - Dimitar Stantchev (Bass)
Sopiel - Enrico Cossutta (Tenor)
La Visione - Fedor Mozhaev (Baritone)
Coro Del Teatro La Fenice
Orchestra Del Teatro La Fenice
Isaac Karabtchevsky
Language: Russian

Лог создания рипа

CD1

Exact Audio Copy V1.0 beta 3 from 29. August 2011
EAC extraction logfile from 25. December 2014, 12:40
Rimski-Korsakov / Sadko, Karabtchevsky CD1
Used drive : TSSTcorpCDDVDW SE-208AB Adapter: 1 ID: 0
Read mode : Secure
Utilize accurate stream : Yes
Defeat audio cache : Yes
Make use of C2 pointers : No
Read offset correction : 6
Overread into Lead-In and Lead-Out : No
Fill up missing offset samples with silence : Yes
Delete leading and trailing silent blocks : No
Null samples used in CRC calculations : Yes
Used interface : Native Win32 interface for Win NT & 2000
Used output format : Monkey's Audio Lossless Encoder
Selected bitrate : High Lossless Compression
Quality : High
Add ID3 tag : Yes
Command line compressor : C:\Program Files (x86)\Exact Audio Copy\MAC\MAC.exe
TOC of the extracted CD
Track | Start | Length | Start sector | End sector
---------------------------------------------------------
1 | 0:00.00 | 2:12.41 | 0 | 9940
2 | 2:12.41 | 5:45.34 | 9941 | 35849
3 | 7:58.00 | 0:23.07 | 35850 | 37581
4 | 8:21.07 | 6:27.46 | 37582 | 66652
5 | 14:48.53 | 1:41.34 | 66653 | 74261
6 | 16:30.12 | 4:55.72 | 74262 | 96458
7 | 21:26.09 | 3:50.67 | 96459 | 113775
8 | 25:17.01 | 5:05.04 | 113776 | 136654
9 | 30:22.05 | 6:38.03 | 136655 | 166507
10 | 37:00.08 | 4:37.09 | 166508 | 187291
11 | 41:37.17 | 3:35.48 | 187292 | 203464
12 | 45:12.65 | 16:15.13 | 203465 | 276602
13 | 61:28.03 | 13:20.56 | 276603 | 336658
Range status and errors
Selected range
Filename D:\EAC\Rimski-Korsakov - Sadko, Karabtchevsky CD1.wav
Peak level 94.3 %
Extraction speed 5.0 X
Range quality 100.0 %
Test CRC 4610407C
Copy CRC 4610407C
Copy OK
No errors occurred
AccurateRip summary
Track 1 accurately ripped (confidence 2) [F0F457D9] (AR v1)
Track 2 accurately ripped (confidence 2) [35DB094A] (AR v1)
Track 3 accurately ripped (confidence 2) [2DE704C5] (AR v1)
Track 4 accurately ripped (confidence 2) [C6F2271B] (AR v1)
Track 5 accurately ripped (confidence 2) [E838961C] (AR v1)
Track 6 accurately ripped (confidence 2) [A42524B0] (AR v1)
Track 7 accurately ripped (confidence 2) [32EF544C] (AR v1)
Track 8 accurately ripped (confidence 2) [54F6056B] (AR v1)
Track 9 accurately ripped (confidence 2) [4BA2238F] (AR v1)
Track 10 accurately ripped (confidence 2) [7C8951B0] (AR v1)
Track 11 accurately ripped (confidence 2) [7DB792C3] (AR v1)
Track 12 accurately ripped (confidence 2) [CBD6EBF9] (AR v1)
Track 13 accurately ripped (confidence 2) [CACCEB83] (AR v1)
All tracks accurately ripped
End of status report
---- CUETools DB Plugin V2.1.3
[CTDB TOCID: 1EIxRGux0S8xuf5MTVQLlvuiMCc-] disk not present in database, Submit result: 1EIxRGux0S8xuf5MTVQLlvuiMCc- has been uploaded
==== Log checksum 80FBA2E290AAB056F8C9DD048459C3D480B78036EC78D11C670C7EB4953665DE ====

CD2

Exact Audio Copy V1.0 beta 3 from 29. August 2011
EAC extraction logfile from 25. December 2014, 12:53
Rimski-Korsakov / Sadko, Karabtchevsky CD2
Used drive : TS8XDVDSTRANSCEND Adapter: 1 ID: 1
Read mode : Secure
Utilize accurate stream : Yes
Defeat audio cache : Yes
Make use of C2 pointers : No
Read offset correction : 6
Overread into Lead-In and Lead-Out : No
Fill up missing offset samples with silence : Yes
Delete leading and trailing silent blocks : No
Null samples used in CRC calculations : Yes
Used interface : Native Win32 interface for Win NT & 2000
Used output format : Monkey's Audio Lossless Encoder
Selected bitrate : High Lossless Compression
Quality : High
Add ID3 tag : Yes
Command line compressor : C:\Program Files (x86)\Exact Audio Copy\MAC\MAC.exe
TOC of the extracted CD
Track | Start | Length | Start sector | End sector
---------------------------------------------------------
1 | 0:00.00 | 19:34.21 | 0 | 88070
2 | 19:34.21 | 6:19.69 | 88071 | 116564
3 | 25:54.15 | 4:01.46 | 116565 | 134685
4 | 29:55.61 | 4:24.31 | 134686 | 154516
5 | 34:20.17 | 11:39.33 | 154517 | 206974
Range status and errors
Selected range
Filename D:\EAC\Rimski-Korsakov - Sadko, Karabtchevsky CD2.wav
Peak level 99.9 %
Extraction speed 1.7 X
Range quality 100.0 %
Test CRC 9A5A317F
Copy CRC 9A5A317F
Copy OK
No errors occurred
AccurateRip summary
Track 1 cannot be verified as accurate (confidence 1) [304F8736], AccurateRip returned [38388A43] (AR v2)
Track 2 accurately ripped (confidence 2) [89676295] (AR v1)
Track 3 accurately ripped (confidence 2) [5D1AB73E] (AR v1)
Track 4 accurately ripped (confidence 2) [EE577364] (AR v1)
Track 5 accurately ripped (confidence 2) [345A6542] (AR v1)
4 track(s) accurately ripped
1 track(s) could not be verified as accurate
Some tracks could not be verified as accurate
End of status report
---- CUETools DB Plugin V2.1.3
[CTDB TOCID: QYAxVLekIgiPVf.rd8v6dzE4J90-] disk not present in database, Submit result: unrecognized or virtual drive
==== Log checksum 82577B20C9A7954A576AE8693D42455C905A52179CA7180286F00D9FE7E5ED05 ====

CD3

Exact Audio Copy V1.0 beta 3 from 29. August 2011
EAC extraction logfile from 25. December 2014, 13:31
Rimski-Korsakov / Sadko, Karabtchevsky CD3
Used drive : TSSTcorpCDDVDW SE-208AB Adapter: 1 ID: 0
Read mode : Secure
Utilize accurate stream : Yes
Defeat audio cache : Yes
Make use of C2 pointers : No
Read offset correction : 6
Overread into Lead-In and Lead-Out : No
Fill up missing offset samples with silence : Yes
Delete leading and trailing silent blocks : No
Null samples used in CRC calculations : Yes
Used interface : Native Win32 interface for Win NT & 2000
Used output format : Monkey's Audio Lossless Encoder
Selected bitrate : High Lossless Compression
Quality : High
Add ID3 tag : Yes
Command line compressor : C:\Program Files (x86)\Exact Audio Copy\MAC\MAC.exe
TOC of the extracted CD
Track | Start | Length | Start sector | End sector
---------------------------------------------------------
1 | 0:00.00 | 3:28.50 | 0 | 15649
2 | 3:28.50 | 6:53.36 | 15650 | 46660
3 | 10:22.11 | 2:58.02 | 46661 | 60012
4 | 13:20.13 | 3:13.26 | 60013 | 74513
5 | 16:33.39 | 6:11.27 | 74514 | 102365
6 | 22:44.66 | 2:33.30 | 102366 | 113870
7 | 25:18.21 | 9:01.73 | 113871 | 154518
8 | 34:20.19 | 2:57.29 | 154519 | 167822
9 | 37:17.48 | 14:16.50 | 167823 | 232072
10 | 51:34.23 | 6:20.16 | 232073 | 260588
Range status and errors
Selected range
Filename D:\EAC\Rimski-Korsakov - Sadko, Karabtchevsky CD3.wav
Peak level 100.0 %
Extraction speed 1.8 X
Range quality 100.0 %
Test CRC 879B8D1A
Copy CRC 879B8D1A
Copy OK
No errors occurred
AccurateRip summary
Track 1 cannot be verified as accurate (confidence 1) [F2D3CF33], AccurateRip returned [751EB893] (AR v2)
Track 2 cannot be verified as accurate (confidence 2) [415F9289], AccurateRip returned [F5CD6120] (AR v2)
Track 3 cannot be verified as accurate (confidence 2) [40A5E738], AccurateRip returned [DE9994DA] (AR v2)
Track 4 cannot be verified as accurate (confidence 2) [DFE64E12], AccurateRip returned [F0E175F8] (AR v2)
Track 5 cannot be verified as accurate (confidence 2) [AA14106F], AccurateRip returned [AF8898D1] (AR v2)
Track 6 cannot be verified as accurate (confidence 2) [8A3CA066], AccurateRip returned [636949AD] (AR v2)
Track 7 cannot be verified as accurate (confidence 2) [82A9763F], AccurateRip returned [06252C3F] (AR v2)
Track 8 cannot be verified as accurate (confidence 2) [38BCEEBB], AccurateRip returned [842ED99A] (AR v2)
Track 9 cannot be verified as accurate (confidence 2) [20FA3073], AccurateRip returned [17892ECA] (AR v2)
Track 10 cannot be verified as accurate (confidence 2) [0333B97A], AccurateRip returned [93BAD775] (AR v2)
No tracks could be verified as accurate
You may have a different pressing from the one(s) in the database
End of status report
---- CUETools DB Plugin V2.1.3
[CTDB TOCID: ouGSihL3vjkZfoVjd9n45dpODPo-] disk not present in database, Submit result: ouGSihL3vjkZfoVjd9n45dpODPo- has been uploaded
==== Log checksum 943C996E2403A72BF1BD99106FF72AA27135B155DB9877E235A4D62EBE836540 ====

Содержание индексной карты (.CUE)

CD1

REM GENRE Opera
REM DATE 2000
REM DISCID B511880D
REM COMMENT "ExactAudioCopy v1.0b3"
PERFORMER "Rimski-Korsakov"
TITLE "Sadko, Karabtchevsky CD1"
FILE "Rimski-Korsakov - Sadko, Karabtchevsky CD1.ape" WAVE
TRACK 01 AUDIO
TITLE "Introduction"
PERFORMER "Rimski-Korsakov"
INDEX 01 00:00:00
TRACK 02 AUDIO
TITLE "We are assembled, merchant traders (Chorus, Elders)"
PERFORMER "Rimski-Korsakov"
INDEX 01 02:12:41
TRACK 03 AUDIO
TITLE "Tune up your strings - The moon shone brightly in the sky (Chorus, Nezhata)"
PERFORMER "Rimski-Korsakov"
INDEX 01 07:58:00
TRACK 04 AUDIO
TITLE "T'is a beautiful day in the middle of the day (Chorus, Sadko)"
PERFORMER "Rimski-Korsakov"
INDEX 01 08:21:07
TRACK 05 AUDIO
TITLE "If I had a hoard of gold (Sadko)"
PERFORMER "Rimski-Korsakov"
INDEX 01 14:48:53
TRACK 06 AUDIO
TITLE "Ho, young, sad Sadko, good fellow (Chorus, Elders, Sadko)"
PERFORMER "Rimski-Korsakov"
INDEX 01 16:30:12
TRACK 07 AUDIO
TITLE "In great Novgorod there lived a simpleton (Duda)"
PERFORMER "Rimski-Korsakov"
INDEX 01 21:26:09
TRACK 08 AUDIO
TITLE "Oh, you dark little grove (Sadko)"
PERFORMER "Rimski-Korsakov"
INDEX 01 25:17:01
TRACK 09 AUDIO
TITLE "Come out of the blue lake (Sea Princess, Sadko)"
PERFORMER "Rimski-Korsakov"
INDEX 01 30:22:05
TRACK 10 AUDIO
TITLE "Ah, ah, ah (Sea Princess, Sadko)"
PERFORMER "Rimski-Korsakov"
INDEX 01 37:00:08
TRACK 11 AUDIO
TITLE "Strike up, my gusli (Sadko, Sea Princess)"
PERFORMER "Rimski-Korsakov"
INDEX 01 41:37:17
TRACK 12 AUDIO
TITLE "Your tresses shine with mellifluous dew (Sadko, Sea Princess, Chorus)"
PERFORMER "Rimski-Korsakov"
INDEX 01 45:12:65
TRACK 13 AUDIO
TITLE "The moon, golden horned (Chorus)"
PERFORMER "Rimski-Korsakov"
INDEX 01 61:28:03

CD2

REM GENRE Opera
REM DATE 2000
REM DISCID 440AC705
REM COMMENT "ExactAudioCopy v1.0b3"
PERFORMER "Rimski-Korsakov"
TITLE "Sadko, Karabtchevsky CD2"
FILE "Rimski-Korsakov - Sadko, Karabtchevsky CD2.ape" WAVE
TRACK 01 AUDIO
TITLE "Look, free people"
PERFORMER "Rimski-Korsakov"
INDEX 01 00:00:00
TRACK 02 AUDIO
TITLE "On lake Ilmen"
PERFORMER "Rimski-Korsakov"
INDEX 01 19:34:21
TRACK 03 AUDIO
TITLE "On the terrible rocks the waves break with a roar"
PERFORMER "Rimski-Korsakov"
INDEX 01 25:54:15
TRACK 04 AUDIO
TITLE "Innumerable are the diamonds in the stone caves"
PERFORMER "Rimski-Korsakov"
INDEX 01 29:55:61
TRACK 05 AUDIO
TITLE "City of stone, mother to all cities"
PERFORMER "Rimski-Korsakov"
INDEX 01 34:20:17

CD3

REM GENRE Opera
REM DATE 2000
REM DISCID 760D920A
REM COMMENT "ExactAudioCopy v1.0b3"
PERFORMER "Rimski-Korsakov"
TITLE "Sadko, Karabtchevsky CD3"
FILE "Rimski-Korsakov - Sadko, Karabtchevsky CD3.ape" WAVE
TRACK 01 AUDIO
TITLE "Look how on the sea, on the blue sea (Sadko, Chorus)"
PERFORMER "Rimski-Korsakov"
INDEX 01 00:00:00
TRACK 02 AUDIO
TITLE "Ho, my faithful bodyguard, my subordiantes (Sadko, Chorus)"
PERFORMER "Rimski-Korsakov"
INDEX 01 03:28:50
TRACK 03 AUDIO
TITLE "Is that singing (Sadko, Sea Princess)"
PERFORMER "Rimski-Korsakov"
INDEX 01 10:22:11
TRACK 04 AUDIO
TITLE "Deep depths, Okian Sea (Chorus, Sea Princess, Sea King)"
PERFORMER "Rimski-Korsakov"
INDEX 01 13:20:13
TRACK 05 AUDIO
TITLE "Terrible,broad blue sea (Sadko, Sea Princess, Sea King)"
PERFORMER "Rimski-Korsakov"
INDEX 01 16:33:39
TRACK 06 AUDIO
TITLE "Strike up your ringing gusli (Sea King)"
PERFORMER "Rimski-Korsakov"
INDEX 01 22:44:66
TRACK 07 AUDIO
TITLE "Glorious, terrible Sea King (Sadko, Chorus, Sea King, Sea Princess)"
PERFORMER "Rimski-Korsakov"
INDEX 01 25:18:21
TRACK 08 AUDIO
TITLE "My dearest one (Sea Princess, Sadko)"
PERFORMER "Rimski-Korsakov"
INDEX 01 34:20:19
TRACK 09 AUDIO
TITLE "Slumber steals over the bank (Sea Princess)"
PERFORMER "Rimski-Korsakov"
INDEX 01 37:17:48
TRACK 10 AUDIO
TITLE "I wandered in distant parts (Sadko, Chorus, Pilgrims, Nezhata, Indian)"
PERFORMER "Rimski-Korsakov"
INDEX 01 51:34:23



Показать сообщения:    

Текущее время: 11-Дек 05:23

Часовой пояс: UTC + 3


Вы не можете начинать темы
Вы не можете отвечать на сообщения
Вы не можете редактировать свои сообщения
Вы не можете удалять свои сообщения
Вы не можете голосовать в опросах
Вы не можете прикреплять файлы к сообщениям
Вы не можете скачивать файлы