(Opera) Рубинштейн - Демон/Rubinstein - Demon (Lochak/Лошак, Browner, Meshcheriakova/Мещерякова, Serkin/Серкин - Wexford Festival Opera Chorus/National Symphony Orchestra of Ireland, Anissimov/Аниссимов) - 1995, APE (image+.cue) lossless


 

[Цитировать]

Anton Rubinstein - The Demon
Жанр: Opera
Страна-производитель диска: Germany
Год издания диска: 1995
Издатель (лейбл): Marco Polo
Номер по каталогу: 8.223781-2
Дата записи: 1994
Аудиокодек: APE
Тип рипа: image+.cue
Битрейт аудио: lossless
Продолжительность: 55'29+71'59
Источник: собственный рип
Наличие сканов в содержимом раздачи: да
Треклист:

CD1

1. Intro
2. Above the earth again, Demon is flying
3. Demon's monologue: Accursed world! Despicable world!
4. Do not cuse, but love! - Alison Browner
5. What is the radiance of eternal power to me, what is divin
6. Your knowledge is negation, your love is hatred
7. We go down to the bright Aragva each evening"
8. What do I see?
9. Enough, enough!
10. Child, in your embraces
11. He was standing there, shining in a heavenly light
12. And you shall be mistress of the world, my eternal companion
13. Hey! Hey!
14. Old Servant: Halt, brothers, halt
15. Equip a messenger to go
16. Don't worry, don't be depressed
17. For the health of the Prince, hurrah!
18. What are you shouting for? Calm down and be silent
19. Tomorrow, when we set off at dawn
20. In the darkness of the night
21. While he was praying
22. Softer, softer, creep up
23. Where are my servants?

CD2

1. Hey! Wehave gathered togetheron this festive day
2. Wine bringsjollity and love
3. Oh, God, God. What a dreadful, terrible sight!
4. Our dear Prince, our beloved Prince
5. Do not weep, child
6. What did he say?
7. Take the Prince's body away quickly
8. On the ocean of the air
9. As soon as night shrouds the mountain tops of the Caucasus
10. Where is he?
11. Father, Father, my soul is suffering
12. Let her (me) go to the holy convent
13. All Christians are asleep
14. The holy convent sleeps
15. Yes, I love her, I shall find renewal!
16. Agitated and depraved spirit, what are you doing here at the midnight hour?
17. The night is warm, the night is calm
18. All Christians are asleep
19. I am the one to whom you listened in the silence of the midnight hour
20. Your words are dangerous!
21. Your image was impressed on my soul
22. I swear by the first day of creation, I swear by the last day
23. Creating everything, eternally good
24. Ah, creator, creator, I call upon you!
25. I shall dive to the bottom of the sea. I shall fly
26. I am in your hands...But take pity on me!
27. Tamara!
28. Be gone, spirit of doubt!
29. I cannot give her back! She is mine!
30. No, she was not created for you! Be gone gloomy spirit!
31. Again I am abandoned! Again alone! Ah! Accursed world! A curse on everyone!
32. We bear the sinful soul
Исполнители:
Anton Rubinstein - The Demon
Opera in prologue and three acts (1871)
Text by P. Viskovatov after the poem by Lermontov
The Demon - Anatoly Lochak
The Angel - Alison Browner
Tamara - Marina Meshcheriakova
Prince Sinodal - Valeri Serkin
Nanny - Ludmilla Andrew
Old Servant - Richard Robson
Wexford Festival Opera Chorus
National Symphony Orchestra of Ireland Orchestra
Alexander Anissimov, Conductor

Лог создания рипа

CD1

Exact Audio Copy V1.0 beta 6 from 9. April 2015
EAC extraction logfile from 1. September 2015, 22:58
Lochak, Browner, Mescheriakova, Zinnenko - Wexford Opera Chorus - NSO of Ireland, Anissimov / Rubinstein - Demon CD1
Used drive : TSSTcorpCDDVDW SE-208AB Adapter: 1 ID: 2
Read mode : Secure
Utilize accurate stream : Yes
Defeat audio cache : Yes
Make use of C2 pointers : No
Read offset correction : 6
Overread into Lead-In and Lead-Out : No
Fill up missing offset samples with silence : Yes
Delete leading and trailing silent blocks : No
Null samples used in CRC calculations : Yes
Used interface : Native Win32 interface for Win NT & 2000
Used output format : Monkey's Audio Lossless Encoder
Selected bitrate : High Lossless Compression
Quality : High
Add ID3 tag : Yes
Command line compressor : C:\Program Files (x86)\Exact Audio Copy\MAC\MAC.exe
TOC of the extracted CD
Track | Start | Length | Start sector | End sector
---------------------------------------------------------
1 | 0:00.00 | 1:58.12 | 0 | 8861
2 | 1:58.12 | 5:05.15 | 8862 | 31751
3 | 7:03.27 | 2:19.05 | 31752 | 42181
4 | 9:22.32 | 0:20.58 | 42182 | 43739
5 | 9:43.15 | 1:40.70 | 43740 | 51309
6 | 11:24.10 | 2:02.10 | 51310 | 60469
7 | 13:26.20 | 4:47.30 | 60470 | 82024
8 | 18:13.50 | 1:04.10 | 82025 | 86834
9 | 19:17.60 | 2:30.37 | 86835 | 98121
10 | 21:48.22 | 1:29.40 | 98122 | 104836
11 | 23:17.62 | 2:42.20 | 104837 | 117006
12 | 26:00.07 | 0:41.33 | 117007 | 120114
13 | 26:41.40 | 1:13.05 | 120115 | 125594
14 | 27:54.45 | 0:42.45 | 125595 | 128789
15 | 28:37.15 | 5:56.42 | 128790 | 155531
16 | 34:33.57 | 0:38.18 | 155532 | 158399
17 | 35:12.00 | 0:12.17 | 158400 | 159316
18 | 35:24.17 | 2:43.45 | 159317 | 171586
19 | 38:07.62 | 3:54.08 | 171587 | 189144
20 | 42:01.70 | 5:15.67 | 189145 | 212836
21 | 47:17.62 | 1:02.25 | 212837 | 217511
22 | 48:20.12 | 3:04.63 | 217512 | 231374
23 | 51:25.00 | 4:04.70 | 231375 | 249744
Range status and errors
Selected range
Filename D:\EAC\Rubinstein - Demon CD1.wav
Peak level 67.4 %
Extraction speed 1.9 X
Range quality 99.9 %
Test CRC F1DD5AAF
Copy CRC F1DD5AAF
Copy OK
No errors occurred
AccurateRip summary
Track 1 accurately ripped (confidence 2) [EC378AAA] (AR v2)
Track 2 accurately ripped (confidence 2) [B78A03F2] (AR v2)
Track 3 accurately ripped (confidence 2) [D81F67AD] (AR v2)
Track 4 accurately ripped (confidence 2) [D6A6DB91] (AR v2)
Track 5 accurately ripped (confidence 2) [20AC8AE2] (AR v2)
Track 6 accurately ripped (confidence 2) [772E2E48] (AR v2)
Track 7 accurately ripped (confidence 2) [F347D572] (AR v2)
Track 8 accurately ripped (confidence 2) [1B694ECC] (AR v2)
Track 9 accurately ripped (confidence 2) [2B5D2225] (AR v2)
Track 10 accurately ripped (confidence 2) [9D3ED5E2] (AR v2)
Track 11 accurately ripped (confidence 2) [171D105B] (AR v2)
Track 12 accurately ripped (confidence 2) [F3FD0460] (AR v2)
Track 13 accurately ripped (confidence 2) [92871ADD] (AR v2)
Track 14 accurately ripped (confidence 2) [22B6832C] (AR v2)
Track 15 accurately ripped (confidence 2) [20F62B76] (AR v2)
Track 16 accurately ripped (confidence 2) [BCCE9DBE] (AR v2)
Track 17 accurately ripped (confidence 2) [74A83C4E] (AR v2)
Track 18 accurately ripped (confidence 2) [09F36021] (AR v2)
Track 19 accurately ripped (confidence 2) [703BC32A] (AR v2)
Track 20 accurately ripped (confidence 2) [828B6A21] (AR v2)
Track 21 accurately ripped (confidence 2) [42062761] (AR v2)
Track 22 accurately ripped (confidence 2) [0B4174CE] (AR v2)
Track 23 accurately ripped (confidence 2) [8B814643] (AR v2)
All tracks accurately ripped
End of status report
---- CUETools DB Plugin V2.1.6
[CTDB TOCID: K_RCk8hE2gPWIK_HVbN52BujLrI-] found
Submit result: K_RCk8hE2gPWIK_HVbN52BujLrI- has been confirmed
Track | CTDB Status
1 | (1/1) Accurately ripped
2 | (1/1) Accurately ripped
3 | (1/1) Accurately ripped
4 | (1/1) Accurately ripped
5 | (1/1) Accurately ripped
6 | (1/1) Accurately ripped
7 | (1/1) Accurately ripped
8 | (1/1) Accurately ripped
9 | (1/1) Accurately ripped
10 | (1/1) Accurately ripped
11 | (1/1) Accurately ripped
12 | (1/1) Accurately ripped
13 | (1/1) Accurately ripped
14 | (1/1) Accurately ripped
15 | (1/1) Accurately ripped
16 | (1/1) Accurately ripped
17 | (1/1) Accurately ripped
18 | (1/1) Accurately ripped
19 | (1/1) Accurately ripped
20 | (1/1) Accurately ripped
21 | (1/1) Accurately ripped
22 | (1/1) Accurately ripped
23 | (1/1) Accurately ripped
==== Log checksum 112C1AA1EFD0B6424699C26B1F74876F9FB882FC6762F056CB45013CF3023F72 ====

CD2

Exact Audio Copy V1.0 beta 6 from 9. April 2015
EAC extraction logfile from 1. September 2015, 22:27
Lochak, Browner, Mescheriakova, Zinnenko - Wexford Opera Chorus - NSO of Ireland, Anissimov / Rubinstein - Demon CD2
Used drive : TS8XDVDSTRANSCEND Adapter: 1 ID: 1
Read mode : Secure
Utilize accurate stream : Yes
Defeat audio cache : Yes
Make use of C2 pointers : No
Read offset correction : 6
Overread into Lead-In and Lead-Out : No
Fill up missing offset samples with silence : Yes
Delete leading and trailing silent blocks : No
Null samples used in CRC calculations : Yes
Used interface : Native Win32 interface for Win NT & 2000
Used output format : Monkey's Audio Lossless Encoder
Selected bitrate : High Lossless Compression
Quality : High
Add ID3 tag : Yes
Command line compressor : C:\Program Files (x86)\Exact Audio Copy\MAC\MAC.exe
TOC of the extracted CD
Track | Start | Length | Start sector | End sector
---------------------------------------------------------
1 | 0:00.00 | 5:49.67 | 0 | 26241
2 | 5:49.67 | 3:26.65 | 26242 | 41756
3 | 9:16.57 | 3:09.70 | 41757 | 56001
4 | 12:26.52 | 3:59.63 | 56002 | 73989
5 | 16:26.40 | 2:31.27 | 73990 | 85341
6 | 18:57.67 | 0:18.50 | 85342 | 86741
7 | 19:16.42 | 0:58.50 | 86742 | 91141
8 | 20:15.17 | 2:13.55 | 91142 | 101171
9 | 22:28.72 | 2:08.45 | 101172 | 110816
10 | 24:37.42 | 2:30.58 | 110817 | 122124
11 | 27:08.25 | 2:46.55 | 122125 | 134629
12 | 29:55.05 | 3:29.15 | 134630 | 150319
13 | 33:24.20 | 4:21.12 | 150320 | 169906
14 | 37:45.32 | 1:48.53 | 169907 | 178059
15 | 39:34.10 | 0:28.60 | 178060 | 180219
16 | 40:02.70 | 2:32.27 | 180220 | 191646
17 | 42:35.22 | 4:36.48 | 191647 | 212394
18 | 47:11.70 | 1:14.42 | 212395 | 217986
19 | 48:26.37 | 2:32.38 | 217987 | 229424
20 | 50:59.00 | 1:52.52 | 229425 | 237876
21 | 52:51.52 | 6:50.35 | 237877 | 268661
22 | 59:42.12 | 2:32.28 | 268662 | 280089
23 | 62:14.40 | 2:12.45 | 280090 | 290034
24 | 64:27.10 | 0:24.07 | 290035 | 291841
25 | 64:51.17 | 1:19.38 | 291842 | 297804
26 | 66:10.55 | 0:29.57 | 297805 | 300036
27 | 66:40.37 | 0:10.13 | 300037 | 300799
28 | 66:50.50 | 0:40.65 | 300800 | 303864
29 | 67:31.40 | 0:10.17 | 303865 | 304631
30 | 67:41.57 | 0:10.58 | 304632 | 305439
31 | 67:52.40 | 1:30.55 | 305440 | 312244
32 | 69:23.20 | 2:36.42 | 312245 | 323986
Range status and errors
Selected range
Filename D:\EAC\Rubinstein - Demon CD2.wav
Peak level 92.0 %
Extraction speed 5.2 X
Range quality 100.0 %
Test CRC 34839317
Copy CRC 34839317
Copy OK
No errors occurred
AccurateRip summary
Track 1 accurately ripped (confidence 2) [DE471AA5] (AR v2)
Track 2 accurately ripped (confidence 2) [C8C2956F] (AR v2)
Track 3 accurately ripped (confidence 2) [680D47E4] (AR v2)
Track 4 accurately ripped (confidence 2) [17140F8B] (AR v2)
Track 5 accurately ripped (confidence 2) [C0AFD3CC] (AR v2)
Track 6 accurately ripped (confidence 2) [996F31F1] (AR v2)
Track 7 accurately ripped (confidence 2) [32A94ACF] (AR v2)
Track 8 accurately ripped (confidence 2) [C4F4444E] (AR v2)
Track 9 accurately ripped (confidence 2) [DD4428FB] (AR v2)
Track 10 accurately ripped (confidence 2) [96F5B40C] (AR v2)
Track 11 accurately ripped (confidence 2) [3AF464BF] (AR v2)
Track 12 accurately ripped (confidence 2) [9F86CE51] (AR v2)
Track 13 accurately ripped (confidence 2) [0730DE20] (AR v2)
Track 14 accurately ripped (confidence 2) [2F98BBBF] (AR v2)
Track 15 accurately ripped (confidence 2) [30AD177D] (AR v2)
Track 16 accurately ripped (confidence 2) [EBD817E7] (AR v2)
Track 17 accurately ripped (confidence 2) [DC0364FA] (AR v2)
Track 18 accurately ripped (confidence 2) [A719DE4B] (AR v2)
Track 19 accurately ripped (confidence 2) [2729219E] (AR v2)
Track 20 accurately ripped (confidence 2) [3F37DBE6] (AR v2)
Track 21 accurately ripped (confidence 2) [82D77850] (AR v2)
Track 22 accurately ripped (confidence 2) [D05D9144] (AR v2)
Track 23 accurately ripped (confidence 2) [011E946E] (AR v2)
Track 24 accurately ripped (confidence 2) [F888D1BF] (AR v2)
Track 25 accurately ripped (confidence 2) [32BE407A] (AR v2)
Track 26 accurately ripped (confidence 2) [A3718C73] (AR v2)
Track 27 accurately ripped (confidence 2) [810F1C9E] (AR v2)
Track 28 accurately ripped (confidence 2) [6671908E] (AR v2)
Track 29 accurately ripped (confidence 2) [60CBB419] (AR v2)
Track 30 accurately ripped (confidence 2) [05726FEC] (AR v2)
Track 31 accurately ripped (confidence 2) [A21DDA55] (AR v2)
Track 32 accurately ripped (confidence 2) [438941AD] (AR v2)
All tracks accurately ripped
End of status report
---- CUETools DB Plugin V2.1.6
[CTDB TOCID: LOXUrvb1KLkQEAmSQUZGadvI1Io-] found
Submit result: unrecognized or virtual drive
Track | CTDB Status
1 | (1/1) Accurately ripped
2 | (1/1) Accurately ripped
3 | (1/1) Accurately ripped
4 | (1/1) Accurately ripped
5 | (1/1) Accurately ripped
6 | (1/1) Accurately ripped
7 | (1/1) Accurately ripped
8 | (1/1) Accurately ripped
9 | (1/1) Accurately ripped
10 | (1/1) Accurately ripped
11 | (1/1) Accurately ripped
12 | (1/1) Accurately ripped
13 | (1/1) Accurately ripped
14 | (1/1) Accurately ripped
15 | (1/1) Accurately ripped
16 | (1/1) Accurately ripped
17 | (1/1) Accurately ripped
18 | (1/1) Accurately ripped
19 | (1/1) Accurately ripped
20 | (1/1) Accurately ripped
21 | (1/1) Accurately ripped
22 | (1/1) Accurately ripped
23 | (1/1) Accurately ripped
24 | (1/1) Accurately ripped
25 | (1/1) Accurately ripped
26 | (1/1) Accurately ripped
27 | (1/1) Accurately ripped
28 | (1/1) Accurately ripped
29 | (1/1) Accurately ripped
30 | (1/1) Accurately ripped
31 | (1/1) Accurately ripped
32 | (1/1) Accurately ripped
==== Log checksum 31C2A8E843CD7DF486A313C88A0FA0F9CEFC39A8BFA408B1ED2CED2CCCBAA9D1 ====

Содержание индексной карты (.CUE)

CD1

REM GENRE Opera
REM DATE 1994
REM DISCID 450D0117
REM COMMENT "ExactAudioCopy v1.0b6"
PERFORMER "Lochak, Browner, Mescheriakova, Zinnenko - Wexford Opera Chorus - NSO of Irel..."
TITLE "Rubinstein - Demon CD1"
FILE "Rubinstein - Demon CD1.ape" WAVE
TRACK 01 AUDIO
TITLE "Prologue: Intro"
PERFORMER "Lochak, Browner, Mescheriakova, Zinnenko - Wexford Opera Chorus - NSO of Irel..."
INDEX 01 00:00:00
TRACK 02 AUDIO
TITLE "Prologue, Scene 1: Above the earth again, Demon is flying"
PERFORMER "Lochak, Browner, Mescheriakova, Zinnenko - Wexford Opera Chorus - NSO of Irel..."
INDEX 01 01:58:12
TRACK 03 AUDIO
TITLE "Prologue, Scene 1: Demon's monologue: Accursed world! Despicable world!"
PERFORMER "Lochak, Browner, Mescheriakova, Zinnenko - Wexford Opera Chorus - NSO of Irel..."
INDEX 01 07:03:27
TRACK 04 AUDIO
TITLE "Prologue, Scene 1: Do not cuse, but love! - Alison Browner"
PERFORMER "Lochak, Browner, Mescheriakova, Zinnenko - Wexford Opera Chorus - NSO of Irel..."
INDEX 01 09:22:32
TRACK 05 AUDIO
TITLE "Prologue, Scene 1: What is the radiance of eternal power to me, what is divin..."
PERFORMER "Lochak, Browner, Mescheriakova, Zinnenko - Wexford Opera Chorus - NSO of Irel..."
INDEX 01 09:43:15
TRACK 06 AUDIO
TITLE "Prologue, Scene 1: Your knowledge is negation, your love is hatred"
PERFORMER "Lochak, Browner, Mescheriakova, Zinnenko - Wexford Opera Chorus - NSO of Irel..."
INDEX 01 11:24:10
TRACK 07 AUDIO
TITLE "Act I, Scene 2: We go down to the bright Aragva each evening"
PERFORMER "Lochak, Browner, Mescheriakova, Zinnenko - Wexford Opera Chorus - NSO of Irel..."
INDEX 01 13:26:20
TRACK 08 AUDIO
TITLE "Act I, Scene 2: What do I see?"
PERFORMER "Lochak, Browner, Mescheriakova, Zinnenko - Wexford Opera Chorus - NSO of Irel..."
INDEX 01 18:13:50
TRACK 09 AUDIO
TITLE "Act I, Scene 2: Nanny's recitative & aria"
PERFORMER "Lochak, Browner, Mescheriakova, Zinnenko - Wexford Opera Chorus - NSO of Irel..."
INDEX 01 19:17:60
TRACK 10 AUDIO
TITLE "Act I, Scene 2: Child, in your embraces I shall be resurrected into a new life"
PERFORMER "Lochak, Browner, Mescheriakova, Zinnenko - Wexford Opera Chorus - NSO of Irel..."
INDEX 01 21:48:22
TRACK 11 AUDIO
TITLE "Act I, Scene 2: He was standing there, shining in a heavenly light"
PERFORMER "Lochak, Browner, Mescheriakova, Zinnenko - Wexford Opera Chorus - NSO of Irel..."
INDEX 01 23:17:62
TRACK 12 AUDIO
TITLE "Act I, Scene 2: And you shall be mistress of the world"
PERFORMER "Lochak, Browner, Mescheriakova, Zinnenko - Wexford Opera Chorus - NSO of Irel..."
INDEX 01 26:00:07
TRACK 13 AUDIO
TITLE "Act I, Scene 3: Intro & chor: Hey"
PERFORMER "Lochak, Browner, Mescheriakova, Zinnenko - Wexford Opera Chorus - NSO of Irel..."
INDEX 01 26:41:40
TRACK 14 AUDIO
TITLE "Act I, Scene 3: Halt, brothers, halt!"
PERFORMER "Lochak, Browner, Mescheriakova, Zinnenko - Wexford Opera Chorus - NSO of Irel..."
INDEX 01 27:54:45
TRACK 15 AUDIO
TITLE "Act I, Scene 3: Entrance of Prince Sinodal & recitative"
PERFORMER "Lochak, Browner, Mescheriakova, Zinnenko - Wexford Opera Chorus - NSO of Irel..."
INDEX 01 28:37:15
TRACK 16 AUDIO
TITLE "Act I, Scene 3: Don't fret, don't be downcast"
PERFORMER "Lochak, Browner, Mescheriakova, Zinnenko - Wexford Opera Chorus - NSO of Irel..."
INDEX 01 34:33:57
TRACK 17 AUDIO
TITLE "Act I, Scene 3: For the health of the Prince, hurrah!"
PERFORMER "Lochak, Browner, Mescheriakova, Zinnenko - Wexford Opera Chorus - NSO of Irel..."
INDEX 01 35:12:00
TRACK 18 AUDIO
TITLE "Act I, Scene 3:What are you shouting for?"
PERFORMER "Lochak, Browner, Mescheriakova, Zinnenko - Wexford Opera Chorus - NSO of Irel..."
INDEX 01 35:24:17
TRACK 19 AUDIO
TITLE "Act I, Scene 3: Tomorrow with first light"
PERFORMER "Lochak, Browner, Mescheriakova, Zinnenko - Wexford Opera Chorus - NSO of Irel..."
INDEX 01 38:07:62
TRACK 20 AUDIO
TITLE "Act I, Scene 3: In the darkness of the night"
PERFORMER "Lochak, Browner, Mescheriakova, Zinnenko - Wexford Opera Chorus - NSO of Irel..."
INDEX 01 42:01:70
TRACK 21 AUDIO
TITLE "Act I, Scene 3: During his prayer I lulled him to sleep with sweet dreams"
PERFORMER "Lochak, Browner, Mescheriakova, Zinnenko - Wexford Opera Chorus - NSO of Irel..."
INDEX 01 47:17:62
TRACK 22 AUDIO
TITLE "Act I, Scene 3: Softer, softer, creep up"
PERFORMER "Lochak, Browner, Mescheriakova, Zinnenko - Wexford Opera Chorus - NSO of Irel..."
INDEX 01 48:20:12
TRACK 23 AUDIO
TITLE "Act I, Scene 3: Where are my servants"
PERFORMER "Lochak, Browner, Mescheriakova, Zinnenko - Wexford Opera Chorus - NSO of Irel..."
INDEX 01 51:25:00

CD2

REM GENRE Opera
REM DATE 1994
REM DISCID E710DF20
REM COMMENT "ExactAudioCopy v1.0b6"
PERFORMER "Lochak, Browner, Mescheriakova, Zinnenko - Wexford Opera Chorus - NSO of Irel..."
TITLE "Rubinstein - Demon CD2"
FILE "Rubinstein - Demon CD2.ape" WAVE
TRACK 01 AUDIO
TITLE "Act II, Scene 4: Hey! Wehave gathered togetheron this festive day"
PERFORMER "Lochak, Browner, Mescheriakova, Zinnenko - Wexford Opera Chorus - NSO of Irel..."
INDEX 01 00:00:00
TRACK 02 AUDIO
TITLE "Act II, Scene 4: Wine bringsjollity and love"
PERFORMER "Lochak, Browner, Mescheriakova, Zinnenko - Wexford Opera Chorus - NSO of Irel..."
INDEX 01 05:49:67
TRACK 03 AUDIO
TITLE "Act II, Scene 4: Oh God, God! What terrible dread sight."
PERFORMER "Lochak, Browner, Mescheriakova, Zinnenko - Wexford Opera Chorus - NSO of Irel..."
INDEX 01 09:16:57
TRACK 04 AUDIO
TITLE "Act II, Scene 4: Our dear Prince, our beloved Prince"
PERFORMER "Lochak, Browner, Mescheriakova, Zinnenko - Wexford Opera Chorus - NSO of Irel..."
INDEX 01 12:26:52
TRACK 05 AUDIO
TITLE "Act II, Scene 4: Do not weep, child"
PERFORMER "Lochak, Browner, Mescheriakova, Zinnenko - Wexford Opera Chorus - NSO of Irel..."
INDEX 01 16:26:40
TRACK 06 AUDIO
TITLE "Act II, Scene 4: What did he say?"
PERFORMER "Lochak, Browner, Mescheriakova, Zinnenko - Wexford Opera Chorus - NSO of Irel..."
INDEX 01 18:57:67
TRACK 07 AUDIO
TITLE "Act II, Scene 4: Take the Prince's body away quickl"
PERFORMER "Lochak, Browner, Mescheriakova, Zinnenko - Wexford Opera Chorus - NSO of Irel..."
INDEX 01 19:16:42
TRACK 08 AUDIO
TITLE "Act II, Scene 4: On the ocean of the air"
PERFORMER "Lochak, Browner, Mescheriakova, Zinnenko - Wexford Opera Chorus - NSO of Irel..."
INDEX 01 20:15:17
TRACK 09 AUDIO
TITLE "Act II, Scene 4: As soon as night shrouds the mountain tops of the Caucasus"
PERFORMER "Lochak, Browner, Mescheriakova, Zinnenko - Wexford Opera Chorus - NSO of Irel..."
INDEX 01 22:28:72
TRACK 10 AUDIO
TITLE "Act II, Scene 4: Where is he?"
PERFORMER "Lochak, Browner, Mescheriakova, Zinnenko - Wexford Opera Chorus - NSO of Irel..."
INDEX 01 24:37:42
TRACK 11 AUDIO
TITLE "Act II, Scene 4: Father, Father, my soul is suffering"
PERFORMER "Lochak, Browner, Mescheriakova, Zinnenko - Wexford Opera Chorus - NSO of Irel..."
INDEX 01 27:08:25
TRACK 12 AUDIO
TITLE "Act II, Scene 4: Let her (me) go to the holy convent"
PERFORMER "Lochak, Browner, Mescheriakova, Zinnenko - Wexford Opera Chorus - NSO of Irel..."
INDEX 01 29:55:05
TRACK 13 AUDIO
TITLE "Act III, Scene 5: All Christians are asleep"
PERFORMER "Lochak, Browner, Mescheriakova, Zinnenko - Wexford Opera Chorus - NSO of Irel..."
INDEX 01 33:24:20
TRACK 14 AUDIO
TITLE "Act III, Scene 5: The holy convent sleeps"
PERFORMER "Lochak, Browner, Mescheriakova, Zinnenko - Wexford Opera Chorus - NSO of Irel..."
INDEX 01 37:45:32
TRACK 15 AUDIO
TITLE "Act III, Scene 5: Yes, I love her, I shall find renewal!"
PERFORMER "Lochak, Browner, Mescheriakova, Zinnenko - Wexford Opera Chorus - NSO of Irel..."
INDEX 01 39:34:10
TRACK 16 AUDIO
TITLE "Act III, Scene 5: Agitated and depraved spirit, what are you doing here at th..."
PERFORMER "Lochak, Browner, Mescheriakova, Zinnenko - Wexford Opera Chorus - NSO of Irel..."
INDEX 01 40:02:70
TRACK 17 AUDIO
TITLE "Act III, Scene 6: The night is warm, the night is calm"
PERFORMER "Lochak, Browner, Mescheriakova, Zinnenko - Wexford Opera Chorus - NSO of Irel..."
INDEX 01 42:35:22
TRACK 18 AUDIO
TITLE "Act III, Scene 6: All Christians are asleep"
PERFORMER "Lochak, Browner, Mescheriakova, Zinnenko - Wexford Opera Chorus - NSO of Irel..."
INDEX 01 47:11:70
TRACK 19 AUDIO
TITLE "Act III, Scene 6: I am the one to whom you listened in the silence of the mid..."
PERFORMER "Lochak, Browner, Mescheriakova, Zinnenko - Wexford Opera Chorus - NSO of Irel..."
INDEX 01 48:26:37
TRACK 20 AUDIO
TITLE "Act III, Scene 6: Your words are dangerous!"
PERFORMER "Lochak, Browner, Mescheriakova, Zinnenko - Wexford Opera Chorus - NSO of Irel..."
INDEX 01 50:59:00
TRACK 21 AUDIO
TITLE "Act III, Scene 6: Your image was impressed on my soul"
PERFORMER "Lochak, Browner, Mescheriakova, Zinnenko - Wexford Opera Chorus - NSO of Irel..."
INDEX 01 52:51:52
TRACK 22 AUDIO
TITLE "Act III, Scene 6: I swear by the first day of creation, I swear by the last day"
PERFORMER "Lochak, Browner, Mescheriakova, Zinnenko - Wexford Opera Chorus - NSO of Irel..."
INDEX 01 59:42:12
TRACK 23 AUDIO
TITLE "Act III, Scene 6: Creating everything, eternally good"
PERFORMER "Lochak, Browner, Mescheriakova, Zinnenko - Wexford Opera Chorus - NSO of Irel..."
INDEX 01 62:14:40
TRACK 24 AUDIO
TITLE "Act III, Scene 6: Ah, creator, creator, I call upon you!"
PERFORMER "Lochak, Browner, Mescheriakova, Zinnenko - Wexford Opera Chorus - NSO of Irel..."
INDEX 01 64:27:10
TRACK 25 AUDIO
TITLE "Act III, Scene 6: I shall dive to the bottom of the sea. I shall fly"
PERFORMER "Lochak, Browner, Mescheriakova, Zinnenko - Wexford Opera Chorus - NSO of Irel..."
INDEX 01 64:51:17
TRACK 26 AUDIO
TITLE "Act III, Scene 6: I am in your hands...But take pity on me!"
PERFORMER "Lochak, Browner, Mescheriakova, Zinnenko - Wexford Opera Chorus - NSO of Irel..."
INDEX 01 66:10:55
TRACK 27 AUDIO
TITLE "Act III, Scene 6: Tamara!"
PERFORMER "Lochak, Browner, Mescheriakova, Zinnenko - Wexford Opera Chorus - NSO of Irel..."
INDEX 01 66:40:37
TRACK 28 AUDIO
TITLE "Act III, Scene 6: Be gone, spirit of doubt!"
PERFORMER "Lochak, Browner, Mescheriakova, Zinnenko - Wexford Opera Chorus - NSO of Irel..."
INDEX 01 66:50:50
TRACK 29 AUDIO
TITLE "Act III, Scene 6: I cannot give her back! She is mine!"
PERFORMER "Lochak, Browner, Mescheriakova, Zinnenko - Wexford Opera Chorus - NSO of Irel..."
INDEX 01 67:31:40
TRACK 30 AUDIO
TITLE "Act III, Scene 6: No, she was not created for you! Be gone gloomy spirit!"
PERFORMER "Lochak, Browner, Mescheriakova, Zinnenko - Wexford Opera Chorus - NSO of Irel..."
INDEX 01 67:41:57
TRACK 31 AUDIO
TITLE "Act III, Scene 6: Again I am abandoned! Again alone! Ah! Accursed world! A cu..."
PERFORMER "Lochak, Browner, Mescheriakova, Zinnenko - Wexford Opera Chorus - NSO of Irel..."
INDEX 01 67:52:40
TRACK 32 AUDIO
TITLE "Act III, Scene 7: Apotheosis: We bear the sinful soul"
PERFORMER "Lochak, Browner, Mescheriakova, Zinnenko - Wexford Opera Chorus - NSO of Irel..."
INDEX 01 69:23:20



Показать сообщения:    

Текущее время: 09-Дек 06:51

Часовой пояс: UTC + 3


Вы не можете начинать темы
Вы не можете отвечать на сообщения
Вы не можете редактировать свои сообщения
Вы не можете удалять свои сообщения
Вы не можете голосовать в опросах
Вы не можете прикреплять файлы к сообщениям
Вы не можете скачивать файлы