(Opera) Poulenc - Les Dialogues Des Carmelites (Gencer, Zeani, Pederzini, Colombo - Coro E Orchestra Del Teatro Alla Scala Di Milano, Sanzogno) - 2008, APE (image+.cue) lossless


 

[Цитировать]

Frances Poulenc - Les Dialogues Des Carmelites
Жанр: Opera
Страна-производитель диска: Germany
Год издания диска: 2008
Издатель (лейбл): Cantus Classics
Номер по каталогу: 5.01066
Дата записи: 1957
Аудиокодек: APE
Тип рипа: image+.cue
Битрейт аудио: lossless
Продолжительность: 73'42+69'08
Источник: собственный рип
Наличие сканов в содержимом раздачи: да
Треклист:

CD1

1. Act 1: Dov' Bianco?
2. I soldati qiunqono in tempo
3. Bianca. vostro fratello oveva uno gran fretta
4. Ah! Sei tu, Thierry
5. Interlude
6. Non crediote che questa poltrono sia un privilegio
7. Figliuola, la buono gente si domonda
8. Interlude
9. Ah! Suor Bianca
10. Interlude
11. Abbiate la bont
12. Sono stata io a infrodurre in questa casa
13. Rialzatevi, figlia mia
14. Signor Javelinot
15. Act 2: Qui Lazarum resuscilasti
16. Suor Bianca
17. Mie care figlie

CD1

1. Act 2: Ave Maria
2. Perch ve ne restate cos da venti
3. Oh! Non mi lasciate con questo addio
4. Mie care figlie
5. Ma possibile si lasci dar la caccia ai preti
6. Dove soni le suore.
7. Act 3: Parlate loro, Padre
8. Cittadine, noi ci felicitiamo per la vostra disciplina
9. Fra qualche giorno sar troppo tardi
10. La disgrazia
11. Figliuole, ecco che finisce la nostra prima notte
12. Il Tribunale rivoluzionario
13. Sono state condannate o morte
14. Salve regina mater misericordi
Исполнители:
Frances Poulenc - Les Dialogues Des Carmelites (I Dialoghi Delle Carmelitane)
Opera In 3 Acts
Libretto: Emmet Lavery after Georges Bernanos
Leyla Gencer (Madame Lidoine/Sopran)
Virginia Zeani (Blanche/Sopran)
Gianna Pederzini (Madame De Croissy/Alt)
Scipio Colombo (Marquis De La Force/Bariton)
Nicola Filacuridi (Chevalier De La Force/Tenor)
Gigliola Frazzoni (Mother Maria/Sopran)
Eugenia Ratti (Sister Constance/Sopran)
Vittoria Palombini (Mother Johanna/Alt)
Fiorenza Cossotto (Mother Mathilde/Mezzosopran)
Coro E Orchestra Del Teatro Alla Scala Di Milano
Nino Sanzogno, conductor
Sung in Italian

Лог создания рипа

CD1

Exact Audio Copy V1.0 beta 6 from 9. April 2015
EAC extraction logfile from 31. August 2015, 0:19
Gencer, Zeani, Pederzini, Colombo - Orchestra Alla Scala Di Milano, Sanzogno / Poulenc - Les Dialogues Des Carmelites CD1
Used drive : TSSTcorpCDDVDW SE-208AB Adapter: 1 ID: 2
Read mode : Secure
Utilize accurate stream : Yes
Defeat audio cache : Yes
Make use of C2 pointers : No
Read offset correction : 6
Overread into Lead-In and Lead-Out : No
Fill up missing offset samples with silence : Yes
Delete leading and trailing silent blocks : No
Null samples used in CRC calculations : Yes
Used interface : Native Win32 interface for Win NT & 2000
Used output format : Monkey's Audio Lossless Encoder
Selected bitrate : High Lossless Compression
Quality : High
Add ID3 tag : Yes
Command line compressor : C:\Program Files (x86)\Exact Audio Copy\MAC\MAC.exe
TOC of the extracted CD
Track | Start | Length | Start sector | End sector
---------------------------------------------------------
1 | 0:00.00 | 3:48.45 | 0 | 17144
2 | 3:48.45 | 3:11.71 | 17145 | 31540
3 | 7:00.41 | 4:17.44 | 31541 | 50859
4 | 11:18.10 | 6:16.55 | 50860 | 79114
5 | 17:34.65 | 1:45.68 | 79115 | 87057
6 | 19:20.58 | 3:19.49 | 87058 | 102031
7 | 22:40.32 | 5:15.47 | 102032 | 125703
8 | 27:56.04 | 6:44.36 | 125704 | 156039
9 | 34:40.40 | 2:58.32 | 156040 | 169421
10 | 37:38.72 | 0:53.30 | 169422 | 173426
11 | 38:32.27 | 4:42.33 | 173427 | 194609
12 | 43:14.60 | 2:32.08 | 194610 | 206017
13 | 45:46.68 | 3:53.43 | 206018 | 223535
14 | 49:40.36 | 7:20.69 | 223536 | 256604
15 | 57:01.30 | 5:40.22 | 256605 | 282126
16 | 62:41.52 | 4:29.41 | 282127 | 302342
17 | 67:11.18 | 6:31.13 | 302343 | 331680
Range status and errors
Selected range
Filename D:\EAC\Poulenc - Les Dialogues Des Carmelites CD1.wav
Peak level 63.1 %
Extraction speed 5.2 X
Range quality 100.0 %
Test CRC FD08DA7A
Copy CRC FD08DA7A
Copy OK
No errors occurred
AccurateRip summary
Track 1 accurately ripped (confidence 2) [D4126312] (AR v1)
Track 2 accurately ripped (confidence 2) [0B3A054D] (AR v1)
Track 3 accurately ripped (confidence 2) [7232C107] (AR v1)
Track 4 accurately ripped (confidence 2) [6DB743A1] (AR v1)
Track 5 accurately ripped (confidence 2) [17A22361] (AR v1)
Track 6 accurately ripped (confidence 2) [E30D2299] (AR v1)
Track 7 accurately ripped (confidence 2) [36BA8335] (AR v1)
Track 8 accurately ripped (confidence 2) [49B105FB] (AR v1)
Track 9 accurately ripped (confidence 2) [E4C189EB] (AR v1)
Track 10 accurately ripped (confidence 2) [B6B35116] (AR v1)
Track 11 accurately ripped (confidence 2) [7F5A66DA] (AR v1)
Track 12 accurately ripped (confidence 2) [4919B299] (AR v1)
Track 13 accurately ripped (confidence 2) [0C489AF8] (AR v1)
Track 14 accurately ripped (confidence 2) [98E06610] (AR v1)
Track 15 accurately ripped (confidence 2) [AE7E94FE] (AR v1)
Track 16 accurately ripped (confidence 2) [FE350708] (AR v1)
Track 17 accurately ripped (confidence 2) [0AFC2A69] (AR v1)
All tracks accurately ripped
End of status report
---- CUETools DB Plugin V2.1.6
[CTDB TOCID: U.rfhjVk9XpQJJSN..gJpftn_8I-] found
Submit result: U.rfhjVk9XpQJJSN..gJpftn_8I- has been confirmed
Track | CTDB Status
1 | (1/1) Accurately ripped
2 | (1/1) Accurately ripped
3 | (1/1) Accurately ripped
4 | (1/1) Accurately ripped
5 | (1/1) Accurately ripped
6 | (1/1) Accurately ripped
7 | (1/1) Accurately ripped
8 | (1/1) Accurately ripped
9 | (1/1) Accurately ripped
10 | (1/1) Accurately ripped
11 | (1/1) Accurately ripped
12 | (1/1) Accurately ripped
13 | (1/1) Accurately ripped
14 | (1/1) Accurately ripped
15 | (1/1) Accurately ripped
16 | (1/1) Accurately ripped
17 | (1/1) Accurately ripped
==== Log checksum 40026077A9C786FDA5A3F94EC185BB08F301D5434225D5181AE70CB264E9C6B0 ====

CD2

Exact Audio Copy V1.0 beta 6 from 9. April 2015
EAC extraction logfile from 30. August 2015, 23:59
Gencer, Zeani, Pederzini, Colombo - Orchestra Alla Scala Di Milano, Sanzogno / Poulenc - Les Dialogues Des Carmelites CD2
Used drive : TS8XDVDSTRANSCEND Adapter: 1 ID: 1
Read mode : Secure
Utilize accurate stream : Yes
Defeat audio cache : Yes
Make use of C2 pointers : No
Read offset correction : 6
Overread into Lead-In and Lead-Out : No
Fill up missing offset samples with silence : Yes
Delete leading and trailing silent blocks : No
Null samples used in CRC calculations : Yes
Used interface : Native Win32 interface for Win NT & 2000
Used output format : Monkey's Audio Lossless Encoder
Selected bitrate : High Lossless Compression
Quality : High
Add ID3 tag : Yes
Command line compressor : C:\Program Files (x86)\Exact Audio Copy\MAC\MAC.exe
TOC of the extracted CD
Track | Start | Length | Start sector | End sector
---------------------------------------------------------
1 | 0:00.00 | 4:32.74 | 0 | 20473
2 | 4:32.74 | 5:42.35 | 20474 | 46158
3 | 10:15.34 | 4:12.35 | 46159 | 65093
4 | 14:27.69 | 3:56.60 | 65094 | 82853
5 | 18:24.54 | 3:21.36 | 82854 | 97964
6 | 21:46.15 | 6:51.29 | 97965 | 128818
7 | 28:37.44 | 7:11.23 | 128819 | 161166
8 | 35:48.67 | 4:27.59 | 161167 | 181250
9 | 40:16.51 | 3:29.40 | 181251 | 196965
10 | 43:46.16 | 3:27.49 | 196966 | 212539
11 | 47:13.65 | 6:32.08 | 212540 | 241947
12 | 53:45.73 | 5:14.31 | 241948 | 265528
13 | 59:00.29 | 1:54.39 | 265529 | 274117
14 | 60:54.68 | 8:13.31 | 274118 | 311123
Range status and errors
Selected range
Filename D:\EAC\Poulenc - Les Dialogues Des Carmelites CD2.wav
Peak level 63.0 %
Extraction speed 5.0 X
Range quality 99.9 %
Test CRC F94D8E32
Copy CRC F94D8E32
Copy OK
No errors occurred
AccurateRip summary
Track 1 accurately ripped (confidence 1) [53DA1E9A] (AR v1)
Track 2 accurately ripped (confidence 2) [A87DB538] (AR v1)
Track 3 accurately ripped (confidence 2) [5A80893C] (AR v1)
Track 4 accurately ripped (confidence 2) [BFEB62F4] (AR v1)
Track 5 accurately ripped (confidence 2) [722E56B8] (AR v1)
Track 6 accurately ripped (confidence 2) [7A95DE46] (AR v1)
Track 7 accurately ripped (confidence 2) [5F2589DE] (AR v1)
Track 8 accurately ripped (confidence 2) [42DD86AA] (AR v1)
Track 9 accurately ripped (confidence 2) [52BAEE00] (AR v1)
Track 10 accurately ripped (confidence 2) [619C77B2] (AR v1)
Track 11 accurately ripped (confidence 2) [0F73241F] (AR v1)
Track 12 accurately ripped (confidence 2) [32D644FC] (AR v1)
Track 13 accurately ripped (confidence 2) [005416ED] (AR v1)
Track 14 accurately ripped (confidence 2) [AC5EAE73] (AR v1)
All tracks accurately ripped
End of status report
---- CUETools DB Plugin V2.1.6
[CTDB TOCID: 9tZKlQF.lbGBpI5D7akJEMOt5I8-] found
Submit result: unrecognized or virtual drive
Track | CTDB Status
1 | (1/1) Accurately ripped
2 | (1/1) Accurately ripped
3 | (1/1) Accurately ripped
4 | (1/1) Accurately ripped
5 | (1/1) Accurately ripped
6 | (1/1) Accurately ripped
7 | (1/1) Accurately ripped
8 | (1/1) Accurately ripped
9 | (1/1) Accurately ripped
10 | (1/1) Accurately ripped
11 | (1/1) Accurately ripped
12 | (1/1) Accurately ripped
13 | (1/1) Accurately ripped
14 | (1/1) Accurately ripped
==== Log checksum A0545A67A3B127CD9AC33E9766395D23B00F8F7F661E679135FB1201CDC10964 ====

Содержание индексной карты (.CUE)

CD1

REM GENRE Opera
REM DATE 1957
REM DISCID DE114611
REM COMMENT "ExactAudioCopy v1.0b6"
PERFORMER "Gencer, Zeani, Pederzini, Colombo - Orchestra Alla Scala Di Milano, Sanzogno"
TITLE "Poulenc - Les Dialogues Des Carmelites CD1"
FILE "Poulenc - Les Dialogues Des Carmelites CD1.ape" WAVE
TRACK 01 AUDIO
TITLE "Act 1: Dov' Bianco?"
PERFORMER "Gencer, Zeani, Pederzini, Colombo - Orchestra Alla Scala Di Milano, Sanzogno"
INDEX 01 00:00:00
TRACK 02 AUDIO
TITLE "I soldati qiunqono in tempo"
PERFORMER "Gencer, Zeani, Pederzini, Colombo - Orchestra Alla Scala Di Milano, Sanzogno"
INDEX 01 03:48:45
TRACK 03 AUDIO
TITLE "Bianca. vostro fratello oveva uno gran fretta"
PERFORMER "Gencer, Zeani, Pederzini, Colombo - Orchestra Alla Scala Di Milano, Sanzogno"
INDEX 01 07:00:41
TRACK 04 AUDIO
TITLE "Ah! Sei tu, Thierry"
PERFORMER "Gencer, Zeani, Pederzini, Colombo - Orchestra Alla Scala Di Milano, Sanzogno"
INDEX 01 11:18:10
TRACK 05 AUDIO
TITLE "Interlude"
PERFORMER "Gencer, Zeani, Pederzini, Colombo - Orchestra Alla Scala Di Milano, Sanzogno"
INDEX 01 17:34:65
TRACK 06 AUDIO
TITLE "Non crediote che questa poltrono sia un privilegio"
PERFORMER "Gencer, Zeani, Pederzini, Colombo - Orchestra Alla Scala Di Milano, Sanzogno"
INDEX 01 19:20:58
TRACK 07 AUDIO
TITLE "Figliuola, la buono gente si domonda"
PERFORMER "Gencer, Zeani, Pederzini, Colombo - Orchestra Alla Scala Di Milano, Sanzogno"
INDEX 01 22:40:32
TRACK 08 AUDIO
TITLE "Interlude"
PERFORMER "Gencer, Zeani, Pederzini, Colombo - Orchestra Alla Scala Di Milano, Sanzogno"
INDEX 01 27:56:04
TRACK 09 AUDIO
TITLE "Ah! Suor Bianca"
PERFORMER "Gencer, Zeani, Pederzini, Colombo - Orchestra Alla Scala Di Milano, Sanzogno"
INDEX 01 34:40:40
TRACK 10 AUDIO
TITLE "Interlude"
PERFORMER "Gencer, Zeani, Pederzini, Colombo - Orchestra Alla Scala Di Milano, Sanzogno"
INDEX 01 37:38:72
TRACK 11 AUDIO
TITLE "Abbiate la bont"
PERFORMER "Gencer, Zeani, Pederzini, Colombo - Orchestra Alla Scala Di Milano, Sanzogno"
INDEX 00 38:32:26
INDEX 01 38:32:27
TRACK 12 AUDIO
TITLE "Sono stata io a infrodurre in questa casa"
PERFORMER "Gencer, Zeani, Pederzini, Colombo - Orchestra Alla Scala Di Milano, Sanzogno"
INDEX 01 43:14:60
TRACK 13 AUDIO
TITLE "Rialzatevi, figlia mia"
PERFORMER "Gencer, Zeani, Pederzini, Colombo - Orchestra Alla Scala Di Milano, Sanzogno"
INDEX 01 45:46:68
TRACK 14 AUDIO
TITLE "Signor Javelino"
PERFORMER "Gencer, Zeani, Pederzini, Colombo - Orchestra Alla Scala Di Milano, Sanzogno"
INDEX 01 49:40:36
TRACK 15 AUDIO
TITLE "Act 2: Qui Lazarum resuscilasti"
PERFORMER "Gencer, Zeani, Pederzini, Colombo - Orchestra Alla Scala Di Milano, Sanzogno"
INDEX 01 57:01:30
TRACK 16 AUDIO
TITLE "Suor Bianca"
PERFORMER "Gencer, Zeani, Pederzini, Colombo - Orchestra Alla Scala Di Milano, Sanzogno"
INDEX 01 62:41:52
TRACK 17 AUDIO
TITLE "Mie care figlie"
PERFORMER "Gencer, Zeani, Pederzini, Colombo - Orchestra Alla Scala Di Milano, Sanzogno"
INDEX 01 67:11:18

CD2

REM GENRE Opera
REM DATE 1957
REM DISCID C510340E
REM COMMENT "ExactAudioCopy v1.0b6"
PERFORMER "Gencer, Zeani, Pederzini, Colombo - Orchestra Alla Scala Di Milano, Sanzogno"
TITLE "Poulenc - Les Dialogues Des Carmelites CD2"
FILE "Poulenc - Les Dialogues Des Carmelites CD2.ape" WAVE
TRACK 01 AUDIO
TITLE "Act 2: Ave Maria"
PERFORMER "Gencer, Zeani, Pederzini, Colombo - Orchestra Alla Scala Di Milano, Sanzogno"
INDEX 01 00:00:00
TRACK 02 AUDIO
TITLE "Perch ve ne restate cos da venti"
PERFORMER "Gencer, Zeani, Pederzini, Colombo - Orchestra Alla Scala Di Milano, Sanzogno"
INDEX 01 04:32:74
TRACK 03 AUDIO
TITLE "Oh! Non mi lasciate con questo addio"
PERFORMER "Gencer, Zeani, Pederzini, Colombo - Orchestra Alla Scala Di Milano, Sanzogno"
INDEX 01 10:15:34
TRACK 04 AUDIO
TITLE "Mie care figlie"
PERFORMER "Gencer, Zeani, Pederzini, Colombo - Orchestra Alla Scala Di Milano, Sanzogno"
INDEX 01 14:27:69
TRACK 05 AUDIO
TITLE "Ma possibile si lasci dar la caccia ai preti"
PERFORMER "Gencer, Zeani, Pederzini, Colombo - Orchestra Alla Scala Di Milano, Sanzogno"
INDEX 01 18:24:54
TRACK 06 AUDIO
TITLE "Dove soni le suore"
PERFORMER "Gencer, Zeani, Pederzini, Colombo - Orchestra Alla Scala Di Milano, Sanzogno"
INDEX 01 21:46:15
TRACK 07 AUDIO
TITLE "Act 3: Parlate loro, Padre"
PERFORMER "Gencer, Zeani, Pederzini, Colombo - Orchestra Alla Scala Di Milano, Sanzogno"
INDEX 01 28:37:44
TRACK 08 AUDIO
TITLE "Cittadine, noi ci felicitiamo per la vostra disciplina"
PERFORMER "Gencer, Zeani, Pederzini, Colombo - Orchestra Alla Scala Di Milano, Sanzogno"
INDEX 01 35:48:67
TRACK 09 AUDIO
TITLE "Fra qualche giorno sar troppo tardi"
PERFORMER "Gencer, Zeani, Pederzini, Colombo - Orchestra Alla Scala Di Milano, Sanzogno"
INDEX 01 40:16:51
TRACK 10 AUDIO
TITLE "La disgrazia"
PERFORMER "Gencer, Zeani, Pederzini, Colombo - Orchestra Alla Scala Di Milano, Sanzogno"
INDEX 01 43:46:16
TRACK 11 AUDIO
TITLE "Figliuole, ecco che finisce la nostra prima notte"
PERFORMER "Gencer, Zeani, Pederzini, Colombo - Orchestra Alla Scala Di Milano, Sanzogno"
INDEX 01 47:13:65
TRACK 12 AUDIO
TITLE "Il Tribunale rivoluzionario"
PERFORMER "Gencer, Zeani, Pederzini, Colombo - Orchestra Alla Scala Di Milano, Sanzogno"
INDEX 01 53:45:73
TRACK 13 AUDIO
TITLE "Sono state condannate o morte"
PERFORMER "Gencer, Zeani, Pederzini, Colombo - Orchestra Alla Scala Di Milano, Sanzogno"
INDEX 01 59:00:29
TRACK 14 AUDIO
TITLE "Salve regina mater misericordi"
PERFORMER "Gencer, Zeani, Pederzini, Colombo - Orchestra Alla Scala Di Milano, Sanzogno"
INDEX 01 60:54:68
Доп. информация:
Poulenc was commissioned to write a new work for La Scala Milan and composed Les Dialogues des Carmelites to a French text by Georges Bernanos.
The World Premiere was to be sung in Italian and Poulenc personally chose Virginia Zeani to play the leading role of Blanche de la Force, having heard her in Paris as Violetta, Blanche de la Force is a nervous young noblewoman, so terrified by the events of the French Revolution that she cries in terror at the sight of a passing shadow.
Composing herself, she calmly tells her father that the only way she can find safety and peace of mind is to enter a convent.
In the final scene the nuns have been arrested by the revolutionary guard.
Blanche, who had fled to avoid capture, is not with them as they are taken to the guillotine.
As they approach the scaffold they sing together a bold "Salve Regina" and are executed one by one.
The last nun is young Sister Constance, Blanche's nearest friend.
Sister Constance turns and looks for Blanche in the crowd.
They see each other, and Blanche, at last no longer afraid, calmly follows Sister Constance to execution.



Показать сообщения:    

Текущее время: 11-Дек 03:21

Часовой пояс: UTC + 3


Вы не можете начинать темы
Вы не можете отвечать на сообщения
Вы не можете редактировать свои сообщения
Вы не можете удалять свои сообщения
Вы не можете голосовать в опросах
Вы не можете прикреплять файлы к сообщениям
Вы не можете скачивать файлы