(Opera) Giuseppe Verdi - La Traviata / Джузеппе Верди - Травиата (Jean Bobescu; Virginia Zeani, Nicolae Herlea, Ion Buzea), 1968 - Studio recording / 1996, FLAC (image+.cue), lossless


 

[Цитировать]

Giuseppe Verdi - La Traviata / Джузеппе Верди - Травиата (Jean Bobescu; Virginia Zeani, Nicolae Herlea, Ion Buzea)
Жанр: Opera
Страна-производитель диска: Германия
Год издания диска: 1996
Издатель (лейбл): VoxBox
Дата записи: 1968
Аудиокодек: FLAC
Тип рипа: image+.cue
Битрейт аудио: lossless
Продолжительность:
Источник: релизер (canariasesmusica)
Исполнители:
Violetta Valery - Virginia Zeani,
Giorgio Germont - Nicolae Herlea,
Alfredo Germont - Ion Buzea,
Flora Bervoix - Elisabeta Neculce-Cartis,
Annina - Elena Simionescu,
Gastone - Vasile Moldoveanu,
Dottore Grenvil - Nicolae Rafael,
Barone Douphol - Constantin Dumitri,
Marchese d'Obigny - Valentin Loghin.
Conductor - Jean Bobescu,
Orchestra and Chorus of Rumanian Opera of Bucharest.
Recorded at Marble Hall Studio, Bucharest, May 1968.

Лог создания рипаЛог создания рипа CD 1

X Lossless Decoder version 20140504 (147.0)
XLD extraction logfile from 2014-07-10 12:19:38 +0100
/ CD de audio
Used drive : MATSHITA DVD-R UJ-8A8 (revision HB14)Media type : Pressed CD
Ripper mode : XLD Secure RipperDisable audio cache : OK for the drive with a cache less than 1375KiBMake use of C2 pointers : NORead offset correction : 102Max retry count : 20Gap status : Analyzed, Appended
TOC of the extracted CD Track | Start | Length | Start sector | End sector --------------------------------------------------------- 1 | 00:00:32 | 03:59:28 | 32 | 17984 2 | 03:59:60 | 05:15:47 | 17985 | 41656 3 | 09:15:32 | 03:03:68 | 41657 | 55449 4 | 12:19:25 | 01:08:57 | 55450 | 60606 5 | 13:28:07 | 04:34:58 | 60607 | 81214 6 | 18:02:65 | 01:28:42 | 81215 | 87856 7 | 19:31:32 | 01:48:53 | 87857 | 96009 8 | 21:20:10 | 09:17:35 | 96010 | 137819 9 | 30:37:45 | 03:28:52 | 137820 | 153471 10 | 34:06:22 | 03:47:58 | 153472 | 170554 11 | 37:54:05 | 00:52:15 | 170555 | 174469 12 | 38:46:20 | 20:27:57 | 174470 | 266551 13 | 59:14:02 | 01:38:38 | 266552 | 273939 14 | 60:52:40 | 02:35:10 | 273940 | 285574
AccurateRip Summary Disc not found in AccurateRip DB.
All Tracks Filename : /Users/juan/Music/CD de audio.flac CRC32 hash : C313F3E4 CRC32 hash (skip zero) : 72D78291 Statistics Read error : 0 Jitter error (maybe fixed) : 0 Retry sector count : 0 Damaged sector count : 0
Track 01 Pre-gap length : 00:02:32
CRC32 hash : 21E9980F CRC32 hash (skip zero) : 29249E7E AccurateRip v1 signature : 87C1C6F4 AccurateRip v2 signature : 8BCD0637 ->Track not present in AccurateRip database. Statistics Read error : 0 Jitter error (maybe fixed) : 0 Retry sector count : 0 Damaged sector count : 0
Track 02
CRC32 hash : 92C29B46 CRC32 hash (skip zero) : D0E6E0A3 AccurateRip v1 signature : 756A7690 AccurateRip v2 signature : 073C828C ->Track not present in AccurateRip database. Statistics Read error : 0 Jitter error (maybe fixed) : 0 Retry sector count : 0 Damaged sector count : 0
Track 03
CRC32 hash : BACA17F6 CRC32 hash (skip zero) : 2164E29B AccurateRip v1 signature : C439CF3D AccurateRip v2 signature : B6611B5C ->Track not present in AccurateRip database. Statistics Read error : 0 Jitter error (maybe fixed) : 0 Retry sector count : 0 Damaged sector count : 0
Track 04
CRC32 hash : FE150AEC CRC32 hash (skip zero) : 51F06AD5 AccurateRip v1 signature : 481097C9 AccurateRip v2 signature : 3608AC3C ->Track not present in AccurateRip database. Statistics Read error : 0 Jitter error (maybe fixed) : 0 Retry sector count : 0 Damaged sector count : 0
Track 05
CRC32 hash : AC89B286 CRC32 hash (skip zero) : 154557A9 AccurateRip v1 signature : EEAE4AE1 AccurateRip v2 signature : 5E8700AA ->Track not present in AccurateRip database. Statistics Read error : 0 Jitter error (maybe fixed) : 0 Retry sector count : 0 Damaged sector count : 0
Track 06
CRC32 hash : 65D30C2F CRC32 hash (skip zero) : 564633E4 AccurateRip v1 signature : 0505B4F9 AccurateRip v2 signature : E4C7E8DD ->Track not present in AccurateRip database. Statistics Read error : 0 Jitter error (maybe fixed) : 0 Retry sector count : 0 Damaged sector count : 0
Track 07 Pre-gap length : 00:00:37
CRC32 hash : 5BE78A7B CRC32 hash (skip zero) : 9AF3E32A AccurateRip v1 signature : 62940A58 AccurateRip v2 signature : D3146E7B ->Track not present in AccurateRip database. Statistics Read error : 0 Jitter error (maybe fixed) : 0 Retry sector count : 0 Damaged sector count : 0
Track 08
CRC32 hash : 3DA00FFC CRC32 hash (skip zero) : EF3CA4B9 AccurateRip v1 signature : 6D97A670 AccurateRip v2 signature : 2EFC361C ->Track not present in AccurateRip database. Statistics Read error : 0 Jitter error (maybe fixed) : 0 Retry sector count : 0 Damaged sector count : 0
Track 09 Pre-gap length : 00:08:05
CRC32 hash : 2C5266DD CRC32 hash (skip zero) : B430A126 AccurateRip v1 signature : F093CD3D AccurateRip v2 signature : 769D3F4C ->Track not present in AccurateRip database. Statistics Read error : 0 Jitter error (maybe fixed) : 0 Retry sector count : 0 Damaged sector count : 0
Track 10
CRC32 hash : 09056BCD CRC32 hash (skip zero) : 36D7CDA4 AccurateRip v1 signature : A288D042 AccurateRip v2 signature : 082CF65D ->Track not present in AccurateRip database. Statistics Read error : 0 Jitter error (maybe fixed) : 0 Retry sector count : 0 Damaged sector count : 0
Track 11
CRC32 hash : 82DAFDFD CRC32 hash (skip zero) : CBA4534F AccurateRip v1 signature : E154E7F5 AccurateRip v2 signature : 0D97C88D ->Track not present in AccurateRip database. Statistics Read error : 0 Jitter error (maybe fixed) : 0 Retry sector count : 0 Damaged sector count : 0
Track 12
CRC32 hash : 0490EC0F CRC32 hash (skip zero) : 073756E6 AccurateRip v1 signature : 625FBABC AccurateRip v2 signature : BC0E9EA8 ->Track not present in AccurateRip database. Statistics Read error : 0 Jitter error (maybe fixed) : 0 Retry sector count : 0 Damaged sector count : 0
Track 13
CRC32 hash : 3C5C3A8F CRC32 hash (skip zero) : 5D33BE0A AccurateRip v1 signature : E7453075 AccurateRip v2 signature : 1FD5DE8D ->Track not present in AccurateRip database. Statistics Read error : 0 Jitter error (maybe fixed) : 0 Retry sector count : 0 Damaged sector count : 0
Track 14
CRC32 hash : AABE56E8 CRC32 hash (skip zero) : 7706E20F AccurateRip v1 signature : 9961E90F AccurateRip v2 signature : F7FBFBBF ->Track not present in AccurateRip database. Statistics Read error : 0 Jitter error (maybe fixed) : 0 Retry sector count : 0 Damaged sector count : 0
No errors occurred
End of status report

Лог создания рипа CD 2

X Lossless Decoder version 20140504 (147.0)
XLD extraction logfile from 2014-07-10 13:39:51 +0100
/ CD de audio
Used drive : MATSHITA DVD-R UJ-8A8 (revision HB14)Media type : Pressed CD
Ripper mode : XLD Secure RipperDisable audio cache : OK for the drive with a cache less than 1375KiBMake use of C2 pointers : NORead offset correction : 102Max retry count : 20Gap status : Analyzed, Appended
TOC of the extracted CD Track | Start | Length | Start sector | End sector --------------------------------------------------------- 1 | 00:00:33 | 02:23:30 | 33 | 10787 2 | 02:23:63 | 04:55:20 | 10788 | 32932 3 | 07:19:08 | 00:32:40 | 32933 | 35372 4 | 07:51:48 | 01:04:27 | 35373 | 40199 5 | 08:56:00 | 03:02:13 | 40200 | 53862 6 | 11:58:13 | 02:56:50 | 53863 | 67112 7 | 14:54:63 | 08:44:27 | 67113 | 106439 8 | 23:39:15 | 06:06:20 | 106440 | 133909 9 | 29:45:35 | 03:37:05 | 133910 | 150189 10 | 33:22:40 | 04:18:15 | 150190 | 169554 11 | 37:40:55 | 04:34:73 | 169555 | 190177 12 | 42:15:53 | 00:50:42 | 190178 | 193969 13 | 43:06:20 | 01:47:35 | 193970 | 202029 14 | 44:53:55 | 07:54:28 | 202030 | 237607 15 | 52:48:08 | 06:15:42 | 237608 | 265774
AccurateRip Summary Disc not found in AccurateRip DB.
All Tracks Filename : /Users/juan/Music/CD de audio.flac CRC32 hash : 38E45B3B CRC32 hash (skip zero) : 75BED84F Statistics Read error : 0 Jitter error (maybe fixed) : 0 Retry sector count : 0 Damaged sector count : 0
Track 01 Pre-gap length : 00:02:33
CRC32 hash : FB9C9FCE CRC32 hash (skip zero) : B89289E1 AccurateRip v1 signature : 221C6675 AccurateRip v2 signature : 1CA31E00 ->Track not present in AccurateRip database. Statistics Read error : 0 Jitter error (maybe fixed) : 0 Retry sector count : 0 Damaged sector count : 0
Track 02 Pre-gap length : 00:01:20
CRC32 hash : CC1AFB66 CRC32 hash (skip zero) : DD0C354B AccurateRip v1 signature : 420137DB AccurateRip v2 signature : B30C9C1D ->Track not present in AccurateRip database. Statistics Read error : 0 Jitter error (maybe fixed) : 0 Retry sector count : 0 Damaged sector count : 0
Track 03
CRC32 hash : 2EFE4830 CRC32 hash (skip zero) : A1B99D44 AccurateRip v1 signature : D9A9A38D AccurateRip v2 signature : 3555E90A ->Track not present in AccurateRip database. Statistics Read error : 0 Jitter error (maybe fixed) : 0 Retry sector count : 0 Damaged sector count : 0
Track 04
CRC32 hash : 7B43B420 CRC32 hash (skip zero) : C9AFDD99 AccurateRip v1 signature : 296467C6 AccurateRip v2 signature : 5F42773F ->Track not present in AccurateRip database. Statistics Read error : 0 Jitter error (maybe fixed) : 0 Retry sector count : 0 Damaged sector count : 0
Track 05 Pre-gap length : 00:00:05
CRC32 hash : 6700C690 CRC32 hash (skip zero) : 53629257 AccurateRip v1 signature : 05A5F90D AccurateRip v2 signature : B34F77E5 ->Track not present in AccurateRip database. Statistics Read error : 0 Jitter error (maybe fixed) : 0 Retry sector count : 0 Damaged sector count : 0
Track 06
CRC32 hash : BC8E031E CRC32 hash (skip zero) : 2EF392F4 AccurateRip v1 signature : 4568B23E AccurateRip v2 signature : 22ECCAAF ->Track not present in AccurateRip database. Statistics Read error : 0 Jitter error (maybe fixed) : 0 Retry sector count : 0 Damaged sector count : 0
Track 07
CRC32 hash : D8724BB2 CRC32 hash (skip zero) : F857D6CF AccurateRip v1 signature : A748C829 AccurateRip v2 signature : B3818B9C ->Track not present in AccurateRip database. Statistics Read error : 0 Jitter error (maybe fixed) : 0 Retry sector count : 0 Damaged sector count : 0
Track 08
CRC32 hash : AEFB79B2 CRC32 hash (skip zero) : 7A8B4405 AccurateRip v1 signature : CD1F2F10 AccurateRip v2 signature : 2F4A6469 ->Track not present in AccurateRip database. Statistics Read error : 0 Jitter error (maybe fixed) : 0 Retry sector count : 0 Damaged sector count : 0
Track 09 Pre-gap length : 00:07:65
CRC32 hash : ECBA53E2 CRC32 hash (skip zero) : 3A8E88D1 AccurateRip v1 signature : 2765DE2A AccurateRip v2 signature : 23DCD067 ->Track not present in AccurateRip database. Statistics Read error : 0 Jitter error (maybe fixed) : 0 Retry sector count : 0 Damaged sector count : 0
Track 10
CRC32 hash : 314A7728 CRC32 hash (skip zero) : F7057252 AccurateRip v1 signature : A991D73B AccurateRip v2 signature : 30BDDF7C ->Track not present in AccurateRip database. Statistics Read error : 0 Jitter error (maybe fixed) : 0 Retry sector count : 0 Damaged sector count : 0
Track 11
CRC32 hash : 6857989D CRC32 hash (skip zero) : F5ED7123 AccurateRip v1 signature : B21AF9D9 AccurateRip v2 signature : 56730D19 ->Track not present in AccurateRip database. Statistics Read error : 0 Jitter error (maybe fixed) : 0 Retry sector count : 0 Damaged sector count : 0
Track 12 Pre-gap length : 00:00:38
CRC32 hash : 3A236E91 CRC32 hash (skip zero) : FEA62347 AccurateRip v1 signature : 92D953A4 AccurateRip v2 signature : 0ACCE67E ->Track not present in AccurateRip database. Statistics Read error : 0 Jitter error (maybe fixed) : 0 Retry sector count : 0 Damaged sector count : 0
Track 13
CRC32 hash : 4131D1EB CRC32 hash (skip zero) : 8AC7C2D1 AccurateRip v1 signature : 8E502BC6 AccurateRip v2 signature : D6F8339F ->Track not present in AccurateRip database. Statistics Read error : 0 Jitter error (maybe fixed) : 0 Retry sector count : 0 Damaged sector count : 0
Track 14 Pre-gap length : 00:00:30
CRC32 hash : 46E96E78 CRC32 hash (skip zero) : 5C7DDCA1 AccurateRip v1 signature : C4C3CAC8 AccurateRip v2 signature : C456AD7E ->Track not present in AccurateRip database. Statistics Read error : 0 Jitter error (maybe fixed) : 0 Retry sector count : 0 Damaged sector count : 0
Track 15
CRC32 hash : 300FBA15 CRC32 hash (skip zero) : EFC482A9 AccurateRip v1 signature : F17028BA AccurateRip v2 signature : 1ED47E02 ->Track not present in AccurateRip database. Statistics Read error : 0 Jitter error (maybe fixed) : 0 Retry sector count : 0 Damaged sector count : 0
No errors occurred
End of status report

Содержание индексной карты (.CUE)Содержание индексной карты (.CUE) CD 1

REM DISCID BD0EDF0EFILE "CD de audio 1.flac" WAVE TRACK 01 AUDIO INDEX 00 00:00:00 INDEX 01 00:00:32 TRACK 02 AUDIO INDEX 01 03:59:60 TRACK 03 AUDIO INDEX 01 09:15:32 TRACK 04 AUDIO INDEX 01 12:19:25 TRACK 05 AUDIO INDEX 01 13:28:07 TRACK 06 AUDIO INDEX 01 18:02:65 TRACK 07 AUDIO INDEX 00 19:30:70 INDEX 01 19:31:32 TRACK 08 AUDIO INDEX 01 21:20:10 TRACK 09 AUDIO INDEX 00 30:29:40 INDEX 01 30:37:45 TRACK 10 AUDIO INDEX 01 34:06:22 TRACK 11 AUDIO INDEX 01 37:54:05 TRACK 12 AUDIO INDEX 01 38:46:20 TRACK 13 AUDIO INDEX 01 59:14:02 TRACK 14 AUDIO INDEX 01 60:52:40

Содержание индексной карты (.CUE) CD 2

REM DISCID CD0DD70FFILE "CD de audio 2.flac" WAVE TRACK 01 AUDIO INDEX 00 00:00:00 INDEX 01 00:00:33 TRACK 02 AUDIO INDEX 00 02:22:43 INDEX 01 02:23:63 TRACK 03 AUDIO INDEX 01 07:19:08 TRACK 04 AUDIO INDEX 01 07:51:48 TRACK 05 AUDIO INDEX 00 08:55:70 INDEX 01 08:56:00 TRACK 06 AUDIO INDEX 01 11:58:13 TRACK 07 AUDIO INDEX 01 14:54:63 TRACK 08 AUDIO INDEX 01 23:39:15 TRACK 09 AUDIO INDEX 00 29:37:45 INDEX 01 29:45:35 TRACK 10 AUDIO INDEX 01 33:22:40 TRACK 11 AUDIO INDEX 01 37:40:55 TRACK 12 AUDIO INDEX 00 42:15:15 INDEX 01 42:15:53 TRACK 13 AUDIO INDEX 01 43:06:20 TRACK 14 AUDIO INDEX 00 44:53:25 INDEX 01 44:53:55 TRACK 15 AUDIO INDEX 01 52:48:08

Треклист

Disc 1:
Act I:
1. Prelude
2. Introduction scene 'Dell' invito trascorsa e gia l'ora'
3. Brindisi ' Liiamo ne'lieti calici'
4. Waltz 'Che e cio? 'Non gradireste'
5. Duet 'Oh, qual pallor - Un di felice, eterea'
6. Scene 'Ebben? Che diavol fate?
7. Chorus 'Si ridesta in ciel l'aurora'
8. Scene and Aria 'E'strano, e stano - Ah, fors'e lui che l'anima'
Act II:
9. Scene and Aria 'Lunge da lei per me non v'ha diletto - De miei bollenti spriti'
10. Scene 'Annina, donde vieni'?
11. Scene 'Alfredo?' 'Per Parigi, or or partiva'
12. Scene and duet 'Madamigella Valery?' (Son io) 'Pura siccome un angelo'
13. Scene 'Dammi tu forza, oh cielo'
14. Duettino 'Che fai?' 'Nulla'
Disc 2:
1. Scene 'Ah, vive sol quel core'
2. Aria 'Di Provenza il mar'
3. 'Ne rispondi d' un padre all'afflitto'
4. Second act finale 'Avrem leta maschere la notte'
5. Chorus of Gypsies 'Noi siamo zingarelle'
6. Chorus of Mattadors 'Di Madride noi siamo mattadori'
7. Septet and Chorus 'Alfredo! Voi!'
8. End the second act - Octet and Chorus 'Di sprezzo degno se stresso rende'
Act III:
9. Prelude
10. Scene 'Annina? Comandate?'
11. Aria 'Teneste la promessa - Addio del passato'
12. Bacchanale 'Largo al qualrupede sir della festa'
13. Scene 'Signora! Che t'accade?'
14. Duet 'Parigi, o cara, noi lasceremo'
15. Scene Finale 'Ah Violetta, Voi Signor?'



Показать сообщения:    

Текущее время: 09-Дек 06:52

Часовой пояс: UTC + 3


Вы не можете начинать темы
Вы не можете отвечать на сообщения
Вы не можете редактировать свои сообщения
Вы не можете удалять свои сообщения
Вы не можете голосовать в опросах
Вы не можете прикреплять файлы к сообщениям
Вы не можете скачивать файлы