(Baroque Ballad Opera) Gay - Pepusch, The Beggar's Opera, Original songs & airs (Kwella, Elliot - The Broadside Band, Barlow) - 2003, APE (image+.cue) lossless



John Gay - Johann Christoph Pepusch, The Beggar's Opera, Original songs & airs
Жанр: Baroque Ballad Opera
Страна-производитель диска: Germany
Год издания диска: 2003
Издатель (лейбл): Harmonia Mundi
Номер по каталогу: HMA 1951071
Дата записи: 1982
Аудиокодек: APE
Тип рипа: image+.cue
Битрейт аудио: lossless
Продолжительность: 45'00
Источник: собственный рип
Наличие сканов в содержимом раздачи: да
1. Cold and raw (Air III)
2. Over the hills and far away (Air XVI)
3. Oh, The Broom (Air XVIII)
4. Would you have a young virgin (Air XXI)
5. What shall I do to show how much I love her (Air VI)
6. Fill ev'ry glass (Air XIX)
7. Charming Billy (Air Xxxvii)
8. The lass of Patie's mill (Air XL)
9. Greensleeves (Air Lxvii)
Patrizia Kella, soprano
Paul Elliott, tenor
The Broadside Band
Jeremy Barlow

Лог создания рипа

Exact Audio Copy V1.0 beta 3 from 29. August 2011
EAC extraction logfile from 18. October 2013, 0:41
John Gay / The beggar's opera: Original songs & airs, Barlow 1982
Used drive : TSSTcorpCDDVDW SE-208AB Adapter: 1 ID: 0
Read mode : SecureUtilize accurate stream : YesDefeat audio cache : YesMake use of C2 pointers : No
Read offset correction : 6Overread into Lead-In and Lead-Out : NoFill up missing offset samples with silence : YesDelete leading and trailing silent blocks : NoNull samples used in CRC calculations : YesUsed interface : Native Win32 interface for Win NT & 2000
Used output format : Monkey's Audio Lossless EncoderSelected bitrate : High Lossless CompressionQuality : HighAdd ID3 tag : YesCommand line compressor : K:\Program Files (x86)\Exact Audio Copy\Monkeys Audio\Monkey's Audio\MAC.exeAdditional command line options : -6 -V -T "ARTIST=%artist%" -T "TITLE=%title%" -T "ALBUM=%albumtitle%" -T "DATE=%year%" -T "TRACKNUMBER=%tracknr%" -T "GENRE=%genre%" -T "COMMENT=%comment%" -T "BAND=%albuminterpret%" -T "ALBUMARTIST=%albuminterpret%" -T "COMPOSER=%composer%" %haslyrics%--tag-from-file=LYRICS="%lyricsfile%"%haslyrics% -T "DISCNUMBER=%cdnumber%" -T "TOTALDISCS=%totalcds%" -T "TOTALTRACKS=%numtracks%" %hascover%--picture="%coverfile%"%hascover% %source% -o %dest%
TOC of the extracted CD
Track | Start | Length | Start sector | End sector --------------------------------------------------------- 1 | 0:00.32 | 6:19.38 | 32 | 28494 2 | 6:19.70 | 3:02.32 | 28495 | 42176 3 | 9:22.27 | 4:54.50 | 42177 | 64276 4 | 14:17.02 | 5:25.63 | 64277 | 88714 5 | 19:42.65 | 3:59.50 | 88715 | 106689 6 | 23:42.40 | 2:42.00 | 106690 | 118839 7 | 26:24.40 | 4:58.35 | 118840 | 141224 8 | 31:23.00 | 5:44.07 | 141225 | 167031 9 | 37:07.07 | 8:29.63 | 167032 | 205269
Range status and errors
Selected range
Filename I:\Foobar-EAC\John Gay - The beggar's opera- Original songs & airs, Barlow 1982.wav
Peak level 83.7 % Extraction speed 4.3 X Range quality 100.0 % Test CRC 38477C2B Copy CRC 38477C2B Copy OK
No errors occurred
AccurateRip summary
Track 1 accurately ripped (confidence 6) [65131B1E] (AR v2)Track 2 accurately ripped (confidence 6) [CCA2D687] (AR v2)Track 3 accurately ripped (confidence 6) [5E95A08D] (AR v2)Track 4 accurately ripped (confidence 6) [DB4ABE51] (AR v2)Track 5 accurately ripped (confidence 6) [E1DA01E2] (AR v2)Track 6 accurately ripped (confidence 6) [2B5ECD4F] (AR v2)Track 7 accurately ripped (confidence 6) [BDDB46EF] (AR v2)Track 8 accurately ripped (confidence 6) [43CFA0F3] (AR v2)Track 9 accurately ripped (confidence 6) [F54778C7] (AR v2)
All tracks accurately ripped
End of status report
---- CUETools DB Plugin V2.1.3
[CTDB TOCID: fc5gKG5e1Oth1k3hQcI5JP8NJZg-] disk not present in database, Submit result: database access error: ExpectationFailed
==== Log checksum 68796E4CBFB54939566FA4733D74D9BB663FF78012743B6349543EA370310CFD ====

Содержание индексной карты (.CUE)

REM GENRE OperaREM DATE 1982REM DISCID 850AB009REM COMMENT "ExactAudioCopy v1.0b3"CATALOG 0000000000000PERFORMER "John Gay"TITLE "The beggar's opera: Original songs & airs, Barlow 1982"FILE "John Gay - The beggar's opera- Original songs & airs, Barlow 1982.ape" WAVE TRACK 01 AUDIO TITLE "Cold and raw (Air III)" PERFORMER "John Gay" ISRC FRZ148102010 INDEX 00 00:00:00 INDEX 01 00:00:32 TRACK 02 AUDIO TITLE "Over the hills and far away (Air XVI)" PERFORMER "John Gay" ISRC FRZ148102020 INDEX 00 06:15:30 INDEX 01 06:19:70 TRACK 03 AUDIO TITLE "Oh, the broom (Air XVIII)" PERFORMER "John Gay" ISRC FRZ148102030 INDEX 00 09:15:62 INDEX 01 09:22:27 TRACK 04 AUDIO TITLE "Would you have a young virgin (Air XXI)" PERFORMER "John Gay" ISRC FRZ148102040 INDEX 00 14:13:07 INDEX 01 14:17:02 TRACK 05 AUDIO TITLE "What shall I do to show how much I love her (Air VI)" PERFORMER "John Gay" ISRC FRZ148102050 INDEX 00 19:39:20 INDEX 01 19:42:65 TRACK 06 AUDIO TITLE "Fill ev'ry glass (Air XIX)" PERFORMER "John Gay" ISRC FRZ148102060 INDEX 00 23:39:30 INDEX 01 23:42:40 TRACK 07 AUDIO TITLE "Charming Billy (Air XXXVII)" PERFORMER "John Gay" ISRC FRZ148102070 INDEX 00 26:21:32 INDEX 01 26:24:40 TRACK 08 AUDIO TITLE "The lass of Patie's mill (Air XL)" PERFORMER "John Gay" ISRC FRZ148102080 INDEX 00 31:19:62 INDEX 01 31:23:00 TRACK 09 AUDIO TITLE "Greensleeves (Air LXVII)" PERFORMER "John Gay" ISRC FRZ148102090 INDEX 00 36:55:60 INDEX 01 37:07:07
Доп. информация:
The Beggar's Opera is a ballad opera in three acts written in 1728 by John Gay with music arranged by Johann Christoph Pepusch.
It is one of the watershed plays in Augustan drama and is the only example of the once thriving genre of satirical ballad opera to remain popular today.
Ballad operas were satiric musical plays that used some of the conventions of opera, but without recitative.
The lyrics of the airs in the piece are set to popular broadsheet ballads, opera arias, church hymns and folk tunes of the time.
The Beggar's Opera premiered at the Lincoln's Inn Fields Theatre on 29 January 1728 and ran for 62 consecutive performances, the longest run in theatre history up to that time (after 146 performances of Rober Cambert's "Pomone" in 1671).
The work became Gay's greatest success and has been played ever since.
In 1920, The Beggar's Opera began an astonishing revival run of 1,463 performances at the Lyric Theatre in Hammersmith, London, which was one of the longest runs in history for any piece of musical theatre at that time.
The piece satirised Italian opera, which had become popular in London.
According to The New York Times: "Gay wrote the work more as an anti-opera than an opera, one of its attractions to its 18th-century London public being its lampooning of the Italian opera style and the English public's fascination with it.
Instead of the grand music and themes of opera, the work uses familiar tunes and characters that were ordinary people.
Some of the songs were by opera composers like Handel, but only the most popular of these were used.
The audience could hum along with the music and identify with the characters.
The story satirised politics, poverty and injustice, focusing on the theme of corruption at all levels of society.
Lavinia Fenton, the first Polly Peachum, became an overnight success.
Her pictures were in great demand, verses were written to her and books published about her.
After appearing in several comedies, and then in numerous repetitions of The Beggars Opera, she ran away with her married lover, Charles Powlett, 3rd Duke of Bolton.

Display posts:    

Current time is: 27-Oct 09:57

All times are UTC + 3

You cannot post new topics in this forum
You cannot reply to topics in this forum
You cannot edit your posts in this forum
You cannot delete your posts in this forum
You cannot vote in polls in this forum
You cannot attach files in this forum
You cannot download files in this forum