(Opera, Vocal) Luciano Pavarotti: New-York Recital - 1973 (Chamber version of Tenor Operatic Arias by Verdi, Puccini, Giordano and Italian Canzoni by Tosti, Rossini, Donizetti, Bellini, Respighi) - 1994, FLAC (tracks+.cue), lossless


 

[Цитировать]

Luciano Pavarotti: New-York Recital - 1973 (Chamber version of Tenor Operatic Arias by Verdi, Puccini, Giordano and Italian Canzoni by Tosti, Rossini, Donizetti, Bellini, Respighi)
Жанр: Opera, Vocal
Страна-производитель диска: США
Год издания диска: 1994
Издатель (лейбл): SRO (Standing Room Only)
Дата записи: 1973
Аудиокодек: FLAC
Тип рипа: tracks+.cue
Битрейт аудио: lossless
Продолжительность: 70:14
Источник: релизер (Guillermo)
Исполнители:
Luciano Pavarotti, tenor.
Фамилия концертмейстера не указана.
Recorded live on October 28, 1973 at New-York City.

Лог создания рипа

Exact Audio Copy V1.0 beta 3 from 29. August 2011
EAC extraction logfile from 8. August 2015, 14:03
PAVAROTTI / PAVAROTTI--RECITAL--NY 1973
Used drive : HL-DT-STDVDRAM GH24NSC0 Adapter: 3 ID: 0
Read mode : SecureUtilize accurate stream : YesDefeat audio cache : YesMake use of C2 pointers : No
Read offset correction : 6Overread into Lead-In and Lead-Out : NoFill up missing offset samples with silence : YesDelete leading and trailing silent blocks : NoNull samples used in CRC calculations : YesUsed interface : Native Win32 interface for Win NT & 2000Gap handling : Appended to previous track
Used output format : User Defined EncoderSelected bitrate : 768 kBit/sQuality : HighAdd ID3 tag : NoCommand line compressor : C:\Program Files (x86)\Exact Audio Copy\FLAC\FLAC.EXEAdditional command line options : -8 -V -T "ARTIST=%artist%" -T "TITLE=%title%" -T "ALBUM=%albumtitle%" -T "DATE=%year%" -T "TRACKNUMBER=%tracknr%" -T "GENRE=%genre%" -T "PERFORMER=%albuminterpret%" -T "COMPOSER=%composer%" %haslyrics%--tag-from-file=LYRICS="%lyricsfile%"%haslyrics% -T "ALBUMARTIST=%albumartist%" -T "DISCNUMBER=%cdnumber%" -T "TOTALDISCS=%totalcds%" -T "TOTALTRACKS=%numtracks%" -T "COMMENT=%comment%" %source% -o %dest%
TOC of the extracted CD
Track | Start | Length | Start sector | End sector --------------------------------------------------------- 1 | 0:00.12 | 3:43.50 | 12 | 16786 2 | 3:43.62 | 3:09.45 | 16787 | 31006 3 | 6:53.32 | 2:25.48 | 31007 | 41929 4 | 9:19.05 | 3:32.70 | 41930 | 57899 5 | 12:52.00 | 1:56.10 | 57900 | 66609 6 | 14:48.10 | 2:44.40 | 66610 | 78949 7 | 17:32.50 | 2:54.27 | 78950 | 92026 8 | 20:27.02 | 2:16.43 | 92027 | 102269 9 | 22:43.45 | 6:14.12 | 102270 | 130331 10 | 28:57.57 | 2:31.38 | 130332 | 141694 11 | 31:29.20 | 2:27.65 | 141695 | 152784 12 | 33:57.10 | 2:59.42 | 152785 | 166251 13 | 36:56.52 | 5:51.38 | 166252 | 192614 14 | 42:48.15 | 3:37.52 | 192615 | 208941 15 | 46:25.67 | 5:34.13 | 208942 | 234004 16 | 52:00.05 | 2:34.52 | 234005 | 245606 17 | 54:34.57 | 2:55.48 | 245607 | 258779 18 | 57:30.30 | 3:22.00 | 258780 | 273929 19 | 60:52.30 | 3:17.60 | 273930 | 288764 20 | 64:10.15 | 2:41.72 | 288765 | 300911 21 | 66:52.12 | 2:12.53 | 300912 | 310864 22 | 69:04.65 | 1:46.10 | 310865 | 318824
Track 1
Filename f:\Users\Guillermo\Desktop\EAC convertidos\01 Bononcini--Griselda--Per la gloria d'adoravi.wav
Pre-gap length 0:00:02.16
Peak level 65.7 % Extraction speed 1.4 X Track quality 99.9 % Test CRC 6D2D1FEE Copy CRC 6D2D1FEE Copy OK
Track 2
Filename f:\Users\Guillermo\Desktop\EAC convertidos\02 Pergolesi--Tre giorni son che Nina.wav
Peak level 61.4 % Extraction speed 1.4 X Track quality 99.8 % Test CRC 82983143 Copy CRC 82983143 Copy OK
Track 3
Filename f:\Users\Guillermo\Desktop\EAC convertidos\03 SCARLATTI--L'honesta neglia amore--Gia il sole dal gange.wav
Peak level 62.4 % Extraction speed 1.3 X Track quality 99.8 % Test CRC B110BFFB Copy CRC B110BFFB Copy OK
Track 4
Filename f:\Users\Guillermo\Desktop\EAC convertidos\04 BELLINI--Dolente immagine di Fille mia.wav
Peak level 63.3 % Extraction speed 2.0 X Track quality 100.0 % Test CRC 7C25C63C Copy CRC 7C25C63C Copy OK
Track 5
Filename f:\Users\Guillermo\Desktop\EAC convertidos\05 Malinconia, nina gentile.wav
Peak level 68.5 % Extraction speed 1.7 X Track quality 100.0 % Test CRC E57C4CA9 Copy CRC E57C4CA9 Copy OK
Track 6
Filename f:\Users\Guillermo\Desktop\EAC convertidos\06 Vanne, o rosa fortunata.wav
Peak level 65.0 % Extraction speed 2.0 X Track quality 100.0 % Test CRC 6F0BC62E Copy CRC 6F0BC62E Copy OK
Track 7
Filename f:\Users\Guillermo\Desktop\EAC convertidos\07 Bella nice, che d'amore.wav
Peak level 72.2 % Extraction speed 2.1 X Track quality 100.0 % Test CRC 9CEBCB8D Copy CRC 9CEBCB8D Copy OK
Track 8
Filename f:\Users\Guillermo\Desktop\EAC convertidos\08 Ma rendi pur contento.wav
Peak level 65.6 % Extraction speed 2.0 X Track quality 100.0 % Test CRC 27B6CF70 Copy CRC 27B6CF70 Copy OK
Track 9
Filename f:\Users\Guillermo\Desktop\EAC convertidos\09 VERDI--La Traviata--Dei miei bollenti spiriti.wav
Peak level 68.1 % Extraction speed 2.7 X Track quality 100.0 % Test CRC D5BB5587 Copy CRC D5BB5587 Copy OK
Track 10
Filename f:\Users\Guillermo\Desktop\EAC convertidos\10 RESPIGHI--Nevicata.wav
Peak level 64.4 % Extraction speed 2.3 X Track quality 100.0 % Test CRC 474C2FEC Copy CRC 474C2FEC Copy OK
Track 11
Filename f:\Users\Guillermo\Desktop\EAC convertidos\11 Pioggia.wav
Peak level 62.1 % Extraction speed 1.8 X Track quality 99.8 % Test CRC 3BDE432C Copy CRC 3BDE432C Copy OK
Track 12
Filename f:\Users\Guillermo\Desktop\EAC convertidos\12 Nebbie.wav
Peak level 65.4 % Extraction speed 2.5 X Track quality 100.0 % Test CRC 286D7FA6 Copy CRC 286D7FA6 Copy OK
Track 13
Filename f:\Users\Guillermo\Desktop\EAC convertidos\13 VERDI--I Lombardi--La mia letiitzia infondere...Come poteva un angelo.wav
Peak level 63.9 % Extraction speed 3.0 X Track quality 100.0 % Test CRC 17668863 Copy CRC 17668863 Copy OK
Track 14
Filename f:\Users\Guillermo\Desktop\EAC convertidos\14 TOSTI--La serenata.wav
Pre-gap length 0:00:05.02
Peak level 65.6 % Extraction speed 2.9 X Track quality 100.0 % Test CRC 0EF7D0C3 Copy CRC 0EF7D0C3 Copy OK
Track 15
Filename f:\Users\Guillermo\Desktop\EAC convertidos\15 Non t'am piu.wav
Peak level 66.9 % Extraction speed 3.2 X Track quality 100.0 % Test CRC DA572DCC Copy CRC DA572DCC Copy OK
Track 16
Filename f:\Users\Guillermo\Desktop\EAC convertidos\16 Luna d'estate.wav
Peak level 66.9 % Extraction speed 2.8 X Track quality 100.0 % Test CRC 7157155E Copy CRC 7157155E Copy OK
Track 17
Filename f:\Users\Guillermo\Desktop\EAC convertidos\17 Malia.wav
Peak level 66.1 % Extraction speed 3.0 X Track quality 100.0 % Test CRC 6F81BFA7 Copy CRC 6F81BFA7 Copy OK
Track 18
Filename f:\Users\Guillermo\Desktop\EAC convertidos\18 ENCORES--ROSSINI--La danza.wav
Peak level 68.6 % Extraction speed 3.2 X Track quality 100.0 % Test CRC EAED6F40 Copy CRC EAED6F40 Copy OK
Track 19
Filename f:\Users\Guillermo\Desktop\EAC convertidos\19 TOSTI--Torna a Sorriento.wav
Peak level 57.2 % Extraction speed 3.2 X Track quality 100.0 % Test CRC 4CAA3954 Copy CRC 4CAA3954 Copy OK
Track 20
Filename f:\Users\Guillermo\Desktop\EAC convertidos\20 VERDI--Rigoletto--La donna e mobile.wav
Peak level 65.0 % Extraction speed 3.1 X Track quality 100.0 % Test CRC 951AC8E5 Copy CRC 951AC8E5 Copy OK
Track 21
Filename f:\Users\Guillermo\Desktop\EAC convertidos\21 PUCCINI--La Fanciulla del West--Ch'ella mi creda.wav
Peak level 66.1 % Extraction speed 3.0 X Track quality 100.0 % Test CRC 2EC1C161 Copy CRC 2EC1C161 Copy OK
Track 22
Filename f:\Users\Guillermo\Desktop\EAC convertidos\22 GIORADNO--Fedora--Amor ti vieta.wav
Peak level 71.3 % Extraction speed 2.0 X Track quality 99.8 % Test CRC 00AFE7BA Copy CRC 00AFE7BA Copy OK
No errors occurred
End of status report
==== Log checksum 564422220FFA48C50EADA942B86ED494E9F48034508678079D4CBBEE47B50C42 ====

Содержание индексной карты (.CUE)

REM GENRE VocalREM DATE 1973REM DISCID 38109B16REM COMMENT "ExactAudioCopy v1.0b3"FILE "01 Bononcini--Griselda--Per la gloria d'adoravi.wav" WAVE TRACK 01 AUDIO PREGAP 00:00:12 INDEX 01 00:00:00FILE "02 Pergolesi--Tre giorni son che Nina.wav" WAVE TRACK 02 AUDIO INDEX 01 00:00:00FILE "03 SCARLATTI--L'honesta neglia amore--Gia il sole dal gange.wav" WAVE TRACK 03 AUDIO INDEX 01 00:00:00FILE "04 BELLINI--Dolente immagine di Fille mia.wav" WAVE TRACK 04 AUDIO INDEX 01 00:00:00FILE "05 Malinconia, nina gentile.wav" WAVE TRACK 05 AUDIO INDEX 01 00:00:00FILE "06 Vanne, o rosa fortunata.wav" WAVE TRACK 06 AUDIO INDEX 01 00:00:00FILE "07 Bella nice, che d'amore.wav" WAVE TRACK 07 AUDIO INDEX 01 00:00:00FILE "08 Ma rendi pur contento.wav" WAVE TRACK 08 AUDIO INDEX 01 00:00:00FILE "09 VERDI--La Traviata--Dei miei bollenti spiriti.wav" WAVE TRACK 09 AUDIO INDEX 01 00:00:00FILE "10 RESPIGHI--Nevicata.wav" WAVE TRACK 10 AUDIO INDEX 01 00:00:00FILE "11 Pioggia.wav" WAVE TRACK 11 AUDIO INDEX 01 00:00:00FILE "12 Nebbie.wav" WAVE TRACK 12 AUDIO INDEX 01 00:00:00FILE "13 VERDI--I Lombardi--La mia letiitzia infondere...Come poteva un angelo.wav" WAVE TRACK 13 AUDIO INDEX 01 00:00:00 TRACK 14 AUDIO INDEX 00 05:46:36FILE "14 TOSTI--La serenata.wav" WAVE INDEX 01 00:00:00FILE "15 Non t'am piu.wav" WAVE TRACK 15 AUDIO INDEX 01 00:00:00FILE "16 Luna d'estate.wav" WAVE TRACK 16 AUDIO INDEX 01 00:00:00FILE "17 Malia.wav" WAVE TRACK 17 AUDIO INDEX 01 00:00:00FILE "18 ENCORES--ROSSINI--La danza.wav" WAVE TRACK 18 AUDIO INDEX 01 00:00:00FILE "19 TOSTI--Torna a Sorriento.wav" WAVE TRACK 19 AUDIO INDEX 01 00:00:00FILE "20 VERDI--Rigoletto--La donna e mobile.wav" WAVE TRACK 20 AUDIO INDEX 01 00:00:00FILE "21 PUCCINI--La Fanciulla del West--Ch'ella mi creda.wav" WAVE TRACK 21 AUDIO INDEX 01 00:00:00FILE "22 GIORADNO--Fedora--Amor ti vieta.wav" WAVE TRACK 22 AUDIO INDEX 01 00:00:00

Треклист

Bononcini - Griselda:
1. Per La Gloria D'Adoravi
2. Tre Giorni Son Che Nina
3. Scarlatti - L'Honesta Neglia Amore: Gia Sole Dal Gange
Donizetti - Five Songs:
4. Dolente Immagine Di Fille Mia
5. Malinconia, Ninfa Gentile
6. Vanne, O Rosa Fortunata
7. Bella Nice, Che D'Amore
8. Ma Rendi Pur Contento
9. Verdi - La Traviata: Dei Miei Bollenti Spiriti...O Mio Rimorso
Respighi - Three Songs:
10. Nevicata
11. Pioggia
12. Nebbie
13. Verdi - I Lombardi: La Mia Letizia Infondere...Come Poteva Un Angelo
Tosti - Four Songs:
14. La Serenata
15. Non T'Amo Piu
16. Luna D'Estate
17. Malia
Encores:
18. Rossini - La Danza
19. Tosti - Torna A Surriento
20. Verdi - Rigoletto: La Donna E Mobile
21. Puccini - La Fanciulla Del West: Ch'Ella Mi Creda
22. Giordano - Fedora: Amor Ti Vieta



Показать сообщения:    

Текущее время: 04-Дек 04:58

Часовой пояс: UTC + 3


Вы не можете начинать темы
Вы не можете отвечать на сообщения
Вы не можете редактировать свои сообщения
Вы не можете удалять свои сообщения
Вы не можете голосовать в опросах
Вы не можете прикреплять файлы к сообщениям
Вы не можете скачивать файлы