(Classical) Leonardo Vinci - Catone In Utica (Max Emanuel Cencic, Franco Fagioli, Juan Sancho, Valer Sabadus, Vince Yi, Martin Mitterrutzner, Il Pomo d\'Oro & Riccardo Minasi) - 2015, FLAC (image+.cue) lossless


 

[Цитировать]

Leonardo Vinci: Catone In Utica (Max Emanuel Cencic, Franco Fagioli, Juan Sancho, Valer Sabadus, Vince Yi, Martin Mitterrutzner, Il Pomo d'Oro & Riccardo Minasi)
Жанр: Classical
Год издания диска: 2015
Издатель (лейбл): DECCA
Номер по каталогу: 4788194
Год записи: 2015
Аудиокодек: FLAC
Тип рипа: image+.cue
Битрейт аудио: lossless
Продолжительность: CD1'01:18:45; CD2'01:16:16; CD3'01:18:23
Источник: собственный рип
Наличие сканов в содержимом раздачи: да
Исполнители:
Catone - Juan Sancho
Cesare - Franco Fagioli
Marzia - Valer Sabadus
Arbace - Max Emanuel Cencic
Emilia - Vince Yi
Fulvio - Martin Mitterrutzner
Il Pomo d'Oro
Riccardo Minasi

Треклист:

CD1
01. Sinfonia I (01:25)
02. Sinfonia II (00:54)
03. Sinfonia III (01:07)
04. Atto I. Perche si mesto o padre? (06:34)
05. Con si bel nome in fronte (04:53)
06. Poveri affetti miei (02:28)
07. Non ti minaccio sdegno (03:27)
08. Che giurai! Che promisi! (00:26)
09. Che legge spietata! (03:46)
10. Dunque Cesare venga (07:18)
11. Io conquest'occhi (02:27)
12. Si sgomenti alle sue pene (03:19)
13. Tu taci Emilia? (00:39)
14. Nell'ardire che il seno t'accende (06:00)
15. Quanto da te diverso (02:11)
16. Piangendo ancora rincecer suole (04:40)
17. Se gli altrui folli amori (00:40)
18. O nel sen di qualche stella (04:22)
19. Giunse dunque a tentarti (01:36)
20. Pur ti reveggo, o Marzia (06:10)
21. Chi un dolceamor condanna (06:04)
22. Mie perdute speranze (04:36)
23. E in ogni core diverso amore (03:43)
CD2
01. Se manca Arbace (01:45)
02. Un certo non so che (03:55)
03. Ah troppo dissi (00:17)
04. E folia se nascondete (04:26)
05. Romani, il vostro duce (07:47)
06. Va', ritorna al tuo tiranno (04:10)
07. A tanto eccesso arriva l'orgoglio di Catone? (02:00)
08. So, che pieta non ha (04:15)
09. E qual sorte e la mia! (04:29)
10. Soffre talor del vento (06:24)
11. Lode agli dei La fuggitiva speme (01:29)
12. In che t'offende (06:53)
13. Tu vedi o bella (01:17)
14. Per te spero (04:12)
15. Oh dei, tutta se stessa (00:37)
16. Nascesti alle pene (06:49)
17. Si vuole ad onta mi ache Cesare s'ascolti? (10:01)
18. Se in campo armato (05:30)
CD3
01. Ah! signor, che facesti? (05:28)
02. Dovea svenarti allora (03:01)
03. Sarete paghi alfin (00:36)
04. So che godendo vai (04:39)
05. Udisti, Arbace? Il credo appena (00:45)
06. Se sciogliere non vuoi dalle catene il cor (04:32)
07. L'ingiustizia, il disprezzo (00:49)
08. Che sia la gelosia (06:59)
09. Atto III. Tutto, amico, ho tentato (02:26)
10. La fronda che circonda (04:23)
11. Quanti aspetti la sorte cangia in un giorno! (02:34)
12. Confusa, smarrita, spiegarti vorrei (03:12)
13. Qual'insoliti moti (03:36)
14. Combattuta da tante vicende (02:47)
15. Del rivale all'aita (00:41)
16. Quell'amor che poco accende (08:55)
17. Pur veggo alfine un raggio (02:36)
18. E questo, amici, il luogo (06:27)
19. Deh! in vita ti serba (05:19)
20. Dove mai l'idol mio, dove mai si celo? (08:38)

Log EAC:LOG CD01:

Exact Audio Copy V1.0 beta 3 from 29. August 2011
EAC extraction logfile from 6. August 2015, 12:17
Riccardo Minasi, Il Pomo d'Oro / Vinci - Catone in Utica CD1
Used drive : HL-DT-STDVDRAM GH24NS95 Adapter: 0 ID: 0
Read mode : SecureUtilize accurate stream : YesDefeat audio cache : YesMake use of C2 pointers : No
Read offset correction : 6Overread into Lead-In and Lead-Out : NoFill up missing offset samples with silence : YesDelete leading and trailing silent blocks : NoNull samples used in CRC calculations : YesUsed interface : Native Win32 interface for Win NT & 2000
Used output format : User Defined EncoderSelected bitrate : 128 kBit/sQuality : HighAdd ID3 tag : NoCommand line compressor : C:\Program Files\Exact Audio Copy\Flac\flac.exeAdditional command line options : -V -8 -T "Date=%year%" -T "Genre=%genre%" %source%
TOC of the extracted CD
Track | Start | Length | Start sector | End sector --------------------------------------------------------- 1 | 0:00.00 | 1:25.25 | 0 | 6399 2 | 1:25.25 | 0:54.33 | 6400 | 10482 3 | 2:19.58 | 1:07.19 | 10483 | 15526 4 | 3:27.02 | 6:34.11 | 15527 | 45087 5 | 10:01.13 | 4:53.55 | 45088 | 67117 6 | 14:54.68 | 2:28.51 | 67118 | 78268 7 | 17:23.44 | 3:27.20 | 78269 | 93813 8 | 20:50.64 | 0:26.32 | 93814 | 95795 9 | 21:17.21 | 3:46.65 | 95796 | 112810 10 | 25:04.11 | 7:18.38 | 112811 | 145698 11 | 32:22.49 | 2:27.10 | 145699 | 156733 12 | 34:49.59 | 3:19.65 | 156734 | 171723 13 | 38:09.49 | 0:39.00 | 171724 | 174648 14 | 38:48.49 | 6:00.59 | 174649 | 201707 15 | 44:49.33 | 2:11.71 | 201708 | 211603 16 | 47:01.29 | 4:40.17 | 211604 | 232620 17 | 51:41.46 | 0:40.47 | 232621 | 235667 18 | 52:22.18 | 4:22.42 | 235668 | 255359 19 | 56:44.60 | 1:36.44 | 255360 | 262603 20 | 58:21.29 | 6:10.11 | 262604 | 290364 21 | 64:31.40 | 6:04.57 | 290365 | 317721 22 | 70:36.22 | 4:36.72 | 317722 | 338493 23 | 75:13.19 | 3:44.03 | 338494 | 355296
Range status and errors
Selected range
Filename C:\Program Files\Exact Audio Copy\Flac\Vinci - Catone in Utica CD1.wav
Peak level 98.9 % Extraction speed 8.5 X Range quality 99.9 % Test CRC FC1DA397 Copy CRC FC1DA397 Copy OK
No errors occurred
End of status report
==== Log checksum AF1C2248EA1A0FE2B926EB2DF3828861317E7A1C86A2970FC6D5B0ABFA472370 ====

LOG CD02:

Exact Audio Copy V1.0 beta 3 from 29. August 2011
EAC extraction logfile from 6. August 2015, 12:44
Riccardo Minasi, Il Pomo d'Oro / Vinci - Catone in Utica CD2
Used drive : HL-DT-STDVDRAM GH24NS95 Adapter: 0 ID: 0
Read mode : SecureUtilize accurate stream : YesDefeat audio cache : YesMake use of C2 pointers : No
Read offset correction : 6Overread into Lead-In and Lead-Out : NoFill up missing offset samples with silence : YesDelete leading and trailing silent blocks : NoNull samples used in CRC calculations : YesUsed interface : Native Win32 interface for Win NT & 2000
Used output format : User Defined EncoderSelected bitrate : 128 kBit/sQuality : HighAdd ID3 tag : NoCommand line compressor : C:\Program Files\Exact Audio Copy\Flac\flac.exeAdditional command line options : -V -8 -T "Date=%year%" -T "Genre=%genre%" %source%
TOC of the extracted CD
Track | Start | Length | Start sector | End sector --------------------------------------------------------- 1 | 0:00.00 | 1:45.20 | 0 | 7894 2 | 1:45.20 | 3:55.45 | 7895 | 25564 3 | 5:40.65 | 0:17.16 | 25565 | 26855 4 | 5:58.06 | 4:26.61 | 26856 | 46866 5 | 10:24.67 | 7:47.65 | 46867 | 81956 6 | 18:12.57 | 4:10.61 | 81957 | 100767 7 | 22:23.43 | 2:00.43 | 100768 | 109810 8 | 24:24.11 | 4:15.09 | 109811 | 128944 9 | 28:39.20 | 4:29.02 | 128945 | 149121 10 | 33:08.22 | 6:24.63 | 149122 | 177984 11 | 39:33.10 | 1:29.33 | 177985 | 184692 12 | 41:02.43 | 6:53.01 | 184693 | 215668 13 | 47:55.44 | 1:17.17 | 215669 | 221460 14 | 49:12.61 | 4:12.52 | 221461 | 240412 15 | 53:25.38 | 0:37.66 | 240413 | 243253 16 | 54:03.29 | 6:49.61 | 243254 | 273989 17 | 60:53.15 | 10:01.10 | 273990 | 319074 18 | 70:54.25 | 5:30.59 | 319075 | 343883
Range status and errors
Selected range
Filename C:\Program Files\Exact Audio Copy\Flac\Vinci - Catone in Utica CD2.wav
Peak level 99.0 % Extraction speed 8.4 X Range quality 100.0 % Test CRC E42265D8 Copy CRC E42265D8 Copy OK
No errors occurred
End of status report
==== Log checksum F0B25BE6FD9D84206EB446BD09B55558F6469C62792BB7F78EBD01EEECB584D7 ====

LOG CD03:

Exact Audio Copy V1.0 beta 3 from 29. August 2011
EAC extraction logfile from 6. August 2015, 13:13
Riccardo Minasi, Il Pomo d'Oro / Vinci - Catone in Utica CD3
Used drive : HL-DT-STDVDRAM GH24NS95 Adapter: 0 ID: 0
Read mode : SecureUtilize accurate stream : YesDefeat audio cache : YesMake use of C2 pointers : No
Read offset correction : 6Overread into Lead-In and Lead-Out : NoFill up missing offset samples with silence : YesDelete leading and trailing silent blocks : NoNull samples used in CRC calculations : YesUsed interface : Native Win32 interface for Win NT & 2000
Used output format : User Defined EncoderSelected bitrate : 128 kBit/sQuality : HighAdd ID3 tag : NoCommand line compressor : C:\Program Files\Exact Audio Copy\Flac\flac.exeAdditional command line options : -V -8 -T "Date=%year%" -T "Genre=%genre%" %source%
TOC of the extracted CD
Track | Start | Length | Start sector | End sector --------------------------------------------------------- 1 | 0:00.00 | 5:28.14 | 0 | 24613 2 | 5:28.14 | 3:01.41 | 24614 | 38229 3 | 8:29.55 | 0:36.74 | 38230 | 41003 4 | 9:06.54 | 4:39.22 | 41004 | 61950 5 | 13:46.01 | 0:45.69 | 61951 | 65394 6 | 14:31.70 | 4:32.45 | 65395 | 85839 7 | 19:04.40 | 0:49.37 | 85840 | 89551 8 | 19:54.02 | 6:59.38 | 89552 | 121014 9 | 26:53.40 | 2:26.53 | 121015 | 132017 10 | 29:20.18 | 4:23.37 | 132018 | 151779 11 | 33:43.55 | 2:34.63 | 151780 | 163392 12 | 36:18.43 | 3:12.59 | 163393 | 177851 13 | 39:31.27 | 3:36.13 | 177852 | 194064 14 | 43:07.40 | 2:47.21 | 194065 | 206610 15 | 45:54.61 | 0:41.67 | 206611 | 209752 16 | 46:36.53 | 8:55.57 | 209753 | 249934 17 | 55:32.35 | 2:36.15 | 249935 | 261649 18 | 58:08.50 | 6:27.49 | 261650 | 290723 19 | 64:36.24 | 5:19.08 | 290724 | 314656 20 | 69:55.32 | 8:38.33 | 314657 | 353539
Range status and errors
Selected range
Filename C:\Program Files\Exact Audio Copy\Flac\Vinci - Catone in Utica CD3.wav
Peak level 99.7 % Extraction speed 8.5 X Range quality 100.0 % Test CRC 311073B6 Copy CRC 311073B6 Copy OK
No errors occurred
End of status report
==== Log checksum 5ED35A32EAC2738AF12B028321B35A5437A25014EB78ADCAF8A217B3833BB0BE ====



Показать сообщения:    

Текущее время: 10-Дек 00:23

Часовой пояс: UTC + 3


Вы не можете начинать темы
Вы не можете отвечать на сообщения
Вы не можете редактировать свои сообщения
Вы не можете удалять свои сообщения
Вы не можете голосовать в опросах
Вы не можете прикреплять файлы к сообщениям
Вы не можете скачивать файлы