(Classical) Сергей Прокофьев - Любовь к трем апельсинам - Рыбинский, Махов, Рашковец, Добрин, Ельников, Полякова; Солисты, хор и симфонический оркестр Всесоюзного радио, Джемал Далгат - 2011, FLAC (image+.cue) lossless


 

[Цитировать]

Сергей Прокофьев - Любовь к трем апельсинам - Рыбинский, Махов, Рашковец, Добрин, Ельников, Полякова; Солисты, хор и симфонический оркестр Всесоюзного радио, Джемал Далгат
Жанр: Classical
Страна-производитель диска: Россия
Год издания диска: 2011
Издатель (лейбл): Мелодия
Номер по каталогу: MEL CD 10 01944
Дата записи: 1961
Аудиокодек: FLAC
Тип рипа: image+.cue
Битрейт аудио: lossless
Продолжительность: 104:24
Источник: собственный рип
Наличие сканов в содержимом раздачи: да
Треклист:
Сергей Прокофьев (1891-1953)
Любовь к трем апельсинам (1919)
CD1
[1] Пролог
[2]-[6] Действие 1
[7]-[13] Действие 2
CD2
[1]-[9] Действие 3
[10]-[12] Действие 4
Исполнители:
Король Треф Виктор Рыбинский бас
Принц, его сын Владимир Махов тенор
Принцесса Клариче, племянница короля Лючия Рашковец контральто
Леандр, первый министр Борис Добрин баритон
Труффальдино Юрий Ельников тенор
Панталоне Иван Будрин баритон
Маг Челий Геннадий Троицкий бас
Фата Моргана Нина Полякова сопрано
Солисты, хор и симфонический оркестр Всесоюзного радио
Джемал Далгат

Лог создания рипа: CD1

Exact Audio Copy V1.0 beta 3 from 29. August 2011
EAC extraction logfile from 8. December 2014, 1:36
Soloists, Choir and SO of the All-Union Radio, Dzhemal Dalgat / Prokofiev - The Love for Three Oranges - CD1
Used drive : HL-DT-STDVDRAM GU70N Adapter: 0 ID: 0
Read mode : SecureUtilize accurate stream : YesDefeat audio cache : YesMake use of C2 pointers : No
Read offset correction : 48Overread into Lead-In and Lead-Out : NoFill up missing offset samples with silence : YesDelete leading and trailing silent blocks : NoNull samples used in CRC calculations : YesUsed interface : Native Win32 interface for Win NT & 2000
Used output format : User Defined EncoderSelected bitrate : 128 kBit/sQuality : HighAdd ID3 tag : NoCommand line compressor : C:\Program Files (x86)\Exact Audio Copy\Flac\flac.exeAdditional command line options : -V -8 -T "Date=%year%" -T "Genre=%genre%" %source%
TOC of the extracted CD
Track | Start | Length | Start sector | End sector --------------------------------------------------------- 1 | 0:00.00 | 4:17.60 | 0 | 19334 2 | 4:17.60 | 5:46.60 | 19335 | 45344 3 | 10:04.45 | 3:51.02 | 45345 | 62671 4 | 13:55.47 | 3:39.38 | 62672 | 79134 5 | 17:35.10 | 3:40.39 | 79135 | 95673 6 | 21:15.49 | 7:08.09 | 95674 | 127782 7 | 28:23.58 | 6:47.35 | 127783 | 158342 8 | 35:11.18 | 2:48.53 | 158343 | 170995 9 | 37:59.71 | 2:55.19 | 170996 | 184139 10 | 40:55.15 | 1:48.22 | 184140 | 192261 11 | 42:43.37 | 3:01.53 | 192262 | 205889 12 | 45:45.15 | 2:59.44 | 205890 | 219358 13 | 48:44.59 | 2:50.21 | 219359 | 232129
Range status and errors
Selected range
Filename C:\temp\Prokofiev - The Love for Three Oranges\CD1\Prokofiev - The Love for Three Oranges - CD1.wav
Peak level 96.8 % Extraction speed 2.0 X Range quality 100.0 % Test CRC 487D8240 Copy CRC 487D8240 Copy OK
No errors occurred
AccurateRip summary
Track 1 accurately ripped (confidence 1) [C37146A9] (AR v1)Track 2 accurately ripped (confidence 1) [82EFC519] (AR v1)Track 3 accurately ripped (confidence 1) [89D22FD0] (AR v1)Track 4 accurately ripped (confidence 1) [C8689A82] (AR v1)Track 5 accurately ripped (confidence 1) [E72D1780] (AR v1)Track 6 accurately ripped (confidence 1) [B0A74252] (AR v1)Track 7 accurately ripped (confidence 1) [8F7DE31E] (AR v1)Track 8 accurately ripped (confidence 1) [3AC7E934] (AR v1)Track 9 accurately ripped (confidence 1) [BBA0148B] (AR v1)Track 10 accurately ripped (confidence 1) [C9DBD7D3] (AR v1)Track 11 accurately ripped (confidence 1) [133ACB4E] (AR v1)Track 12 accurately ripped (confidence 1) [F11A45AC] (AR v1)Track 13 accurately ripped (confidence 1) [4D7DA932] (AR v1)
All tracks accurately ripped
End of status report
==== Log checksum AD441091EED9AE0BB78BC217AF16A853F961E28B647AAF4CAADDED4D50CB8030 ====

Лог создания рипа: CD2

Exact Audio Copy V1.0 beta 3 from 29. August 2011
EAC extraction logfile from 8. December 2014, 8:58
Soloists, Choir and SO of the All-Union Radio, Dzhemal Dalgat / Prokofiev - The Love for Three Oranges - CD2
Used drive : HL-DT-STDVDRAM GU70N Adapter: 0 ID: 0
Read mode : SecureUtilize accurate stream : YesDefeat audio cache : YesMake use of C2 pointers : No
Read offset correction : 48Overread into Lead-In and Lead-Out : NoFill up missing offset samples with silence : YesDelete leading and trailing silent blocks : NoNull samples used in CRC calculations : YesUsed interface : Native Win32 interface for Win NT & 2000
Used output format : User Defined EncoderSelected bitrate : 128 kBit/sQuality : HighAdd ID3 tag : NoCommand line compressor : C:\Program Files (x86)\Exact Audio Copy\Flac\flac.exeAdditional command line options : -V -8 -T "Date=%year%" -T "Genre=%genre%" %source%
TOC of the extracted CD
Track | Start | Length | Start sector | End sector --------------------------------------------------------- 1 | 0:00.00 | 5:19.19 | 0 | 23943 2 | 5:19.19 | 4:10.13 | 23944 | 42706 3 | 9:29.32 | 1:50.63 | 42707 | 51019 4 | 11:20.20 | 6:03.36 | 51020 | 78280 5 | 17:23.56 | 3:51.12 | 78281 | 95617 6 | 21:14.68 | 3:26.31 | 95618 | 111098 7 | 24:41.24 | 3:23.57 | 111099 | 126380 8 | 28:05.06 | 7:42.28 | 126381 | 161058 9 | 35:47.34 | 5:25.50 | 161059 | 185483 10 | 41:13.09 | 3:27.36 | 185484 | 201044 11 | 44:40.45 | 4:55.38 | 201045 | 223207 12 | 49:36.08 | 3:09.66 | 223208 | 237448
Range status and errors
Selected range
Filename C:\temp\Prokofiev - The Love for Three Oranges\CD2\Prokofiev - The Love for Three Oranges - CD2.wav
Peak level 95.0 % Extraction speed 2.0 X Range quality 99.9 % Test CRC F4D9777C Copy CRC F4D9777C Copy OK
No errors occurred
AccurateRip summary
Track 1 accurately ripped (confidence 1) [08828374] (AR v1)Track 2 accurately ripped (confidence 1) [5A659696] (AR v1)Track 3 accurately ripped (confidence 1) [61E327D7] (AR v1)Track 4 accurately ripped (confidence 1) [61532098] (AR v1)Track 5 accurately ripped (confidence 1) [85C8F687] (AR v1)Track 6 accurately ripped (confidence 1) [9A5B4233] (AR v1)Track 7 accurately ripped (confidence 1) [BF1D6A0B] (AR v1)Track 8 accurately ripped (confidence 1) [587D63DF] (AR v1)Track 9 accurately ripped (confidence 1) [3B5A4B16] (AR v1)Track 10 accurately ripped (confidence 1) [DAE0124F] (AR v1)Track 11 accurately ripped (confidence 1) [49DE219E] (AR v1)Track 12 accurately ripped (confidence 1) [6EBCFACA] (AR v1)
All tracks accurately ripped
End of status report
==== Log checksum 838DE5E68403EFD3B6AFA4CBEF94F8A490DE1267518A92C328907671C3E56EC5 ====



Показать сообщения:    

Текущее время: 10-Дек 06:10

Часовой пояс: UTC + 3


Вы не можете начинать темы
Вы не можете отвечать на сообщения
Вы не можете редактировать свои сообщения
Вы не можете удалять свои сообщения
Вы не можете голосовать в опросах
Вы не можете прикреплять файлы к сообщениям
Вы не можете скачивать файлы