(Various) Тамара Милашкина. Владимир Атлантов. Избранное (7 CD: Verdi, Puccini, Leoncavallo, Чайковский, Рахманинов и др.) - 2012, FLAC (image+.cue) lossless


 

[Цитировать]

Тамара Милашкина. Владимир Атлантов. Избранное (7 CD)
Жанр: Various
Страна-производитель диска: Россия
Год издания диска: 2012
Издатель (лейбл): ЗАО «Издательство „Композитор” (СПб)»
Аудиокодек: FLAC
Тип рипа: image+.cue
Битрейт аудио: lossless
Продолжительность: 63:53 + 38:43 + 45:01 + 44:24 + 46:41 + 35:55 + 35:33
Источник: собственный рип
Наличие сканов в содержимом раздачи: нет

Треклист

CD1. Тамара Милашкина. Зарубежная оперная классика
1. Дж. Верди. Ария Леоноры из оперы 'Сила судьбы' 05:27
2. Дж. Верди. Ария Леоноры из оперы 'Трубадур' 05:41
3. Дж. Верди. Ария Аиды из оперы 'Аида' 07:36
4. Дж. Верди. Романс Аиды из оперы 'Аида' 07:44
5. Дж. Верди. Сцена и молитва Дездемоны из оперы 'Отелло' 16:17
6. П. Масканьи. Ария Сантуццы из оперы 'Сельская честь' 03:31
7. Дж. Пуччини. Ария Тоски из оперы 'Тоска' 03:23
8. Дж. Пуччини. Дуэт Тоски и Каварадосси из оперы 'Тоска' 13:38
CD2. Тамара Милашкина. Русская оперная классика
1. П. Чайковский. Речитатив и ария Иоанны из оперы 'Орлеанская дева' 07:15
2. П. Чайковский. Ариозо Кумы из оперы 'Чародейка' 02:45
3. П. Чайковский. Ариозо Натальи из оперы 'Опричник' 02:59
4. П. Чайковский. Ариозо Иоланты из оперы 'Иоланта' 02:50
5. П. Чайковский. Ария Лизы из оперы 'Пиковая дама' 05:47
6. П. Чайковский. Письмо Татьяны из оперы 'Евгений Онегин' 13:04
7. Н. Римский-Корсаков. Ариозо Февронии из оперы 'Сказание о невидимом граде Китеже' 03:34
CD3. Тамара Милашкина. Русский классический романс
1. С. Рахманинов. Мелодия. Слова С. Надсона 03:40
2. С. Рахманинов. Полюбила я на печаль свою. Слова А. Плещеева (из Шевченко) 02:21
3. П. Чайковский. Забыть так скоро. Слова А. Апухтина 03:37
4. П. Чайковский. Нам звезды кроткие сияли. Слова А. Плещеева 03:47
5. П. Чайковский. Не верь, мой друг. Слова А. Толстого 03:56
6. П. Чайковский. Колыбельная. Слова А. Майкова 03:38
7. П. Чайковский. Первое свидание. Слова К.Р. 01:44
8. П. Чайковский. Уж гасли в комнатах огни. Слова К.Р. 02:44
9. П. Чайковский. Серенада. Слова К.Р. 03:20
10. П. Чайковский. То было раннею весной. Слова А. Толстого 02:50
11. П. Чайковский. Средь шумного бала. Слова А. Толстого 02:35
12. П. Чайковский. Я ли в поле да не травушка была. Слова И. Сурикова 02:41
13. П. Чайковский. Скажи, о чем в тени ветвей. Слова В. Соллогуба 04:07
CD4. Тамара Милашкина. Старинные русские романсы. Русские народные песни
1. П. Булахов. И нет в мире очей. Слова неизвестного автора 02:11
2. П. Булахов. Не пробуждай воспоминаний. Слова неизвестного автора 04:42
3. А. Гурилев. Внутренняя музыка. Слова Н. Огарева 02:49
4. Г. Кушелев-Безбородко. Тебя здесь нет, но ты со мною. Слова Н.Н. 04:04
5. А. Гурилев. Сердце-игрушка. Слова Э. Губера 02:44
6. Русская народная песня. Уж да что же ты, черемушка 04:48
7. Русская народная песня. Зеленая роща 02:38
8. Русская народная песня. Я страдаю 04:59
9. Русская народная песня. По горенке 02:32
10. Русская народная песня. Лучина, лучинушка 04:26
11. Русская народная песня. Земляниченька 04:02
12. Русская народная песня. Подуй, подуй, непогодушка 03:40
CD5. Владимир Атлантов. Русская и зарубежная оперная классика
1. Дж. Верди. Ария Радамеса из оперы 'Аида' 05:05
2. Дж. Верди. Монолог Отелло из оперы 'Отелло' 04:08
3. Р. Леонкавалло. Речитатив и ариозо Канио из оперы 'Паяцы' 03:38
4. Р. Леонкавалло. Сцена и ария Канио из оперы 'Паяцы' 03:26
5. Дж. Пуччини. Ария Каварадосси из первого действия оперы 'Тоска' 02:45
6. Дж. Пуччини. Ария Каварадосси из третьего действия оперы 'Тоска' 03:11
7. Ж. Бизе. Ария Хозе из оперы 'Кармен' 04:32
8. Э. Направник. Речитатив и ария Владимирва из оперы 'Дубровский' 06:10
9. П. Чайковский. Ария Ленского из оперы 'Евгений Онегин' 06:46
10. П. Чайковский. Речитатив и ариозо Германа из оперы 'Пиковая дама' 03:21
11. П. Чайковский. Ариозо Германа из оперы 'Пиковая дама' 02:46
CD6. Владимир Атлантов. Русский классический романс
1. П. Чайковский. Закатилось солнце. Слова Д. Ратгауза 01:49
2. П. Чайковский. Серенада Дон Жуана. Слова А. Толстого 02:38
3. П. Чайковский. Ночь. Слова Я. Полонского 03:43
4. П. Чайковский. Снова, как прежде, один. Слова Д. Ратгауза 02:52
5. П. Чайковский. Нет, только тот, кто знал. Слова Л. Мея (из Гете) 02:39
6. П. Чайковский. День ли царит. Слова А. Апухтина 03:04
7. С. Рахманинов. Я опять одинок. Слова И. Бунина (из Шевченко) 02:07
8. С. Рахманинов. Я был у ней. Слова А. Кольцова 01:22
9. С. Рахманинов. Они отвечали. Слова Л. Мея (из Гете) 02:03
10. С. Рахманинов. О нет, молю, не уходи. Слова Д. Мережковского 02:04
11. С. Рахманинов. В молчанье ночи тайной. Слова А. Фета (из Пайерона) 02:42
12. С. Рахманинов. Весенние воды. Слова Ф. Тютчева 02:00
13. С. Рахманинов. Как мне больно. Слова Г. Галиной 02:04
14. С. Рахманинов. Не верь мне, друг. Слова А. Толстого 01:33
15. С. Рахманинов. Проходит все. Слова Д. Ратгауза 01:59
CD7. Владимир Атлантов. Зарубежные эстрадные песни
1. Г.М. Ферилли. Такая большая любовь. Слова А. Маджио 04:06
2. В. Д'Аннибале. Солнечный край. Слова Л. Бовио 04:03
3. Н. Бродски. Будь моей любимой. Слова С. Кана 03:21
4. Н. Валенте. Вернись. Слова П. Венто 04:04
5. Э. Каннио. Влюбленный солдат. Слова А. Калифано 03:11
6. А. Бракко. Концертная серенада. Слова Э. Карузо 03:20
7. Ф.П. Тости. Рассвет. Слова Г. Д'Аннунцио 03:05
8. С. Гастальдон. Запретная мелодия. Слова Флик-Флока 03:10
9. Э. де Куртис. Не плачь. Слова Л. Бовио 03:14
10. А. Лара. Гранада. Слова автора 03:10
Исполнители:
Тамара Милашкина (сопрано); Владимир Атлантов (тенор).
Доп. информация: Внимание! Оркестры, дирижеры, концертмейстеры, годы записей в данном издании НЕ УКАЗАНЫ!

Лог создания рипа

CD1
Exact Audio Copy V1.0 beta 3 from 29. August 2011
Отчёт EAC об извлечении, выполненном 31. июля 2015, 19:34
- / CD1. Тамара Милашкина. Зарубежная оперная классика
Дисковод: PIONEER BD-RW BDR-208D Adapter: 3 ID: 0
Режим чтения : ДостоверностьИспользование точного потока : ДаОтключение кэша аудио : ДаИспользование указателей C2 : Нет
Коррекция смещения при чтении : 667Способность читать области Lead-in и Lead-out : НетЗаполнение пропущенных сэмплов тишиной : ДаУдаление блоков с тишиной в начале и конце : НетПри вычислениях CRC использовались нулевые сэмплы : ДаИнтерфейс : Встроенный Win32-интерфейс для Win NT/2000
Выходной формат : Пользовательский кодировщикВыбранный битрейт : 768 kBit/sКачество : ВысокийДобавление ID3-тега : НетУтилита сжатия : C:\Program Files (x86)\Exact Audio Copy\FLAC\FLAC.EXEДополнительные параметры : -6 -V -T "ARTIST=%artist%" -T "TITLE=%title%" -T "ALBUM=%albumtitle%" -T "DATE=%year%" -T "TRACKNUMBER=%tracknr%" -T "GENRE=%genre%" -T "COMMENT=%comment%" -T "BAND=%albuminterpret%" -T "ALBUMARTIST=%albuminterpret%" -T "COMPOSER=%composer%" %haslyrics%--tag-from-file=LYRICS="%lyricsfile%"%haslyrics% -T "DISCNUMBER=%cdnumber%" -T "TOTALDISCS=%totalcds%" -T "TOTALTRACKS=%numtracks%" %hascover%--picture="%coverfile%"%hascover% %source% -o %dest%
TOC извлечённого CD
Трек | Старт | Длительность | Начальный сектор | Конечный сектор --------------------------------------------------------------------- 1 | 0:00.00 | 5:30.63 | 0 | 24812 2 | 5:30.63 | 5:47.28 | 24813 | 50865 3 | 11:18.16 | 7:41.56 | 50866 | 85496 4 | 18:59.72 | 7:49.37 | 85497 | 120708 5 | 26:49.34 | 16:21.69 | 120709 | 194352 6 | 43:11.28 | 3:34.03 | 194353 | 210405 7 | 46:45.31 | 3:29.00 | 210406 | 226080 8 | 50:14.31 | 13:38.72 | 226081 | 287502
Характеристики диапазона извлечения и сообщения об ошибках
Выбранный диапазон
Имя файла C:\Users\user\Desktop\CD1. Тамара Милашкина. Зарубежная оперная классика.wav
Пиковый уровень 99.4 % Скорость извлечения 8.3 X Качество диапазона 100.0 % CRC теста 0F33EFE7 CRC копии 0F33EFE7 Копирование... OK
Ошибок не произошло
AccurateRip: сводка
Трек 1 отсутствует в базе данныхТрек 2 отсутствует в базе данныхТрек 3 отсутствует в базе данныхТрек 4 отсутствует в базе данныхТрек 5 отсутствует в базе данныхТрек 6 отсутствует в базе данныхТрек 7 отсутствует в базе данныхТрек 8 отсутствует в базе данных
Ни одного трека нет в базе AccurateRip
Конец отчёта
==== Контрольная сумма отчёта C1EEA1BEEC739EF80A03CD7481C29D0C781AF8DBFE0797B283371CFEA83B39EF ====
CD2
Exact Audio Copy V1.0 beta 3 from 29. August 2011
Отчёт EAC об извлечении, выполненном 31. июля 2015, 19:52
- / CD2. Тамара Милашкина. Русская оперная классика
Дисковод: PIONEER BD-RW BDR-208D Adapter: 3 ID: 0
Режим чтения : ДостоверностьИспользование точного потока : ДаОтключение кэша аудио : ДаИспользование указателей C2 : Нет
Коррекция смещения при чтении : 667Способность читать области Lead-in и Lead-out : НетЗаполнение пропущенных сэмплов тишиной : ДаУдаление блоков с тишиной в начале и конце : НетПри вычислениях CRC использовались нулевые сэмплы : ДаИнтерфейс : Встроенный Win32-интерфейс для Win NT/2000
Выходной формат : Пользовательский кодировщикВыбранный битрейт : 768 kBit/sКачество : ВысокийДобавление ID3-тега : НетУтилита сжатия : C:\Program Files (x86)\Exact Audio Copy\FLAC\FLAC.EXEДополнительные параметры : -6 -V -T "ARTIST=%artist%" -T "TITLE=%title%" -T "ALBUM=%albumtitle%" -T "DATE=%year%" -T "TRACKNUMBER=%tracknr%" -T "GENRE=%genre%" -T "COMMENT=%comment%" -T "BAND=%albuminterpret%" -T "ALBUMARTIST=%albuminterpret%" -T "COMPOSER=%composer%" %haslyrics%--tag-from-file=LYRICS="%lyricsfile%"%haslyrics% -T "DISCNUMBER=%cdnumber%" -T "TOTALDISCS=%totalcds%" -T "TOTALTRACKS=%numtracks%" %hascover%--picture="%coverfile%"%hascover% %source% -o %dest%
TOC извлечённого CD
Трек | Старт | Длительность | Начальный сектор | Конечный сектор --------------------------------------------------------------------- 1 | 0:00.00 | 7:19.46 | 0 | 32970 2 | 7:19.46 | 2:50.35 | 32971 | 45755 3 | 10:10.06 | 3:04.11 | 45756 | 59566 4 | 13:14.17 | 2:55.01 | 59567 | 72692 5 | 16:09.18 | 5:51.70 | 72693 | 99087 6 | 22:01.13 | 13:08.51 | 99088 | 158238 7 | 35:09.64 | 3:34.10 | 158239 | 174298
Характеристики диапазона извлечения и сообщения об ошибках
Выбранный диапазон
Имя файла C:\Users\user\Desktop\CD2. Тамара Милашкина. Русская оперная классика.wav
Пиковый уровень 98.8 % Скорость извлечения 7.3 X Качество диапазона 100.0 % CRC теста A7656F6A CRC копии A7656F6A Копирование... OK
Ошибок не произошло
AccurateRip: сводка
Трек 1 отсутствует в базе данныхТрек 2 отсутствует в базе данныхТрек 3 отсутствует в базе данныхТрек 4 отсутствует в базе данныхТрек 5 отсутствует в базе данныхТрек 6 отсутствует в базе данныхТрек 7 отсутствует в базе данных
Ни одного трека нет в базе AccurateRip
Конец отчёта
==== Контрольная сумма отчёта BD3A40AAC23C5179132FCB17613FEBE64CED9BB868CAC4368FE7AC76A622278E ====
CD3
Exact Audio Copy V1.0 beta 3 from 29. August 2011
Отчёт EAC об извлечении, выполненном 31. июля 2015, 20:11
- / CD3. Тамара Милашкина. Русский классический романс
Дисковод: PIONEER BD-RW BDR-208D Adapter: 3 ID: 0
Режим чтения : ДостоверностьИспользование точного потока : ДаОтключение кэша аудио : ДаИспользование указателей C2 : Нет
Коррекция смещения при чтении : 667Способность читать области Lead-in и Lead-out : НетЗаполнение пропущенных сэмплов тишиной : ДаУдаление блоков с тишиной в начале и конце : НетПри вычислениях CRC использовались нулевые сэмплы : ДаИнтерфейс : Встроенный Win32-интерфейс для Win NT/2000
Выходной формат : Пользовательский кодировщикВыбранный битрейт : 768 kBit/sКачество : ВысокийДобавление ID3-тега : НетУтилита сжатия : C:\Program Files (x86)\Exact Audio Copy\FLAC\FLAC.EXEДополнительные параметры : -6 -V -T "ARTIST=%artist%" -T "TITLE=%title%" -T "ALBUM=%albumtitle%" -T "DATE=%year%" -T "TRACKNUMBER=%tracknr%" -T "GENRE=%genre%" -T "COMMENT=%comment%" -T "BAND=%albuminterpret%" -T "ALBUMARTIST=%albuminterpret%" -T "COMPOSER=%composer%" %haslyrics%--tag-from-file=LYRICS="%lyricsfile%"%haslyrics% -T "DISCNUMBER=%cdnumber%" -T "TOTALDISCS=%totalcds%" -T "TOTALTRACKS=%numtracks%" %hascover%--picture="%coverfile%"%hascover% %source% -o %dest%
TOC извлечённого CD
Трек | Старт | Длительность | Начальный сектор | Конечный сектор --------------------------------------------------------------------- 1 | 0:00.00 | 3:45.74 | 0 | 16948 2 | 3:45.74 | 2:26.63 | 16949 | 27961 3 | 6:12.62 | 3:41.39 | 27962 | 44575 4 | 9:54.26 | 3:51.31 | 44576 | 61931 5 | 13:45.57 | 4:00.36 | 61932 | 79967 6 | 17:46.18 | 3:43.56 | 79968 | 96748 7 | 21:29.74 | 1:49.15 | 96749 | 104938 8 | 23:19.14 | 2:49.08 | 104939 | 117621 9 | 26:08.22 | 3:24.56 | 117622 | 132977 10 | 29:33.03 | 2:55.44 | 132978 | 146146 11 | 32:28.47 | 2:40.22 | 146147 | 158168 12 | 35:08.69 | 5:45.23 | 158169 | 184066 13 | 40:54.17 | 4:07.06 | 184067 | 202597
Характеристики диапазона извлечения и сообщения об ошибках
Выбранный диапазон
Имя файла C:\Users\user\Desktop\CD3. Тамара Милашкина. Русский классический романс.wav
Пиковый уровень 99.0 % Скорость извлечения 7.6 X Качество диапазона 100.0 % CRC теста FDD24942 CRC копии FDD24942 Копирование... OK
Ошибок не произошло
AccurateRip: сводка
Трек 1 отсутствует в базе данныхТрек 2 отсутствует в базе данныхТрек 3 отсутствует в базе данныхТрек 4 отсутствует в базе данныхТрек 5 отсутствует в базе данныхТрек 6 отсутствует в базе данныхТрек 7 отсутствует в базе данныхТрек 8 отсутствует в базе данныхТрек 9 отсутствует в базе данныхТрек 10 отсутствует в базе данныхТрек 11 отсутствует в базе данныхТрек 12 отсутствует в базе данныхТрек 13 отсутствует в базе данных
Ни одного трека нет в базе AccurateRip
Конец отчёта
==== Контрольная сумма отчёта 1FCF40FC8B764D89F72805758512F1B4AFE30D9A3D7078C34819849013B3B7B2 ====
CD4
Exact Audio Copy V1.0 beta 3 from 29. August 2011
Отчёт EAC об извлечении, выполненном 31. июля 2015, 20:32
- / CD4. Тамара Милашкина. Старинные русские романсы. Русские народные песни
Дисковод: PIONEER BD-RW BDR-208D Adapter: 3 ID: 0
Режим чтения : ДостоверностьИспользование точного потока : ДаОтключение кэша аудио : ДаИспользование указателей C2 : Нет
Коррекция смещения при чтении : 667Способность читать области Lead-in и Lead-out : НетЗаполнение пропущенных сэмплов тишиной : ДаУдаление блоков с тишиной в начале и конце : НетПри вычислениях CRC использовались нулевые сэмплы : ДаИнтерфейс : Встроенный Win32-интерфейс для Win NT/2000
Выходной формат : Пользовательский кодировщикВыбранный битрейт : 768 kBit/sКачество : ВысокийДобавление ID3-тега : НетУтилита сжатия : C:\Program Files (x86)\Exact Audio Copy\FLAC\FLAC.EXEДополнительные параметры : -6 -V -T "ARTIST=%artist%" -T "TITLE=%title%" -T "ALBUM=%albumtitle%" -T "DATE=%year%" -T "TRACKNUMBER=%tracknr%" -T "GENRE=%genre%" -T "COMMENT=%comment%" -T "BAND=%albuminterpret%" -T "ALBUMARTIST=%albuminterpret%" -T "COMPOSER=%composer%" %haslyrics%--tag-from-file=LYRICS="%lyricsfile%"%haslyrics% -T "DISCNUMBER=%cdnumber%" -T "TOTALDISCS=%totalcds%" -T "TOTALTRACKS=%numtracks%" %hascover%--picture="%coverfile%"%hascover% %source% -o %dest%
TOC извлечённого CD
Трек | Старт | Длительность | Начальный сектор | Конечный сектор --------------------------------------------------------------------- 1 | 0:00.00 | 2:14.25 | 0 | 10074 2 | 2:14.25 | 4:46.22 | 10075 | 31546 3 | 7:00.47 | 2:52.65 | 31547 | 44511 4 | 9:53.37 | 4:07.72 | 44512 | 63108 5 | 14:01.34 | 2:47.46 | 63109 | 75679 6 | 16:49.05 | 4:53.03 | 75680 | 97657 7 | 21:42.08 | 2:43.68 | 97658 | 109950 8 | 24:26.01 | 5:03.50 | 109951 | 132725 9 | 29:29.51 | 2:37.14 | 132726 | 144514 10 | 32:06.65 | 4:30.49 | 144515 | 164813 11 | 36:37.39 | 4:06.56 | 164814 | 183319 12 | 40:44.20 | 3:40.49 | 183320 | 199868
Характеристики диапазона извлечения и сообщения об ошибках
Выбранный диапазон
Имя файла C:\Users\user\Desktop\CD4. Тамара Милашкина. Старинные русские романсы. Русские народные песни.wav
Пиковый уровень 98.3 % Скорость извлечения 7.5 X Качество диапазона 100.0 % CRC теста B6DEE423 CRC копии B6DEE423 Копирование... OK
Ошибок не произошло
AccurateRip: сводка
Трек 1 отсутствует в базе данныхТрек 2 отсутствует в базе данныхТрек 3 отсутствует в базе данныхТрек 4 отсутствует в базе данныхТрек 5 отсутствует в базе данныхТрек 6 отсутствует в базе данныхТрек 7 отсутствует в базе данныхТрек 8 отсутствует в базе данныхТрек 9 отсутствует в базе данныхТрек 10 отсутствует в базе данныхТрек 11 отсутствует в базе данныхТрек 12 отсутствует в базе данных
Ни одного трека нет в базе AccurateRip
Конец отчёта
==== Контрольная сумма отчёта 4DFDB988D7A9B0A1DD49B10ECFB36EABACF651C5BB51B05E8E7838BF89AF1737 ====
CD5
Exact Audio Copy V1.0 beta 3 from 29. August 2011
Отчёт EAC об извлечении, выполненном 31. июля 2015, 20:51
- / CD5. Владимир Атлантов. Русская и зарубежная оперная классика
Дисковод: PIONEER BD-RW BDR-208D Adapter: 3 ID: 0
Режим чтения : ДостоверностьИспользование точного потока : ДаОтключение кэша аудио : ДаИспользование указателей C2 : Нет
Коррекция смещения при чтении : 667Способность читать области Lead-in и Lead-out : НетЗаполнение пропущенных сэмплов тишиной : ДаУдаление блоков с тишиной в начале и конце : НетПри вычислениях CRC использовались нулевые сэмплы : ДаИнтерфейс : Встроенный Win32-интерфейс для Win NT/2000
Выходной формат : Пользовательский кодировщикВыбранный битрейт : 768 kBit/sКачество : ВысокийДобавление ID3-тега : НетУтилита сжатия : C:\Program Files (x86)\Exact Audio Copy\FLAC\FLAC.EXEДополнительные параметры : -6 -V -T "ARTIST=%artist%" -T "TITLE=%title%" -T "ALBUM=%albumtitle%" -T "DATE=%year%" -T "TRACKNUMBER=%tracknr%" -T "GENRE=%genre%" -T "COMMENT=%comment%" -T "BAND=%albuminterpret%" -T "ALBUMARTIST=%albuminterpret%" -T "COMPOSER=%composer%" %haslyrics%--tag-from-file=LYRICS="%lyricsfile%"%haslyrics% -T "DISCNUMBER=%cdnumber%" -T "TOTALDISCS=%totalcds%" -T "TOTALTRACKS=%numtracks%" %hascover%--picture="%coverfile%"%hascover% %source% -o %dest%
TOC извлечённого CD
Трек | Старт | Длительность | Начальный сектор | Конечный сектор --------------------------------------------------------------------- 1 | 0:00.00 | 5:11.34 | 0 | 23358 2 | 5:11.34 | 4:12.67 | 23359 | 42325 3 | 9:24.26 | 3:42.26 | 42326 | 59001 4 | 13:06.52 | 3:30.15 | 59002 | 74766 5 | 16:36.67 | 2:51.14 | 74767 | 87605 6 | 19:28.06 | 3:16.49 | 87606 | 102354 7 | 22:44.55 | 4:37.12 | 102355 | 123141 8 | 27:21.67 | 6:15.48 | 123142 | 151314 9 | 33:37.40 | 6:52.25 | 151315 | 182239 10 | 40:29.65 | 3:25.71 | 182240 | 197685 11 | 43:55.61 | 2:46.10 | 197686 | 210145
Характеристики диапазона извлечения и сообщения об ошибках
Выбранный диапазон
Имя файла C:\Users\user\Desktop\CD5. Владимир Атлантов. Русская и зарубежная оперная классика.wav
Пиковый уровень 98.8 % Скорость извлечения 7.7 X Качество диапазона 100.0 % CRC теста 4B1CE531 CRC копии 4B1CE531 Копирование... OK
Ошибок не произошло
AccurateRip: сводка
Трек 1 отсутствует в базе данныхТрек 2 отсутствует в базе данныхТрек 3 отсутствует в базе данныхТрек 4 отсутствует в базе данныхТрек 5 отсутствует в базе данныхТрек 6 отсутствует в базе данныхТрек 7 отсутствует в базе данныхТрек 8 отсутствует в базе данныхТрек 9 отсутствует в базе данныхТрек 10 отсутствует в базе данныхТрек 11 отсутствует в базе данных
Ни одного трека нет в базе AccurateRip
Конец отчёта
==== Контрольная сумма отчёта 2868320A0A25F9714DF0D985EA576457EF21D01F60B1DCC83F648ED825788DA2 ====
CD6
Exact Audio Copy V1.0 beta 3 from 29. August 2011
Отчёт EAC об извлечении, выполненном 31. июля 2015, 21:11
- / CD6. Владимир Атлантов. Русский классический романс
Дисковод: PIONEER BD-RW BDR-208D Adapter: 3 ID: 0
Режим чтения : ДостоверностьИспользование точного потока : ДаОтключение кэша аудио : ДаИспользование указателей C2 : Нет
Коррекция смещения при чтении : 667Способность читать области Lead-in и Lead-out : НетЗаполнение пропущенных сэмплов тишиной : ДаУдаление блоков с тишиной в начале и конце : НетПри вычислениях CRC использовались нулевые сэмплы : ДаИнтерфейс : Встроенный Win32-интерфейс для Win NT/2000
Выходной формат : Пользовательский кодировщикВыбранный битрейт : 768 kBit/sКачество : ВысокийДобавление ID3-тега : НетУтилита сжатия : C:\Program Files (x86)\Exact Audio Copy\FLAC\FLAC.EXEДополнительные параметры : -6 -V -T "ARTIST=%artist%" -T "TITLE=%title%" -T "ALBUM=%albumtitle%" -T "DATE=%year%" -T "TRACKNUMBER=%tracknr%" -T "GENRE=%genre%" -T "COMMENT=%comment%" -T "BAND=%albuminterpret%" -T "ALBUMARTIST=%albuminterpret%" -T "COMPOSER=%composer%" %haslyrics%--tag-from-file=LYRICS="%lyricsfile%"%haslyrics% -T "DISCNUMBER=%cdnumber%" -T "TOTALDISCS=%totalcds%" -T "TOTALTRACKS=%numtracks%" %hascover%--picture="%coverfile%"%hascover% %source% -o %dest%
TOC извлечённого CD
Трек | Старт | Длительность | Начальный сектор | Конечный сектор --------------------------------------------------------------------- 1 | 0:00.00 | 1:54.63 | 0 | 8612 2 | 1:54.63 | 2:42.65 | 8613 | 20827 3 | 4:37.53 | 3:47.64 | 20828 | 37916 4 | 8:25.42 | 2:57.56 | 37917 | 51247 5 | 11:23.23 | 2:44.51 | 51248 | 63598 6 | 14:07.74 | 3:10.33 | 63599 | 77881 7 | 17:18.32 | 2:12.58 | 77882 | 87839 8 | 19:31.15 | 1:27.16 | 87840 | 94380 9 | 20:58.31 | 2:08.53 | 94381 | 104033 10 | 23:07.09 | 2:09.15 | 104034 | 113723 11 | 25:16.24 | 2:47.32 | 113724 | 126280 12 | 28:03.56 | 2:05.25 | 126281 | 135680 13 | 30:09.06 | 2:08.33 | 135681 | 145313 14 | 32:17.39 | 1:38.25 | 145314 | 152688 15 | 33:55.64 | 1:59.14 | 152689 | 161627
Характеристики диапазона извлечения и сообщения об ошибках
Выбранный диапазон
Имя файла C:\Users\user\Desktop\CD6. Владимир Атлантов. Русский классический романс.wav
Пиковый уровень 99.7 % Скорость извлечения 7.0 X Качество диапазона 99.9 % CRC теста F8D39DE3 CRC копии F8D39DE3 Копирование... OK
Ошибок не произошло
AccurateRip: сводка
Трек 1 отсутствует в базе данныхТрек 2 отсутствует в базе данныхТрек 3 отсутствует в базе данныхТрек 4 отсутствует в базе данныхТрек 5 отсутствует в базе данныхТрек 6 отсутствует в базе данныхТрек 7 отсутствует в базе данныхТрек 8 отсутствует в базе данныхТрек 9 отсутствует в базе данныхТрек 10 отсутствует в базе данныхТрек 11 отсутствует в базе данныхТрек 12 отсутствует в базе данныхТрек 13 отсутствует в базе данныхТрек 14 отсутствует в базе данныхТрек 15 отсутствует в базе данных
Ни одного трека нет в базе AccurateRip
Конец отчёта
==== Контрольная сумма отчёта D6B8DD57AC910542512E1460EA65F669B4FEE3F7EA295F1118D9DA8C06FAA878 ====
CD7
Exact Audio Copy V1.0 beta 3 from 29. August 2011
Отчёт EAC об извлечении, выполненном 31. июля 2015, 21:28
- / CD7. Владимир Атлантов. Зарубежные эстрадные песни
Дисковод: PIONEER BD-RW BDR-208D Adapter: 3 ID: 0
Режим чтения : ДостоверностьИспользование точного потока : ДаОтключение кэша аудио : ДаИспользование указателей C2 : Нет
Коррекция смещения при чтении : 667Способность читать области Lead-in и Lead-out : НетЗаполнение пропущенных сэмплов тишиной : ДаУдаление блоков с тишиной в начале и конце : НетПри вычислениях CRC использовались нулевые сэмплы : ДаИнтерфейс : Встроенный Win32-интерфейс для Win NT/2000
Выходной формат : Пользовательский кодировщикВыбранный битрейт : 768 kBit/sКачество : ВысокийДобавление ID3-тега : НетУтилита сжатия : C:\Program Files (x86)\Exact Audio Copy\FLAC\FLAC.EXEДополнительные параметры : -6 -V -T "ARTIST=%artist%" -T "TITLE=%title%" -T "ALBUM=%albumtitle%" -T "DATE=%year%" -T "TRACKNUMBER=%tracknr%" -T "GENRE=%genre%" -T "COMMENT=%comment%" -T "BAND=%albuminterpret%" -T "ALBUMARTIST=%albuminterpret%" -T "COMPOSER=%composer%" %haslyrics%--tag-from-file=LYRICS="%lyricsfile%"%haslyrics% -T "DISCNUMBER=%cdnumber%" -T "TOTALDISCS=%totalcds%" -T "TOTALTRACKS=%numtracks%" %hascover%--picture="%coverfile%"%hascover% %source% -o %dest%
TOC извлечённого CD
Трек | Старт | Длительность | Начальный сектор | Конечный сектор --------------------------------------------------------------------- 1 | 0:00.00 | 4:12.02 | 0 | 18901 2 | 4:12.02 | 4:08.27 | 18902 | 37528 3 | 8:20.29 | 3:26.29 | 37529 | 53007 4 | 11:46.58 | 4:10.68 | 53008 | 71825 5 | 15:57.51 | 3:15.44 | 71826 | 86494 6 | 19:13.20 | 3:25.41 | 86495 | 101910 7 | 22:38.61 | 3:11.37 | 101911 | 116272 8 | 25:50.23 | 3:14.66 | 116273 | 130888 9 | 29:05.14 | 3:18.02 | 130889 | 145740 10 | 32:23.16 | 3:10.46 | 145741 | 160036
Характеристики диапазона извлечения и сообщения об ошибках
Выбранный диапазон
Имя файла C:\Users\user\Desktop\CD7. Владимир Атлантов. Зарубежные эстрадные песни.wav
Пиковый уровень 96.7 % Скорость извлечения 7.1 X Качество диапазона 100.0 % CRC теста 6928061F CRC копии 6928061F Копирование... OK
Ошибок не произошло
AccurateRip: сводка
Трек 1 отсутствует в базе данныхТрек 2 отсутствует в базе данныхТрек 3 отсутствует в базе данныхТрек 4 отсутствует в базе данныхТрек 5 отсутствует в базе данныхТрек 6 отсутствует в базе данныхТрек 7 отсутствует в базе данныхТрек 8 отсутствует в базе данныхТрек 9 отсутствует в базе данныхТрек 10 отсутствует в базе данных
Ни одного трека нет в базе AccurateRip
Конец отчёта
==== Контрольная сумма отчёта CA9914D3859D071F0539F4551494131F2C5F629A3E7001356F1A53A6D1AEDA2E ====



Показать сообщения:    

Текущее время: 08-Дек 01:18

Часовой пояс: UTC + 3


Вы не можете начинать темы
Вы не можете отвечать на сообщения
Вы не можете редактировать свои сообщения
Вы не можете удалять свои сообщения
Вы не можете голосовать в опросах
Вы не можете прикреплять файлы к сообщениям
Вы не можете скачивать файлы