(Opera, Vocal) Eileen Farrell: sings Verdi (Soprano Operatic Arias and Scenes from Aida, Il Trovatore, Don Carlo, Otello, La Forza del Destino, Un Ballo in Maschera), Max Rudolf, Fausto Cleva - 1960-1961 - New-York / 1996 FLAC (tracks+.cue), lossless


 

[Цитировать]

Eileen Farrell: sings Verdi (Soprano Operatic Arias and Scenes from Aida, Il Trovatore, Don Carlo, Otello, La Forza del Destino, Un Ballo in Maschera)
Жанр: Opera, Vocal
Страна-производитель диска: США
Год издания диска: 1996
Издатель (лейбл): Heritage
Дата записи: 1960, 1961
Аудиокодек: FLAC
Тип рипа: tracks+.cue
Битрейт аудио: lossless
Продолжительность: 67:58
Источник: релизер (Guillermo)
Исполнители:
Eileen Farrell, soprano,
Richard Tucker, tenor (tracks 3, 6, 10).
Columbia Symphony Orchestra,
Max Rudolf, Conductor,
Fausto Cleva, Conductor (tracks 3, 6, 10).
Recorded at Manhattan Centre, New-York, September 20 & 23, 1960 and June 7,1961 (tracks 3, 6, 10).

Лог создания рипа

Exact Audio Copy V1.0 beta 3 from 29. August 2011
EAC extraction logfile from 27. July 2015, 10:16
Verdi / Farrell, Eileen - Sings Verdi
Used drive : HL-DT-STDVDRAM GH24NSC0 Adapter: 3 ID: 0
Read mode : SecureUtilize accurate stream : YesDefeat audio cache : YesMake use of C2 pointers : No
Read offset correction : 6Overread into Lead-In and Lead-Out : NoFill up missing offset samples with silence : YesDelete leading and trailing silent blocks : NoNull samples used in CRC calculations : YesUsed interface : Native Win32 interface for Win NT & 2000Gap handling : Appended to previous track
Used output format : User Defined EncoderSelected bitrate : 768 kBit/sQuality : HighAdd ID3 tag : NoCommand line compressor : C:\Program Files (x86)\Exact Audio Copy\FLAC\FLAC.EXEAdditional command line options : -8 -V -T "ARTIST=%artist%" -T "TITLE=%title%" -T "ALBUM=%albumtitle%" -T "DATE=%year%" -T "TRACKNUMBER=%tracknr%" -T "GENRE=%genre%" -T "PERFORMER=%albuminterpret%" -T "COMPOSER=%composer%" %haslyrics%--tag-from-file=LYRICS="%lyricsfile%"%haslyrics% -T "ALBUMARTIST=%albumartist%" -T "DISCNUMBER=%cdnumber%" -T "TOTALDISCS=%totalcds%" -T "TOTALTRACKS=%numtracks%" -T "COMMENT=%comment%" %source% -o %dest%
TOC of the extracted CD
Track | Start | Length | Start sector | End sector --------------------------------------------------------- 1 | 0:00.00 | 3:52.45 | 0 | 17444 2 | 3:52.45 | 6:34.52 | 17445 | 47046 3 | 10:27.22 | 8:20.38 | 47047 | 84584 4 | 18:47.60 | 5:01.67 | 84585 | 107226 5 | 23:49.52 | 4:37.33 | 107227 | 128034 6 | 28:27.10 | 9:13.10 | 128035 | 169519 7 | 37:40.20 | 11:03.45 | 169520 | 219289 8 | 48:43.65 | 4:52.60 | 219290 | 241249 9 | 53:36.50 | 6:35.17 | 241250 | 270891 10 | 60:11.67 | 7:47.43 | 270892 | 305959
Track 1
Filename f:\Users\Guillermo\Desktop\EAC convertidos\01 Come in quest' ora bruna.wav
Pre-gap length 0:00:02.00
Peak level 68.8 % Extraction speed 1.4 X Track quality 99.9 % Test CRC 8F6DABDB Copy CRC 8F6DABDB Copy OK
Track 2
Filename f:\Users\Guillermo\Desktop\EAC convertidos\02 Ritorna vincitor.wav
Pre-gap length 0:00:03.17
Peak level 98.8 % Extraction speed 2.0 X Track quality 100.0 % Test CRC A19DCEB4 Copy CRC A19DCEB4 Copy OK
Track 3
Filename f:\Users\Guillermo\Desktop\EAC convertidos\03 Pur ti riveggo.wav
Pre-gap length 0:00:03.22
Peak level 99.0 % Extraction speed 2.4 X Track quality 100.0 % Test CRC 290B3D08 Copy CRC 290B3D08 Copy OK
Track 4
Filename f:\Users\Guillermo\Desktop\EAC convertidos\04 Tacea la notte placida.wav
Pre-gap length 0:00:04.40
Peak level 100.0 % Extraction speed 2.4 X Track quality 100.0 % Test CRC 3CD12E71 Copy CRC 3CD12E71 Copy OK
Track 5
Filename f:\Users\Guillermo\Desktop\EAC convertidos\05 D'amor sull' ali rosee.wav
Pre-gap length 0:00:04.16
Peak level 66.8 % Extraction speed 2.6 X Track quality 100.0 % Test CRC 48100DE8 Copy CRC 48100DE8 Copy OK
Track 6
Filename f:\Users\Guillermo\Desktop\EAC convertidos\06 Io vengo a domandar.wav
Pre-gap length 0:00:04.44
Peak level 94.1 % Extraction speed 3.0 X Track quality 100.0 % Test CRC BFD91A27 Copy CRC BFD91A27 Copy OK
Track 7
Filename f:\Users\Guillermo\Desktop\EAC convertidos\07 Ave Maria.wav
Pre-gap length 0:00:03.90
Peak level 77.5 % Extraction speed 3.3 X Track quality 100.0 % Test CRC D2DCDBA4 Copy CRC D2DCDBA4 Copy OK
Track 8
Filename f:\Users\Guillermo\Desktop\EAC convertidos\08 Pace, pace, mio Dio.wav
Pre-gap length 0:00:05.00
Peak level 100.0 % Extraction speed 3.2 X Track quality 100.0 % Test CRC 88A7478F Copy CRC 88A7478F Copy OK
Track 9
Filename f:\Users\Guillermo\Desktop\EAC convertidos\09 Ma dall' arido stelo divulsa.wav
Pre-gap length 0:00:04.77
Peak level 100.0 % Extraction speed 3.5 X Track quality 100.0 % Test CRC 9A5BF8DB Copy CRC 9A5BF8DB Copy OK
Track 10
Filename f:\Users\Guillermo\Desktop\EAC convertidos\10 Teco io sto.wav
Pre-gap length 0:00:03.66
Peak level 90.6 % Extraction speed 3.7 X Track quality 100.0 % Test CRC B30E0829 Copy CRC B30E0829 Copy OK
No errors occurred
End of status report
==== Log checksum CBEDE3A4A7D682BFE593CD4F436792FC12ADC78511B476E899C4D54770954D06 ====

Содержание индексной карты (.CUE)

REM GENRE OperaREM DATE 1996REM DISCID 7C0FEF0AREM COMMENT "ExactAudioCopy v1.0b3"FILE "01 Come in quest' ora bruna.wav" WAVE TRACK 01 AUDIO INDEX 01 00:00:00 TRACK 02 AUDIO INDEX 00 03:49:32FILE "02 Ritorna vincitor.wav" WAVE INDEX 01 00:00:00 TRACK 03 AUDIO INDEX 00 06:31:35FILE "03 Pur ti riveggo.wav" WAVE INDEX 01 00:00:00 TRACK 04 AUDIO INDEX 00 08:16:08FILE "04 Tacea la notte placida.wav" WAVE INDEX 01 00:00:00 TRACK 05 AUDIO INDEX 00 04:57:55FILE "05 D'amor sull' ali rosee.wav" WAVE INDEX 01 00:00:00 TRACK 06 AUDIO INDEX 00 04:33:00FILE "06 Io vengo a domandar.wav" WAVE INDEX 01 00:00:00 TRACK 07 AUDIO INDEX 00 09:09:17FILE "07 Ave Maria.wav" WAVE INDEX 01 00:00:00 TRACK 08 AUDIO INDEX 00 10:58:45FILE "08 Pace, pace, mio Dio.wav" WAVE INDEX 01 00:00:00 TRACK 09 AUDIO INDEX 00 04:48:02FILE "09 Ma dall' arido stelo divulsa.wav" WAVE INDEX 01 00:00:00 TRACK 10 AUDIO INDEX 00 06:31:42FILE "10 Teco io sto.wav" WAVE INDEX 01 00:00:00

Треклист

Operas by Giuseppe Verdi:
01. Simon Boccanegra - Come in quest' ora bruna;
Aida:
02. Ritorna vincitor;
03. Pur ti riveggo ;
Il Trovatore:04. Tacea la notte placida;
05. D'amor sull' ali rosee;
06. Don Carlo - Io vengo a domandar;
07. Otello - Ave Maria;
08. La forza del destino - Pace, pace, mio Dio;
Un ballo in maschera:09. Ma dall' arido stelo divulsa;
10. Teco io sto.



Показать сообщения:    

Текущее время: 08-Дек 21:12

Часовой пояс: UTC + 3


Вы не можете начинать темы
Вы не можете отвечать на сообщения
Вы не можете редактировать свои сообщения
Вы не можете удалять свои сообщения
Вы не можете голосовать в опросах
Вы не можете прикреплять файлы к сообщениям
Вы не можете скачивать файлы