(Opera) Respighi - Lucrezia (Haan, Kaluza, Kohutkova, Ludha, Slepkovska - Slovak Radio Symphony Orchestra, Adriano) - 1995, APE (image+.cue) lossless


 

[Цитировать]

Ottorino Respighi - Lucrezia
Жанр: Opera
Страна-производитель диска: Germany
Год издания диска: 1995
Издатель (лейбл): Marco Polo
Номер по каталогу: 8.223717
Дата записи: 1994
Аудиокодек: APE
Тип рипа: image+.cue
Битрейт аудио: lossless
Продолжительность: 58'04
Источник: собственный рип
Наличие сканов в содержимом раздачи: да
Треклист:
01. - 06. First Moment
07. - 15. Second Moment
16. - 20. Third Moment
Исполнители:
Ottorino Respighi - Lucrezia
Richard Haan (baritone)
Stefania Kaluza (mezzo-soprano)
Adriana Kohutkova (soprano)
Ludovit Ludha (tenor)
Denisa Slepkovska (mezzo-soprano)
Michela Remor (soprano)
Igor Pasek (tenor)
Jan Durco (baritone)
Rado Hanak (bass)
Slovak Radio Symphony Orchestra
Adriano

Лог создания рипа

Exact Audio Copy V1.0 beta 3 from 29. August 2011
EAC extraction logfile from 31. January 2015, 11:54
Respighi / Lucrezia, Adriano
Used drive : TSSTcorpCDDVDW SE-208AB Adapter: 1 ID: 0
Read mode : SecureUtilize accurate stream : YesDefeat audio cache : YesMake use of C2 pointers : No
Read offset correction : 6Overread into Lead-In and Lead-Out : NoFill up missing offset samples with silence : YesDelete leading and trailing silent blocks : NoNull samples used in CRC calculations : YesUsed interface : Native Win32 interface for Win NT & 2000
Used output format : Monkey's Audio Lossless EncoderSelected bitrate : High Lossless CompressionQuality : HighAdd ID3 tag : YesCommand line compressor : C:\Program Files (x86)\Exact Audio Copy\MAC\MAC.exe
TOC of the extracted CD
Track | Start | Length | Start sector | End sector --------------------------------------------------------- 1 | 0:00.00 | 1:50.15 | 0 | 8264 2 | 1:50.15 | 2:18.45 | 8265 | 18659 3 | 4:08.60 | 1:03.60 | 18660 | 23444 4 | 5:12.45 | 2:30.70 | 23445 | 34764 5 | 7:43.40 | 1:06.37 | 34765 | 39751 6 | 8:50.02 | 4:07.73 | 39752 | 58349 7 | 12:58.00 | 1:27.57 | 58350 | 64931 8 | 14:25.57 | 4:24.30 | 64932 | 84761 9 | 18:50.12 | 1:12.30 | 84762 | 90191 10 | 20:02.42 | 2:30.40 | 90192 | 101481 11 | 22:33.07 | 4:34.40 | 101482 | 122071 12 | 27:07.47 | 1:46.53 | 122072 | 130074 13 | 28:54.25 | 1:42.10 | 130075 | 137734 14 | 30:36.35 | 4:26.22 | 137735 | 157706 15 | 35:02.57 | 1:46.43 | 157707 | 165699 16 | 36:49.25 | 2:25.65 | 165700 | 176639 17 | 39:15.15 | 6:27.65 | 176640 | 205729 18 | 45:43.05 | 3:40.62 | 205730 | 222291 19 | 49:23.67 | 6:19.00 | 222292 | 250716 20 | 55:42.67 | 2:21.73 | 250717 | 261364
Range status and errors
Selected range
Filename D:\EAC\Respighi - Lucrezia, Adriano.wav
Peak level 89.1 % Extraction speed 4.5 X Range quality 100.0 % Test CRC 4DD1ABA1 Copy CRC 4DD1ABA1 Copy OK
No errors occurred
AccurateRip summary
Track 1 accurately ripped (confidence 3) [49836A3F] (AR v2)Track 2 accurately ripped (confidence 3) [E8772442] (AR v2)Track 3 accurately ripped (confidence 3) [1352655E] (AR v2)Track 4 accurately ripped (confidence 3) [E4D15E32] (AR v2)Track 5 accurately ripped (confidence 3) [EDC03264] (AR v2)Track 6 accurately ripped (confidence 3) [1AFD3211] (AR v2)Track 7 accurately ripped (confidence 3) [32C4F2DB] (AR v2)Track 8 accurately ripped (confidence 3) [1DBDA86A] (AR v2)Track 9 accurately ripped (confidence 3) [025B9399] (AR v2)Track 10 accurately ripped (confidence 3) [1AA63B79] (AR v2)Track 11 accurately ripped (confidence 3) [DE72B805] (AR v2)Track 12 accurately ripped (confidence 3) [F9FD5612] (AR v2)Track 13 accurately ripped (confidence 3) [F05D434B] (AR v2)Track 14 accurately ripped (confidence 3) [7F3CFEA8] (AR v2)Track 15 accurately ripped (confidence 3) [F22B0B92] (AR v2)Track 16 accurately ripped (confidence 3) [903D61AE] (AR v2)Track 17 accurately ripped (confidence 3) [50790B44] (AR v2)Track 18 accurately ripped (confidence 3) [791E0643] (AR v2)Track 19 accurately ripped (confidence 3) [AFEDF243] (AR v2)Track 20 accurately ripped (confidence 3) [317D21F2] (AR v2)
All tracks accurately ripped
End of status report
---- CUETools DB Plugin V2.1.3
[CTDB TOCID: 6cijwGJbuC.L1ykhLsopaRYoAkA-] found, Submit result: 6cijwGJbuC.L1ykhLsopaRYoAkA- has been confirmed[d1d81020] (3/3) Accurately ripped
==== Log checksum 5DA1CF577E58A8ACC880E0552CAD8753EAB580BD477096125DFD20E5B413B4D2 ====

Содержание индексной карты (.CUE)

REM GENRE OperaREM DATE 1994REM DISCID F90D9C14REM COMMENT "ExactAudioCopy v1.0b3"PERFORMER "Respighi"TITLE "Lucrezia, Adriano"FILE "Respighi - Lucrezia, Adriano.ape" WAVE TRACK 01 AUDIO TITLE "Momento 1 - Guerra, a te libano gli uomini" PERFORMER "Respighi" INDEX 01 00:00:00 TRACK 02 AUDIO TITLE "Momento 1 - Ardea, citta della febbre" PERFORMER "Respighi" INDEX 01 01:50:15 TRACK 03 AUDIO TITLE "Momento 1 - Saggio il vate che diceva" PERFORMER "Respighi" INDEX 01 04:08:60 TRACK 04 AUDIO TITLE "Momento 1 - Baie! La mia Tanaquilla" PERFORMER "Respighi" INDEX 01 05:12:45 TRACK 05 AUDIO TITLE "Momento 1 - Se siete in gamba, ragazzi" PERFORMER "Respighi" INDEX 01 07:43:40 TRACK 06 AUDIO TITLE "Momento 1 - Lo scalpitante galoppo che rulla nell'ombra" PERFORMER "Respighi" INDEX 01 08:50:02 TRACK 07 AUDIO TITLE "Momento 2 - Il fuso e pieno" PERFORMER "Respighi" INDEX 01 12:58:00 TRACK 08 AUDIO TITLE "Momento 2 - E piangeva la misera donna" PERFORMER "Respighi" INDEX 01 14:25:57 TRACK 09 AUDIO TITLE "Momento 2 - Bada al tuo filato, sta attenta" PERFORMER "Respighi" INDEX 01 18:50:12 TRACK 10 AUDIO TITLE "Momento 2 - Anche stasera?" PERFORMER "Respighi" INDEX 01 20:02:42 TRACK 11 AUDIO TITLE "Momento 2 - Lente le faticose parole vengono e vanno" PERFORMER "Respighi" INDEX 01 22:33:07 TRACK 12 AUDIO TITLE "Momento 2 - E sorridendo cosi, in un dolce pensiero d'amore" PERFORMER "Respighi" INDEX 01 27:07:47 TRACK 13 AUDIO TITLE "Momento 2 - ahi, che varca la soglia!" PERFORMER "Respighi" INDEX 01 28:54:25 TRACK 14 AUDIO TITLE "Momento 2 - Non mi conosci" PERFORMER "Respighi" INDEX 01 30:36:35 TRACK 15 AUDIO TITLE "Momento 2 - Vile! vile!" PERFORMER "Respighi" INDEX 01 35:02:57 TRACK 16 AUDIO TITLE "Momento 3 - Tenebre. Un abbandono disperato" PERFORMER "Respighi" INDEX 01 36:49:25 TRACK 17 AUDIO TITLE "Momento 3 - Luce, la livida luce" PERFORMER "Respighi" INDEX 01 39:15:15 TRACK 18 AUDIO TITLE "Momento 3 - Dove? Lucrecia, ove sei?" PERFORMER "Respighi" INDEX 01 45:43:05 TRACK 19 AUDIO TITLE "Momento 3 - Non sono piu quella di ieri" PERFORMER "Respighi" INDEX 01 49:23:67 TRACK 20 AUDIO TITLE "Momento 3 - Odimi, uditemi tutti!" PERFORMER "Respighi" INDEX 01 55:42:67
Доп. информация:
The short score of Lucrezia was completed within two months.
In the autumn of 1935 Respighi began the orchestration, while at the same time working on an arrangement of Francesco Cavalli’s Medea.
Negotiations with the Teatro alla Scala led to the scheduling of Lucrezia and Medea in a double-bill production for the 1936-37 season.
The first performance of the work at the Teatro all Scala on 24th February 1937, under the baton of Gino Marinuzzi and with Maria Caniglia as Lucrezia and Ebe Stignani as La Voce.
Shortly afterwards, the same production was mounted at the Maggio Musicale Fiorentino under the same conductor, and at the Roman Teatro Reale dell’Opera under Tullio Serafin.
Caniglia was to sing Lucrezia again, and for the last time, in a Turin broadcast of 1938.
In the 1960s it was Anna de Cavalieri who revived this part on stage and on the radio in unforgettable dramatic renderings.
As for the part of La Voce, this was to be displayed with all its difficult and varied characteristics by great mezzos such as Fedora Barbieri, Miriam Pirazzini and Oralia Dominguez.
The Plot of Lucrezia (Opera in one act and three moments)
The First Moment of the opera opens in the Praetorian tent of Sextus Tarquinio.
The meal is over; the young princes linger and drink.
Tarquinio drinks to war and women.
Collatinus looks forward to returning home to their faithful wives.
They make fun of the quieter, deeper-thinking Brutus who casts doubt on the faithfulness of the soldiers’ women.
They debate feminine virtue and then cast bets about the constancy of their own women.
Then they resolve to dash back to Rome to see for themselves what their women are doing.
They set off at the gallop.
The Voice comments on their ride, "Unwise game, seed of so much evil! For a desire is kindled in the heart of Tarquinio. .."
The Second Moment is located in the home of Collatinus.
Lucrezia and her handmaidens are seated in a circle spinning wool.
Lucrezia is telling her women a story about an unfaithful treacherous husband.
One of the maidens sings, "Oh, without love she couldn’t live" to which Lucrezia retorts, "No: without honour! The suffering is even greater."
The distaff becomes entangled as if to foretell the discord that follows.
Tarquinio arrives.
The Voice seems to suggest Tarquinio’s thoughts and lust.
The girls retire but not before they exchange impressions of Tarquinio; "Handsome eyes did you see them?" - "Yes, but how they stare!" - "Evil, they make you shudder..." Lucrezia goes to bed.
The Voice tells us that Lucrezia retires with thoughts of love for her husband.
But the Voice then goes on to relate that she is rudely awakened by Tarquinio who takes her, after her protestations, by force.
The Third Moment opens with The Voice commenting on the deep grief of the despoiled Lucrezia and of how she sends a message to her father and to Collatinus to come at once.
Lucrezia sings of the horrors she has endured and of her deep shame - " There is no fountain that can wash me..."
Collatinus arrives to find her in deep distress.
She tells him of Tarquinio’s foul treachery: "The imprint of a strange man is on your bed...on ours.. .".
Unable to live with the memory of her rape Lucrezia is resolved to die.
After making her husband and father swear that she will be avenged, she stabs herself The Voice laments her death.
Now the erstwhile fool, Brutus, is galvanised into action.
He leads the revolt to revenge Lucrezia and free Rome.



Показать сообщения:    

Текущее время: 03-Дек 20:41

Часовой пояс: UTC + 3


Вы не можете начинать темы
Вы не можете отвечать на сообщения
Вы не можете редактировать свои сообщения
Вы не можете удалять свои сообщения
Вы не можете голосовать в опросах
Вы не можете прикреплять файлы к сообщениям
Вы не можете скачивать файлы