(Baroque Opera Intermezzo) Cimarosa - Il Maestro di Cappella • Pergolesi - Il Maestro di Musica (Vogel, Simpson, Tchelebiew, Tisi - Putbus Festival Chorus & Orchestra, Keitel) - 2000, APE (image+.cue) lossless


 

[Цитировать]

Domenico Cimarosa - Il Maestro di Cappella • Giovanni Battista Pergolesi - Il Maestro di Musica
Жанр: Baroque Opera Intermezzo
Страна-производитель диска: EU
Год издания диска: 2000
Издатель (лейбл): Arte Nova
Номер по каталогу: 74321 72121 2
Дата записи: 1999
Аудиокодек: APE
Тип рипа: image+.cue
Битрейт аудио: lossless
Продолжительность: 54'51
Источник: собственный рип
Наличие сканов в содержимом раздачи: да
Треклист/Исполнители:
Domenico Cimarosa
Intermezzo giocose per voce di basso
1. Il Maestro di Cappella
Maestro - Christian Tchelebiew, bass-baritoneGiovanni Battista Pergolesi
Il Maestro di Musica, Intermezzo in due atti
2. Introduzione
3. Aria di Lauretta
4. Aria di Lauretta II
5. Aria di Colagianni
6. Aria di Lauretta III
7. Aria di Colagianni II
8. Finale
9. Introduzione-Aria di Lamberto
10. Aria di Lamberto
11. Aria di Lamberto II
12. Duetto- Lauretta e Lamberto
13. Finale II
Lauretta - Karen Antje Vogel, soprano
Lamberto - Timothy Simpson, tenor
Colagianni - Christian Tchelebiew, bass-baritone
Speaker - Ezio Maria Tisi
Putbus Festival Chorus & Orchestra
Putbus Festival Orchestra
Wilhelm Keitel

Лог создания рипа

Exact Audio Copy V1.0 beta 3 from 29. August 2011
EAC extraction logfile from 28. April 2015, 11:57
Cimarosa • Pergolesi / Il Maestro di Cappella cq. di Musica, Keitel
Used drive : TSSTcorpCDDVDW SE-208AB Adapter: 1 ID: 0
Read mode : SecureUtilize accurate stream : YesDefeat audio cache : YesMake use of C2 pointers : No
Read offset correction : 6Overread into Lead-In and Lead-Out : NoFill up missing offset samples with silence : YesDelete leading and trailing silent blocks : NoNull samples used in CRC calculations : YesUsed interface : Native Win32 interface for Win NT & 2000
Used output format : Monkey's Audio Lossless EncoderSelected bitrate : High Lossless CompressionQuality : HighAdd ID3 tag : YesCommand line compressor : C:\Program Files (x86)\Exact Audio Copy\MAC\MAC.exe
TOC of the extracted CD
Track | Start | Length | Start sector | End sector --------------------------------------------------------- 1 | 0:00.00 | 19:34.65 | 0 | 88114 2 | 19:34.65 | 1:53.10 | 88115 | 96599 3 | 21:28.00 | 2:00.70 | 96600 | 105669 4 | 23:28.70 | 2:59.20 | 105670 | 119114 5 | 26:28.15 | 2:37.25 | 119115 | 130914 6 | 29:05.40 | 3:34.37 | 130915 | 147001 7 | 32:40.02 | 2:45.30 | 147002 | 159406 8 | 35:25.32 | 2:30.53 | 159407 | 170709 9 | 37:56.10 | 3:55.72 | 170710 | 188406 10 | 41:52.07 | 3:20.63 | 188407 | 203469 11 | 45:12.70 | 3:15.10 | 203470 | 218104 12 | 48:28.05 | 2:35.72 | 218105 | 229801 13 | 51:04.02 | 3:50.10 | 229802 | 247061
Range status and errors
Selected range
Filename D:\EAC\Cimarosa • Pergolesi - Il Maestro di Cappella cq. di Musica, Keitel.wav
Peak level 98.8 % Extraction speed 4.5 X Range quality 100.0 % Test CRC 32E8958E Copy CRC 32E8958E Copy OK
No errors occurred
AccurateRip summary
Track 1 accurately ripped (confidence 3) [A3CBC5E1] (AR v1)Track 2 accurately ripped (confidence 3) [E35E0090] (AR v1)Track 3 accurately ripped (confidence 3) [AEB5ECD4] (AR v1)Track 4 accurately ripped (confidence 3) [993406C9] (AR v1)Track 5 accurately ripped (confidence 3) [00EF6F89] (AR v1)Track 6 accurately ripped (confidence 3) [A72608B6] (AR v1)Track 7 accurately ripped (confidence 3) [4E81D628] (AR v1)Track 8 accurately ripped (confidence 3) [8C02BF19] (AR v1)Track 9 accurately ripped (confidence 3) [531031E2] (AR v1)Track 10 accurately ripped (confidence 3) [A36298B3] (AR v1)Track 11 accurately ripped (confidence 3) [ED55DAA7] (AR v1)Track 12 accurately ripped (confidence 3) [1835134B] (AR v1)Track 13 accurately ripped (confidence 3) [19DB443A] (AR v1)
All tracks accurately ripped
End of status report
---- CUETools DB Plugin V2.1.3
[CTDB TOCID: 4GlV9DgL4V6t_Mxb95t26KitMp8-] found, Submit result: 4GlV9DgL4V6t_Mxb95t26KitMp8- has been confirmed[c21cdbec] (1/1) Accurately ripped
==== Log checksum BF6E3CB4945D06568EF95C91C83FEB5E2674ECFBF1D6048F40BDFE3CB6535762 ====

Содержание индексной карты (.CUE)

REM GENRE OperaREM DATE 1999REM DISCID AB0CDE0DREM COMMENT "ExactAudioCopy v1.0b3"PERFORMER "Cimarosa • Pergolesi"TITLE "Il Maestro di Cappella cq. di Musica, Keitel"FILE "Cimarosa • Pergolesi - Il Maestro di Cappella cq. di Musica, Keitel.ape" WAVE TRACK 01 AUDIO TITLE "Il Maestro di Cappella - Putbus Festival Orchestra" PERFORMER "Cimarosa • Pergolesi" ISRC DEP620000077 INDEX 01 00:00:00 TRACK 02 AUDIO TITLE "Il Maestro di Musica - Introduzione - Putbus Festival Orchestra" PERFORMER "Cimarosa • Pergolesi" ISRC DEP620000078 INDEX 00 19:31:00 INDEX 01 19:34:65 TRACK 03 AUDIO TITLE "Il Maestro di Musica - Aria di Lauretta - Putbus Festival Orchestra" PERFORMER "Cimarosa • Pergolesi" ISRC DEP620000079 INDEX 00 21:27:65 INDEX 01 21:28:00 TRACK 04 AUDIO TITLE "Il Maestro di Musica - Aria di Lauretta II - Putbus Festival Orchestra" PERFORMER "Cimarosa • Pergolesi" ISRC DEP620000080 INDEX 00 23:28:60 INDEX 01 23:28:70 TRACK 05 AUDIO TITLE "Il Maestro di Musica - Aria di Colagianni - Putbus Festival Orchestra" PERFORMER "Cimarosa • Pergolesi" ISRC DEP620000081 INDEX 00 26:27:10 INDEX 01 26:28:15 TRACK 06 AUDIO TITLE "Il Maestro di Musica - Aria di Lauretta III - Putbus Festival Orchestra" PERFORMER "Cimarosa • Pergolesi" ISRC DEP620000082 INDEX 00 29:05:30 INDEX 01 29:05:40 TRACK 07 AUDIO TITLE "Il Maestro di Musica - Aria di Colagianni II - Putbus Festival Orchestra" PERFORMER "Cimarosa • Pergolesi" ISRC DEP620000083 INDEX 00 32:39:67 INDEX 01 32:40:02 TRACK 08 AUDIO TITLE "Maestro di Musica - Finale - Putbus Festival Orchestra" PERFORMER "Cimarosa • Pergolesi" ISRC DEP620000084 INDEX 00 35:24:47 INDEX 01 35:25:32 TRACK 09 AUDIO TITLE "Il Maestro di Musica - Introduzione-Aria di Lamberto - Putbus Festival Orchestra" PERFORMER "Cimarosa • Pergolesi" ISRC DEP620000085 INDEX 00 37:56:00 INDEX 01 37:56:10 TRACK 10 AUDIO TITLE "Il Maestro di Musica - Aria di Lamberto - Putbus Festival Orchestra" PERFORMER "Cimarosa • Pergolesi" ISRC DEP620000086 INDEX 00 41:51:07 INDEX 01 41:52:07 TRACK 11 AUDIO TITLE "Il Maestro di Musica - Aria di Lamberto II - Putbus Festival Orchestra" PERFORMER "Cimarosa • Pergolesi" ISRC DEP620000087 INDEX 00 45:12:60 INDEX 01 45:12:70 TRACK 12 AUDIO TITLE "Il Maestro di Musica - Duetto- Lauretta e Lamberto - Putbus Festival Orchestra" PERFORMER "Cimarosa • Pergolesi" ISRC DEP620000088 INDEX 00 48:27:12 INDEX 01 48:28:05 TRACK 13 AUDIO TITLE "Il Maestro di Musica - Finale II - Putbus Festival Orchestra" PERFORMER "Cimarosa • Pergolesi" ISRC DEP620000089 INDEX 00 51:03:22 INDEX 01 51:04:02



Показать сообщения:    

Текущее время: 10-Дек 02:14

Часовой пояс: UTC + 3


Вы не можете начинать темы
Вы не можете отвечать на сообщения
Вы не можете редактировать свои сообщения
Вы не можете удалять свои сообщения
Вы не можете голосовать в опросах
Вы не можете прикреплять файлы к сообщениям
Вы не можете скачивать файлы