(Classical) Николай Каретников - Тиль Уленшпигель - Кудрявцев, Мазо, Мартынов, Мкртчян, Пружанский, Мочалов, Глубокий, Оркестр Госкино СССР, Эмин Хачатурян, Валерий Полянский - 2013, FLAC (image+.cue) lossless


 

[Цитировать]

Николай Каретников - Тиль Уленшпигель - Кудрявцев, Мазо, Мартынов, Мкртчян, Пружанский, Мочалов, Глубокий, Оркестр Госкино СССР, Эмин Хачатурян, Валерий Полянский
Жанр: Classical
Год издания диска: 2013
Издатель (лейбл): Brilliant Classics
Номер по каталогу: 9423
Дата записи: 1988
Аудиокодек: FLAC
Тип рипа: image+.cue
Битрейт аудио: lossless
Продолжительность: 152:01
Источник: собственный рип
Наличие сканов в содержимом раздачи: да
Треклист:
Николай Каретников (1930-1994)
Тиль Уленшпигель
Опера в двух действиях
Либретто композитора и Павла Лунгина
CD1
[1]-[12] Действие 1
CD2
[1] Действие 1 (окончание)
[2]-[10] Действие 2
Исполнители:
Тиль Уленшпигель Борис Кудрявцев баритон
Неле Екатерина Мазо сопрано
Ламме Алексей Мартынов тенор
Каталина, хозяйка «Радуги», Сооткин, Богоматерь, Голос жены Ламме Лина Мкртчян контральто
Императрица, Граф Горн, Филипп II, Рыбник, Третий горожанин Аркадий Пружанский тенор
Клаас, Принц Оранский, Филипп II, Иисус, Палач, Прокурор, Первый горожанин, Адмирал Гёзов, Кум Алексей Мочалов бас
Иост, Карл V, Граф Эгмонт, Сатана, Судья, Второй горожанин, Монах на рынке Пётр Глубокий бас
Оркестр Госкино СССР под управлением Эмина Хачатуряна и Валерия Полянского

Лог создания рипа: CD1

Exact Audio Copy V1.0 beta 3 from 29. August 2011
EAC extraction logfile from 2. November 2014, 19:04
USSR Cinema Symphony Orchestra, Emin Khachaturian, Valery Polyansky / Karetnikov - Till Eulenspiegel - CD1
Used drive : HL-DT-STDVDRAM GU70N Adapter: 0 ID: 0
Read mode : SecureUtilize accurate stream : YesDefeat audio cache : YesMake use of C2 pointers : No
Read offset correction : 48Overread into Lead-In and Lead-Out : NoFill up missing offset samples with silence : YesDelete leading and trailing silent blocks : NoNull samples used in CRC calculations : YesUsed interface : Native Win32 interface for Win NT & 2000
Used output format : User Defined EncoderSelected bitrate : 128 kBit/sQuality : HighAdd ID3 tag : NoCommand line compressor : C:\Program Files (x86)\Exact Audio Copy\Flac\flac.exeAdditional command line options : -V -8 -T "Date=%year%" -T "Genre=%genre%" %source%
TOC of the extracted CD
Track | Start | Length | Start sector | End sector --------------------------------------------------------- 1 | 0:00.32 | 4:58.15 | 32 | 22396 2 | 4:58.47 | 5:52.55 | 22397 | 48851 3 | 10:51.27 | 6:52.60 | 48852 | 79811 4 | 17:44.12 | 10:20.63 | 79812 | 126374 5 | 28:05.00 | 8:40.02 | 126375 | 165376 6 | 36:45.02 | 3:03.20 | 165377 | 179121 7 | 39:48.22 | 4:15.20 | 179122 | 198266 8 | 44:03.42 | 7:49.53 | 198267 | 233494 9 | 51:53.20 | 4:35.55 | 233495 | 254174 10 | 56:29.00 | 4:52.32 | 254175 | 276106 11 | 61:21.32 | 6:02.70 | 276107 | 303326 12 | 67:24.27 | 6:04.73 | 303327 | 330699
Range status and errors
Selected range
Filename C:\temp\Karetnikov - Till Eulenspiegel\CD1\Karetnikov - Till Eulenspiegel - CD1.wav
Peak level 93.5 % Extraction speed 2.2 X Range quality 99.9 % Test CRC CDE9A832 Copy CRC CDE9A832 Copy OK
No errors occurred
AccurateRip summary
Track 1 accurately ripped (confidence 1) [16011DE6] (AR v1)Track 2 accurately ripped (confidence 1) [24C96464] (AR v1)Track 3 accurately ripped (confidence 1) [C57A8F53] (AR v1)Track 4 accurately ripped (confidence 1) [52FA4C3C] (AR v1)Track 5 accurately ripped (confidence 1) [508AF6A2] (AR v1)Track 6 accurately ripped (confidence 1) [EE410EAA] (AR v1)Track 7 accurately ripped (confidence 1) [0131F8BA] (AR v1)Track 8 accurately ripped (confidence 1) [2C751B79] (AR v1)Track 9 accurately ripped (confidence 1) [346579A6] (AR v1)Track 10 accurately ripped (confidence 1) [9BCB2879] (AR v1)Track 11 accurately ripped (confidence 1) [262E4D73] (AR v1)Track 12 accurately ripped (confidence 1) [E9DF2E3A] (AR v1)
All tracks accurately ripped
End of status report
==== Log checksum CB41EE3BA7EB55AEA56B47652EB82CCC5DCD5A25A2C151FBD855B6CD9FED9586 ====

Лог создания рипа: CD2

Exact Audio Copy V1.0 beta 3 from 29. August 2011
EAC extraction logfile from 2. November 2014, 21:17
USSR Cinema Symphony Orchestra, Emin Khachaturian, Valery Polyansky / Karetnikov - Till Eulenspiegel - CD2
Used drive : HL-DT-STDVDRAM GU70N Adapter: 0 ID: 0
Read mode : SecureUtilize accurate stream : YesDefeat audio cache : YesMake use of C2 pointers : No
Read offset correction : 48Overread into Lead-In and Lead-Out : NoFill up missing offset samples with silence : YesDelete leading and trailing silent blocks : NoNull samples used in CRC calculations : YesUsed interface : Native Win32 interface for Win NT & 2000
Used output format : User Defined EncoderSelected bitrate : 128 kBit/sQuality : HighAdd ID3 tag : NoCommand line compressor : C:\Program Files (x86)\Exact Audio Copy\Flac\flac.exeAdditional command line options : -V -8 -T "Date=%year%" -T "Genre=%genre%" %source%
TOC of the extracted CD
Track | Start | Length | Start sector | End sector --------------------------------------------------------- 1 | 0:00.32 | 7:27.20 | 32 | 33576 2 | 7:27.52 | 9:52.50 | 33577 | 78026 3 | 17:20.27 | 8:17.65 | 78027 | 115366 4 | 25:38.17 | 4:30.38 | 115367 | 135654 5 | 30:08.55 | 7:55.70 | 135655 | 171349 6 | 38:04.50 | 16:34.67 | 171350 | 245966 7 | 54:39.42 | 2:05.63 | 245967 | 255404 8 | 56:45.30 | 4:23.10 | 255405 | 275139 9 | 61:08.40 | 8:49.15 | 275140 | 314829 10 | 69:57.55 | 8:36.25 | 314830 | 353554
Range status and errors
Selected range
Filename C:\temp\Karetnikov - Till Eulenspiegel\CD2\Karetnikov - Till Eulenspiegel - CD2.wav
Peak level 82.0 % Extraction speed 2.3 X Range quality 99.9 % Test CRC A08B9285 Copy CRC A08B9285 Copy OK
No errors occurred
AccurateRip summary
Track 1 accurately ripped (confidence 1) [B6D36D8D] (AR v1)Track 2 accurately ripped (confidence 1) [4A067C0A] (AR v1)Track 3 accurately ripped (confidence 1) [5D6B1B50] (AR v1)Track 4 accurately ripped (confidence 1) [345D211C] (AR v1)Track 5 accurately ripped (confidence 1) [213C322C] (AR v1)Track 6 accurately ripped (confidence 1) [8D54AB99] (AR v1)Track 7 accurately ripped (confidence 1) [DAA09F07] (AR v1)Track 8 accurately ripped (confidence 1) [F7020551] (AR v1)Track 9 accurately ripped (confidence 1) [DFEAF670] (AR v1)Track 10 accurately ripped (confidence 1) [226CD4A7] (AR v1)
All tracks accurately ripped
End of status report
==== Log checksum 678920AFF7B28BB87E65D30887811373D8529A77405ABD73092DC691E451023B ====



Показать сообщения:    

Текущее время: 09-Дек 20:30

Часовой пояс: UTC + 3


Вы не можете начинать темы
Вы не можете отвечать на сообщения
Вы не можете редактировать свои сообщения
Вы не можете удалять свои сообщения
Вы не можете голосовать в опросах
Вы не можете прикреплять файлы к сообщениям
Вы не можете скачивать файлы