(Opera) Giuseppe Verdi (Джузеппе Верди)- Rigoletto (Риголетто) - Bastianini, Scotto, Kraus, Cossotto - Gavazzeni - 2011, APE (image+.cue) lossless


 

[Цитировать]

Giuseppe Verdi (Джузеппе Верди)- Rigoletto (Риголетто) - Bastianini, Scotto, Kraus, Cossotto - Gavazzeni
Жанр: Opera
Страна-производитель диска: EU
Год издания диска: 2011
Издатель (лейбл): Andromeda
Номер по каталогу: 9095
Дата записи: 1960
Аудиокодек: APE
Тип рипа: image+.cue
Битрейт аудио: lossless
Продолжительность: 122.01
Источник: собственный рип
Наличие сканов в содержимом раздачи: нет

Исполнители

Conductor - Gianandrea GavazzeniOrchestra - Maggio Musicale FiorentinoChorus - Maggio Musicale Fiorentino
Rigoletto - Ettore BastianiniGilda - Renata ScottoDuca di Mantova - Alfredo KrausSparafucile - Ivo VincoMaddalena - Fiorenza CossottoGiovanna - Clara FotiMonterone - Silvio MaionicaMarullo - Virgilio CarbonariBorsa - Enzo GuagniConte di Ceprano - Giuseppe MorresiContessa di Ceprano - Clara Foti

ТреклистCD1

01 Atto I, Scena 1 - Prelude02 Atto I, Scena 1 - Della mia bella incognita borghese03 Atto I, Scena 1 - Questa o quella04 Atto I, Scena 1 - Partite?... Crudele!05 Atto I, Scena 1 - In testa che avete06 Atto I, Scena 1 - Voi congiuraste contro noi07 Atto I, Scena 2 - Quel vecchio maledivami!08 Atto I, Scena 2 - Pari siamo!09 Atto I, Scena 2 - Figlia! ... Mio padre!10 Atto I, Scena 2 - Deh, non parlare al misero11 Atto I, Scena 2 - Gia da tre lune son qui venuta12 Atto I, Scena 2 - Ah! veglia, o donna13 Atto I, Scena 2 - Giovanna, ho dei rimorsi14 Atto I, Scena 2 - E il sol dell'anima15 Atto I, Scena 2 - Che m'ami, deh, ripetimi16 Atto I, Scena 2 - Addio... speranza ed anima17 Atto I, Scena 2 - Gualtier Malde...18 Atto I, Scena 2 - Caro nome19 Atto I, Scena 2 - Riedo! perche?20 Atto I, Scena 2 - Zitti, zitti

CD2

01 Atto II - Ella mi fu rapita02 Atto II - Parmi veder le lagrime03 Atto II - Duca, duca!04 Atto II - Possente amor mi chiama05 Atto II - Povero Rigoletto06 Atto II - Cortigiani, vil razza dannata07 Atto II - Mio padre!08 Atto II - Parla... siam soli09 Atto II - Tutte le feste al tempio10 Atto II - Piangi, fanciulla11 Atto II - Compiuto pur quanto a fare mi resta12 Atto II - No, vecchio, t'inganni... Si, vendeta13 Atto III - E l'ami?14 Atto III - La donna e mobile15 Atto III - E la il vostr'uomo...16 Atto III - Un di, se ben rammentomi17 Atto III - Bella figlia dell'amore18 Atto III - M'odi, ritorna a casa19 Atto III - Povero giovin! grazioso tanto!20 Atto III - Della vendetta alfin giunge l'istante21 Atto III - Chi e mai, chi e qui in sua vece?22 Atto III - V'ho ingannato

Лог создания рипаCD1

Exact Audio Copy V1.0 beta 3 from 29. August 2011
EAC extraction logfile from 23. April 2015, 15:00
Bastianini, Scotto, Kraus, Cossotto - Gianandrea Gavazzeni - Orchestra e Coro del Maggio Musicale Fiorentino / Verdi: Rigoletto - CD1
Used drive : TS8XDVDRTranscend Adapter: 2 ID: 1
Read mode : SecureUtilize accurate stream : YesDefeat audio cache : YesMake use of C2 pointers : No
Read offset correction : 6Overread into Lead-In and Lead-Out : NoFill up missing offset samples with silence : YesDelete leading and trailing silent blocks : NoNull samples used in CRC calculations : YesUsed interface : Native Win32 interface for Win NT & 2000
Used output format : Monkey's Audio Lossless EncoderSelected bitrate : Normal Lossless CompressionQuality : HighAdd ID3 tag : YesCommand line compressor : C:\Program Files (x86)\Monkey's Audio\MAC.exeAdditional command line options : %source% %dest% -c3000
TOC of the extracted CD
Track | Start | Length | Start sector | End sector --------------------------------------------------------- 1 | 0:00.00 | 2:10.16 | 0 | 9765 2 | 2:10.16 | 1:54.39 | 9766 | 18354 3 | 4:04.55 | 1:42.12 | 18355 | 26016 4 | 5:46.67 | 1:34.51 | 26017 | 33117 5 | 7:21.43 | 3:59.31 | 33118 | 51073 6 | 11:20.74 | 4:30.23 | 51074 | 71346 7 | 15:51.22 | 5:15.28 | 71347 | 94999 8 | 21:06.50 | 3:44.57 | 95000 | 111856 9 | 24:51.32 | 2:03.23 | 111857 | 121104 10 | 26:54.55 | 3:19.56 | 121105 | 136085 11 | 30:14.36 | 1:13.65 | 136086 | 141625 12 | 31:28.26 | 5:25.15 | 141626 | 166015 13 | 36:53.41 | 2:36.57 | 166016 | 177772 14 | 39:30.23 | 3:05.19 | 177773 | 191666 15 | 42:35.42 | 0:50.54 | 191667 | 195470 16 | 43:26.21 | 0:54.07 | 195471 | 199527 17 | 44:20.28 | 0:45.47 | 199528 | 202949 18 | 45:06.00 | 6:30.29 | 202950 | 232228 19 | 51:36.29 | 2:15.33 | 232229 | 242386 20 | 53:51.62 | 2:50.42 | 242387 | 255178
Range status and errors
Selected range
Filename C:\Users\Music\Verdi - RIGOLETTO - Bastianini, Scotto, Kraus, Cossotto - Gavazzeni (1960)\CD1.wav
Peak level 94.3 % Extraction speed 4.4 X Range quality 100.0 % Test CRC F4674BD5 Copy CRC F4674BD5 Copy OK
No errors occurred
AccurateRip summary
Track 1 not present in databaseTrack 2 not present in databaseTrack 3 not present in databaseTrack 4 not present in databaseTrack 5 not present in databaseTrack 6 not present in databaseTrack 7 not present in databaseTrack 8 not present in databaseTrack 9 not present in databaseTrack 10 not present in databaseTrack 11 not present in databaseTrack 12 not present in databaseTrack 13 not present in databaseTrack 14 not present in databaseTrack 15 not present in databaseTrack 16 not present in databaseTrack 17 not present in databaseTrack 18 not present in databaseTrack 19 not present in databaseTrack 20 not present in database
None of the tracks are present in the AccurateRip database
End of status report
==== Log checksum D4B7853C5C0A253888AE7AF816EA5286747FDA581DCA8519B7B13DD4081A20A6 ====

CD2

Exact Audio Copy V1.0 beta 3 from 29. August 2011
EAC extraction logfile from 23. April 2015, 22:08
Bastianini, Scotto, Kraus, Cossotto - Gianandrea Gavazzeni - Orchestra e Coro del Maggio Musicale Fiorentino / Verdi: Rigoletto - CD2
Used drive : TS8XDVDRTranscend Adapter: 2 ID: 1
Read mode : SecureUtilize accurate stream : YesDefeat audio cache : YesMake use of C2 pointers : No
Read offset correction : 6Overread into Lead-In and Lead-Out : NoFill up missing offset samples with silence : YesDelete leading and trailing silent blocks : NoNull samples used in CRC calculations : YesUsed interface : Native Win32 interface for Win NT & 2000
Used output format : Monkey's Audio Lossless EncoderSelected bitrate : Normal Lossless CompressionQuality : HighAdd ID3 tag : YesCommand line compressor : C:\Program Files (x86)\Monkey's Audio\MAC.exeAdditional command line options : %source% %dest% -c3000
TOC of the extracted CD
Track | Start | Length | Start sector | End sector --------------------------------------------------------- 1 | 0:00.00 | 2:34.61 | 0 | 11610 2 | 2:34.61 | 2:45.41 | 11611 | 24026 3 | 5:20.27 | 2:34.34 | 24027 | 35610 4 | 7:54.61 | 2:09.51 | 35611 | 45336 5 | 10:04.37 | 3:44.67 | 45337 | 62203 6 | 13:49.29 | 4:21.19 | 62204 | 81797 7 | 18:10.48 | 1:34.12 | 81798 | 88859 8 | 19:44.60 | 0:21.59 | 88860 | 90493 9 | 20:06.44 | 4:10.03 | 90494 | 109246 10 | 24:16.47 | 2:52.57 | 109247 | 122203 11 | 27:09.29 | 1:00.73 | 122204 | 126776 12 | 28:10.27 | 2:27.01 | 126777 | 137802 13 | 30:37.28 | 2:20.24 | 137803 | 148326 14 | 32:57.52 | 2:32.54 | 148327 | 159780 15 | 35:30.31 | 0:50.09 | 159781 | 163539 16 | 36:20.40 | 1:45.34 | 163540 | 171448 17 | 38:05.74 | 4:34.16 | 171449 | 192014 18 | 42:40.15 | 2:41.61 | 192015 | 204150 19 | 45:22.01 | 8:41.39 | 204151 | 243264 20 | 54:03.40 | 5:02.14 | 243265 | 265928 21 | 59:05.54 | 1:50.20 | 265929 | 274198 22 | 60:55.74 | 4:22.53 | 274199 | 293901
Range status and errors
Selected range
Filename C:\Users\Music\Verdi - RIGOLETTO - Bastianini, Scotto, Kraus, Cossotto - Gavazzeni (1960)\CD2.wav
Peak level 94.7 % Extraction speed 5.0 X Range quality 100.0 % Test CRC FACEBD1D Copy CRC FACEBD1D Copy OK
No errors occurred
AccurateRip summary
Track 1 not present in databaseTrack 2 not present in databaseTrack 3 not present in databaseTrack 4 not present in databaseTrack 5 not present in databaseTrack 6 not present in databaseTrack 7 not present in databaseTrack 8 not present in databaseTrack 9 not present in databaseTrack 10 not present in databaseTrack 11 not present in databaseTrack 12 not present in databaseTrack 13 not present in databaseTrack 14 not present in databaseTrack 15 not present in databaseTrack 16 not present in databaseTrack 17 not present in databaseTrack 18 not present in databaseTrack 19 not present in databaseTrack 20 not present in databaseTrack 21 not present in databaseTrack 22 not present in database
None of the tracks are present in the AccurateRip database
End of status report
==== Log checksum BFF4E8F1FE4DDC82A3E409A7BDCA3224150041B0ADBAADAB9A074BA37E437ADD ====

Содержание индексной карты (.CUE)CD1

REM GENRE OperaREM DATE 1960REM DISCID 1D0D4A14REM COMMENT "ExactAudioCopy v1.0b3"PERFORMER "Bastianini, Scotto, Kraus, Cossotto - Gianandrea Gavazzeni - Orchestra e Coro del Maggio Musicale Fiorentino"TITLE "Verdi: Rigoletto - CD1"FILE "CD1.ape" WAVE TRACK 01 AUDIO TITLE "Atto I, Scena 1 - Prelude" PERFORMER "Bastianini, Scotto, Kraus, Cossotto - Gianandrea Gavazzeni - Orchestra e Coro del Maggio Musicale Fiorentino" FLAGS DCP INDEX 01 00:00:00 TRACK 02 AUDIO TITLE "Atto I, Scena 1 - Della mia bella incognita borghese" PERFORMER "Bastianini, Scotto, Kraus, Cossotto - Gianandrea Gavazzeni - Orchestra e Coro del Maggio Musicale Fiorentino" FLAGS DCP INDEX 01 02:10:16 TRACK 03 AUDIO TITLE "Atto I, Scena 1 - Questa o quella" PERFORMER "Bastianini, Scotto, Kraus, Cossotto - Gianandrea Gavazzeni - Orchestra e Coro del Maggio Musicale Fiorentino" FLAGS DCP INDEX 01 04:04:55 TRACK 04 AUDIO TITLE "Atto I, Scena 1 - Partite?...Crudele!" PERFORMER "Bastianini, Scotto, Kraus, Cossotto - Gianandrea Gavazzeni - Orchestra e Coro del Maggio Musicale Fiorentino" FLAGS DCP INDEX 01 05:46:67 TRACK 05 AUDIO TITLE "Atto I, Scena 1 - In testa che avete" PERFORMER "Bastianini, Scotto, Kraus, Cossotto - Gianandrea Gavazzeni - Orchestra e Coro del Maggio Musicale Fiorentino" FLAGS DCP INDEX 01 07:21:43 TRACK 06 AUDIO TITLE "Atto I, Scena 1 - Voi congiuraste contro noi" PERFORMER "Bastianini, Scotto, Kraus, Cossotto - Gianandrea Gavazzeni - Orchestra e Coro del Maggio Musicale Fiorentino" FLAGS DCP INDEX 01 11:20:74 TRACK 07 AUDIO TITLE "Atto I, Scena 2 - Quel vecchio maledivami!" PERFORMER "Bastianini, Scotto, Kraus, Cossotto - Gianandrea Gavazzeni - Orchestra e Coro del Maggio Musicale Fiorentino" FLAGS DCP INDEX 01 15:51:22 TRACK 08 AUDIO TITLE "Atto I, Scena 2 - Pari siamo!" PERFORMER "Bastianini, Scotto, Kraus, Cossotto - Gianandrea Gavazzeni - Orchestra e Coro del Maggio Musicale Fiorentino" FLAGS DCP INDEX 01 21:06:50 TRACK 09 AUDIO TITLE "Atto I, Scena 2 - Figlia! ... Mio padre!" PERFORMER "Bastianini, Scotto, Kraus, Cossotto - Gianandrea Gavazzeni - Orchestra e Coro del Maggio Musicale Fiorentino" FLAGS DCP INDEX 01 24:51:32 TRACK 10 AUDIO TITLE "Atto I, Scena 2 - Deh, non parlare al misero" PERFORMER "Bastianini, Scotto, Kraus, Cossotto - Gianandrea Gavazzeni - Orchestra e Coro del Maggio Musicale Fiorentino" FLAGS DCP INDEX 01 26:54:55 TRACK 11 AUDIO TITLE "Atto I, Scena 2 - Gia da tre lune son qui venuta" PERFORMER "Bastianini, Scotto, Kraus, Cossotto - Gianandrea Gavazzeni - Orchestra e Coro del Maggio Musicale Fiorentino" FLAGS DCP INDEX 01 30:14:36 TRACK 12 AUDIO TITLE "Atto I, Scena 2 - Ah! veglia, o donna" PERFORMER "Bastianini, Scotto, Kraus, Cossotto - Gianandrea Gavazzeni - Orchestra e Coro del Maggio Musicale Fiorentino" FLAGS DCP INDEX 01 31:28:26 TRACK 13 AUDIO TITLE "Atto I, Scena 2 - Giovanna, ho dei rimorsi" PERFORMER "Bastianini, Scotto, Kraus, Cossotto - Gianandrea Gavazzeni - Orchestra e Coro del Maggio Musicale Fiorentino" FLAGS DCP INDEX 01 36:53:41 TRACK 14 AUDIO TITLE "Atto I, Scena 2 - E il sol dell'anima" PERFORMER "Bastianini, Scotto, Kraus, Cossotto - Gianandrea Gavazzeni - Orchestra e Coro del Maggio Musicale Fiorentino" FLAGS DCP INDEX 01 39:30:23 TRACK 15 AUDIO TITLE "Atto I, Scena 2 - Che m'ami, deh, ripetimi" PERFORMER "Bastianini, Scotto, Kraus, Cossotto - Gianandrea Gavazzeni - Orchestra e Coro del Maggio Musicale Fiorentino" FLAGS DCP INDEX 01 42:35:42 TRACK 16 AUDIO TITLE "Atto I, Scena 2 - Addio... speranza ed anima" PERFORMER "Bastianini, Scotto, Kraus, Cossotto - Gianandrea Gavazzeni - Orchestra e Coro del Maggio Musicale Fiorentino" FLAGS DCP INDEX 01 43:26:21 TRACK 17 AUDIO TITLE "Atto I, Scena 2 - Gualtier Malde..." PERFORMER "Bastianini, Scotto, Kraus, Cossotto - Gianandrea Gavazzeni - Orchestra e Coro del Maggio Musicale Fiorentino" FLAGS DCP INDEX 01 44:20:28 TRACK 18 AUDIO TITLE "Atto I, Scena 2 - Caro nome" PERFORMER "Bastianini, Scotto, Kraus, Cossotto - Gianandrea Gavazzeni - Orchestra e Coro del Maggio Musicale Fiorentino" FLAGS DCP INDEX 01 45:06:00 TRACK 19 AUDIO TITLE "Atto I, Scena 2 - Riedo! perche?" PERFORMER "Bastianini, Scotto, Kraus, Cossotto - Gianandrea Gavazzeni - Orchestra e Coro del Maggio Musicale Fiorentino" FLAGS DCP INDEX 01 51:36:29 TRACK 20 AUDIO TITLE "Atto I, Scena 2 - Zitti, zitti" PERFORMER "Bastianini, Scotto, Kraus, Cossotto - Gianandrea Gavazzeni - Orchestra e Coro del Maggio Musicale Fiorentino" FLAGS DCP INDEX 01 53:51:62

CD2

REM GENRE OperaREM DATE 1960REM DISCID 400F4E16REM COMMENT "ExactAudioCopy v1.0b3"PERFORMER "Bastianini, Scotto, Kraus, Cossotto - Gianandrea Gavazzeni - Orchestra e Coro..."TITLE "Verdi: Rigoletto - CD2"FILE "CD2.ape" WAVE TRACK 01 AUDIO TITLE "Atto II - Ella mi fu rapita" PERFORMER "Bastianini, Scotto, Kraus, Cossotto - Gianandrea Gavazzeni - Orchestra e Coro..." INDEX 01 00:00:00 TRACK 02 AUDIO TITLE "Atto II - Parmi veder le lagrime" PERFORMER "Bastianini, Scotto, Kraus, Cossotto - Gianandrea Gavazzeni - Orchestra e Coro..." INDEX 01 02:34:61 TRACK 03 AUDIO TITLE "Atto II - Duca, duca!" PERFORMER "Bastianini, Scotto, Kraus, Cossotto - Gianandrea Gavazzeni - Orchestra e Coro..." INDEX 01 05:20:27 TRACK 04 AUDIO TITLE "Atto II - Possente amor mi chiama" PERFORMER "Bastianini, Scotto, Kraus, Cossotto - Gianandrea Gavazzeni - Orchestra e Coro..." INDEX 01 07:54:61 TRACK 05 AUDIO TITLE "Atto II - Povero Rigoletto" PERFORMER "Bastianini, Scotto, Kraus, Cossotto - Gianandrea Gavazzeni - Orchestra e Coro..." INDEX 01 10:04:37 TRACK 06 AUDIO TITLE "Atto II - Cortigiani, vil razza dannata" PERFORMER "Bastianini, Scotto, Kraus, Cossotto - Gianandrea Gavazzeni - Orchestra e Coro..." INDEX 01 13:49:29 TRACK 07 AUDIO TITLE "Atto II - Mio padre!" PERFORMER "Bastianini, Scotto, Kraus, Cossotto - Gianandrea Gavazzeni - Orchestra e Coro..." INDEX 01 18:10:48 TRACK 08 AUDIO TITLE "Atto II - Parla... siam soli" PERFORMER "Bastianini, Scotto, Kraus, Cossotto - Gianandrea Gavazzeni - Orchestra e Coro..." INDEX 01 19:44:60 TRACK 09 AUDIO TITLE "Atto II - Tutte le feste al tempio" PERFORMER "Bastianini, Scotto, Kraus, Cossotto - Gianandrea Gavazzeni - Orchestra e Coro..." INDEX 01 20:06:44 TRACK 10 AUDIO TITLE "Atto II - Piangi, fanciulla" PERFORMER "Bastianini, Scotto, Kraus, Cossotto - Gianandrea Gavazzeni - Orchestra e Coro..." INDEX 01 24:16:47 TRACK 11 AUDIO TITLE "Atto II - Compiuto pur quanto a fare mi resta" PERFORMER "Bastianini, Scotto, Kraus, Cossotto - Gianandrea Gavazzeni - Orchestra e Coro..." INDEX 01 27:09:29 TRACK 12 AUDIO TITLE "Atto II - No, vecchio, t'inganni... Si, vendeta" PERFORMER "Bastianini, Scotto, Kraus, Cossotto - Gianandrea Gavazzeni - Orchestra e Coro..." INDEX 01 28:10:27 TRACK 13 AUDIO TITLE "Atto III - E l'ami?" PERFORMER "Bastianini, Scotto, Kraus, Cossotto - Gianandrea Gavazzeni - Orchestra e Coro..." INDEX 01 30:37:28 TRACK 14 AUDIO TITLE "Atto III - La donna e mobile" PERFORMER "Bastianini, Scotto, Kraus, Cossotto - Gianandrea Gavazzeni - Orchestra e Coro..." INDEX 01 32:57:52 TRACK 15 AUDIO TITLE "Atto III - E la il vostr'uomo..." PERFORMER "Bastianini, Scotto, Kraus, Cossotto - Gianandrea Gavazzeni - Orchestra e Coro..." INDEX 01 35:30:31 TRACK 16 AUDIO TITLE "Atto III - Un di, se ben rammentomi" PERFORMER "Bastianini, Scotto, Kraus, Cossotto - Gianandrea Gavazzeni - Orchestra e Coro..." INDEX 01 36:20:40 TRACK 17 AUDIO TITLE "Atto III - Bella figlia dell'amore" PERFORMER "Bastianini, Scotto, Kraus, Cossotto - Gianandrea Gavazzeni - Orchestra e Coro..." INDEX 01 38:05:74 TRACK 18 AUDIO TITLE "Atto III - M'odi, ritorna a casa" PERFORMER "Bastianini, Scotto, Kraus, Cossotto - Gianandrea Gavazzeni - Orchestra e Coro..." INDEX 01 42:40:15 TRACK 19 AUDIO TITLE "Atto III - Povero giovin! grazioso tanto!" PERFORMER "Bastianini, Scotto, Kraus, Cossotto - Gianandrea Gavazzeni - Orchestra e Coro..." INDEX 01 45:22:01 TRACK 20 AUDIO TITLE "Atto III - Della vendetta alfin giunge l'istante" PERFORMER "Bastianini, Scotto, Kraus, Cossotto - Gianandrea Gavazzeni - Orchestra e Coro..." INDEX 01 54:03:40 TRACK 21 AUDIO TITLE "Atto III - Chi e mai, chi e qui in sua vece?" PERFORMER "Bastianini, Scotto, Kraus, Cossotto - Gianandrea Gavazzeni - Orchestra e Coro..." INDEX 01 59:05:54 TRACK 22 AUDIO TITLE "Atto III - V'ho ingannato" PERFORMER "Bastianini, Scotto, Kraus, Cossotto - Gianandrea Gavazzeni - Orchestra e Coro..." INDEX 01 60:55:74



Показать сообщения:    

Текущее время: 03-Дек 16:43

Часовой пояс: UTC + 3


Вы не можете начинать темы
Вы не можете отвечать на сообщения
Вы не можете редактировать свои сообщения
Вы не можете удалять свои сообщения
Вы не можете голосовать в опросах
Вы не можете прикреплять файлы к сообщениям
Вы не можете скачивать файлы