(Opera, Vocal) Carlo Bergonzi - Verdi: 31 Tenor Arias (Collection of Operatic Highlights by Giuseppe Verdi), Nello Santi, Lamberto Gardelli - 1972-1974 - studio recording / 1991, FLAC (image+.cue), lossless


 

[Цитировать]

Carlo Bergonzi - Giuseppe Verdi: 31 Tenor Arias
Жанр: Opera, Vocal
Страна-производитель диска: США
Год издания диска: 1991
Издатель (лейбл): Philips
Дата записи: 1972-1974
Аудиокодек: FLAC
Тип рипа: image+.cue
Битрейт аудио: lossless
Продолжительность: 161:22
Источник: релизер (Andrea Zaccaria)
Исполнители:
Carlo Bergonzi, tenor,
Nello Santi, Conductor,
New Philharmonia Orchestra,
Lamberto Gardelli, Conductor (CD 1: tracks 8, 9; CD 2: tracks 1, 2),
Royal Philharmonic Orchestra,
Ambrosian Singers, Chorus.
Recorded at Studio, Wembley Town Hall, London, United Kingdom, December, 9, 10, 1974;
same recording's location, September, 1972 - excerpts from Attila.

Лог создания рипаЛог создания рипа CD 1

Exact Audio Copy V1.0 beta 1 from 15. November 2010
EAC extraction logfile from 28. July 2014, 11:55
1 Carlo Bergonzi, Nello Santi (cond.), Lamberto Gardelli (cond. Attila) / Verdi 31 Tenor Arias CD 1
Used drive : PLEXTOR DVDR PX-891SA Adapter: 1 ID: 0
Read mode : SecureUtilize accurate stream : YesDefeat audio cache : NoMake use of C2 pointers : No
Read offset correction : 6Overread into Lead-In and Lead-Out : NoFill up missing offset samples with silence : YesDelete leading and trailing silent blocks : NoNull samples used in CRC calculations : NoUsed interface : Native Win32 interface for Win NT & 2000
Used output format : Internal WAV RoutinesSample format : 44.100 Hz; 16 Bit; Stereo
TOC of the extracted CD
Track | Start | Length | Start sector | End sector --------------------------------------------------------- 1 | 0:00.32 | 3:49.00 | 32 | 17206 2 | 3:49.32 | 2:17.23 | 17207 | 27504 3 | 6:06.55 | 4:47.00 | 27505 | 49029 4 | 10:53.55 | 3:23.02 | 49030 | 64256 5 | 14:16.57 | 5:57.28 | 64257 | 91059 6 | 20:14.10 | 6:17.17 | 91060 | 119351 7 | 26:31.27 | 4:58.08 | 119352 | 141709 8 | 31:29.35 | 13:31.52 | 141710 | 202586 9 | 45:01.12 | 5:28.28 | 202587 | 227214 10 | 50:29.40 | 3:31.00 | 227215 | 243039
Range status and errors
Selected range
Filename D:\Andrea\DOWNLOADS_AUDIO\1 Carlo Bergonzi, Nello Santi (cond.), Lamberto Gardelli (cond. Attila) - Verdi 31 Tenor Arias.wav
Peak level 97.9 % Extraction speed 0.3 X Range quality 100.0 % Copy CRC 86772204 Copy OK
No errors occurred
AccurateRip summary
Track 1 accurately ripped (confidence 1) [E01D45CF]Track 2 accurately ripped (confidence 1) [CD89A9CE]Track 3 accurately ripped (confidence 1) [DB8EA74C]Track 4 accurately ripped (confidence 1) [0A104F28]Track 5 accurately ripped (confidence 1) [A422D34B]Track 6 accurately ripped (confidence 1) [5C79C00D]Track 7 accurately ripped (confidence 1) [87DAD251]Track 8 accurately ripped (confidence 1) [B3C4376E]Track 9 accurately ripped (confidence 1) [E9CC62D1]Track 10 accurately ripped (confidence 1) [FCC109F6]
All tracks accurately ripped
End of status report

Лог создания рипа CD 2

Exact Audio Copy V1.0 beta 1 from 15. November 2010
EAC extraction logfile from 28. July 2014, 12:15
2 Carlo Bergonzi, Lamberto Gardelli (cond.-I Masnadieri), Nello Santi (cond.) / Verdi 31 Tenor Arias CD 2
Used drive : PLEXTOR DVDR PX-891SA Adapter: 1 ID: 0
Read mode : SecureUtilize accurate stream : YesDefeat audio cache : NoMake use of C2 pointers : No
Read offset correction : 6Overread into Lead-In and Lead-Out : NoFill up missing offset samples with silence : YesDelete leading and trailing silent blocks : NoNull samples used in CRC calculations : NoUsed interface : Native Win32 interface for Win NT & 2000
Used output format : Internal WAV RoutinesSample format : 44.100 Hz; 16 Bit; Stereo
TOC of the extracted CD
Track | Start | Length | Start sector | End sector --------------------------------------------------------- 1 | 0:00.33 | 10:52.00 | 33 | 48932 2 | 10:52.33 | 4:05.00 | 48933 | 67307 3 | 14:57.33 | 4:19.00 | 67308 | 86732 4 | 19:16.33 | 4:11.00 | 86733 | 105557 5 | 23:27.33 | 5:20.00 | 105558 | 129557 6 | 28:47.33 | 1:59.00 | 129558 | 138482 7 | 30:46.33 | 5:21.00 | 138483 | 162557 8 | 36:07.33 | 2:24.00 | 162558 | 173357 9 | 38:31.33 | 8:04.00 | 173358 | 209657 10 | 46:35.33 | 3:40.00 | 209658 | 226157 11 | 50:15.33 | 9:33.00 | 226158 | 269132
Range status and errors
Selected range
Filename D:\Andrea\DOWNLOADS_AUDIO\2 Carlo Bergonzi, Lamberto Gardelli (cond.-I Masnadieri), Nello Santi (cond.) - Verdi 31 Tenor Arias.wav
Peak level 99.5 % Extraction speed 0.8 X Range quality 100.0 % Copy CRC 3C96C52C Copy OK
No errors occurred
AccurateRip summary
Track 1 cannot be verified as accurate (confidence 5) [1EEFE131], AccurateRip returned [F6956468]Track 2 cannot be verified as accurate (confidence 5) [1E130004], AccurateRip returned [2AAF6A10]Track 3 cannot be verified as accurate (confidence 5) [A703CD42], AccurateRip returned [F8CAAA10]Track 4 cannot be verified as accurate (confidence 5) [1D76A4F6], AccurateRip returned [4A4861A0]Track 5 cannot be verified as accurate (confidence 5) [E299A488], AccurateRip returned [1DD62588]Track 6 cannot be verified as accurate (confidence 5) [A4935E82], AccurateRip returned [3259E76E]Track 7 cannot be verified as accurate (confidence 5) [D018A73C], AccurateRip returned [6525474C]Track 8 cannot be verified as accurate (confidence 5) [9B3287A1], AccurateRip returned [7B345153]Track 9 cannot be verified as accurate (confidence 5) [B05E2AEC], AccurateRip returned [B6C6120D]Track 10 cannot be verified as accurate (confidence 5) [F1EA4533], AccurateRip returned [E1091400]Track 11 cannot be verified as accurate (confidence 5) [F654F375], AccurateRip returned [27F58B85]
No tracks could be verified as accurateYou may have a different pressing from the one(s) in the database
End of status report

Лог создания рипа CD 3

Exact Audio Copy V1.0 beta 1 from 15. November 2010
EAC extraction logfile from 28. July 2014, 12:29
3 Carlo Bergonzi, Nello Santi (cond.) / Verdi 31 Tenor Arias CD 3
Used drive : PLEXTOR DVDR PX-891SA Adapter: 1 ID: 0
Read mode : SecureUtilize accurate stream : YesDefeat audio cache : NoMake use of C2 pointers : No
Read offset correction : 6Overread into Lead-In and Lead-Out : NoFill up missing offset samples with silence : YesDelete leading and trailing silent blocks : NoNull samples used in CRC calculations : NoUsed interface : Native Win32 interface for Win NT & 2000
Used output format : Internal WAV RoutinesSample format : 44.100 Hz; 16 Bit; Stereo
TOC of the extracted CD
Track | Start | Length | Start sector | End sector --------------------------------------------------------- 1 | 0:00.33 | 4:55.00 | 33 | 22157 2 | 4:55.33 | 2:22.00 | 22158 | 32807 3 | 7:17.33 | 3:27.00 | 32808 | 48332 4 | 10:44.33 | 5:13.00 | 48333 | 71807 5 | 15:57.33 | 9:44.00 | 71808 | 115607 6 | 25:41.33 | 4:30.00 | 115608 | 135857 7 | 30:11.33 | 4:47.00 | 135858 | 157382 8 | 34:58.33 | 4:05.00 | 157383 | 175757 9 | 39:03.33 | 5:19.00 | 175758 | 199682 10 | 44:22.33 | 4:12.00 | 199683 | 218582
Range status and errors
Selected range
Filename D:\Andrea\DOWNLOADS_AUDIO\3 Carlo Bergonzi, Nello Santi (cond.) - Verdi 31 Tenor Arias.wav
Peak level 99.6 % Extraction speed 0.4 X Range quality 100.0 % Copy CRC 43183A20 Copy OK
No errors occurred
AccurateRip summary
Track 1 cannot be verified as accurate (confidence 5) [0EF39A6A], AccurateRip returned [10BF8B3C]Track 2 cannot be verified as accurate (confidence 5) [9538DE2B], AccurateRip returned [69FC478F]Track 3 cannot be verified as accurate (confidence 5) [5E8AD3C0], AccurateRip returned [31F600A4]Track 4 cannot be verified as accurate (confidence 5) [A4AED5A4], AccurateRip returned [B2C38C78]Track 5 cannot be verified as accurate (confidence 5) [3B632506], AccurateRip returned [640E6F01]Track 6 cannot be verified as accurate (confidence 5) [C1611422], AccurateRip returned [CEF57960]Track 7 cannot be verified as accurate (confidence 5) [4A6DDD05], AccurateRip returned [ED3B4AE1]Track 8 cannot be verified as accurate (confidence 5) [E2421660], AccurateRip returned [0B59A26A]Track 9 cannot be verified as accurate (confidence 5) [BB92BDFB], AccurateRip returned [707A61F7]Track 10 cannot be verified as accurate (confidence 5) [ACC47A11], AccurateRip returned [07C60680]
No tracks could be verified as accurateYou may have a different pressing from the one(s) in the database
End of status report

Содержание индексной карты (.CUE)Содержание индексной карты (.CUE) CD 1

REM GENRE OperaREM DATE 1975REM DISCID 800CA80AREM COMMENT "ExactAudioCopy v1.0b1"CATALOG 0028943248723PERFORMER "1 Carlo Bergonzi, Nello Santi (cond.), Lamberto Gardelli (cond. Attila)"TITLE "Verdi 31 Tenor Arias CD 1"FILE "1 Carlo Bergonzi, Nello Santi (cond.), Lamberto Gardelli (cond. Attila) - Verdi 31 Tenor Arias.wav" WAVE TRACK 01 AUDIO TITLE "Carlo Bergonzi, Nello Santi (cond.) / Oberto: Ciel che feci!" PERFORMER "1 Carlo Bergonzi, Nello Santi (cond.), Lamberto Gardelli (cond. Attila)" INDEX 00 00:00:00 INDEX 01 00:00:32 TRACK 02 AUDIO TITLE "Carlo Bergonzi, Nello Santi (cond.) / Un giorno di regno: Pietoso al lungo pi..." PERFORMER "1 Carlo Bergonzi, Nello Santi (cond.), Lamberto Gardelli (cond. Attila)" INDEX 00 03:45:37 INDEX 01 03:49:32 TRACK 03 AUDIO TITLE "Carlo Bergonzi, Nello Santi (cond.) / I Lombardi: Come poteva un angelo" PERFORMER "1 Carlo Bergonzi, Nello Santi (cond.), Lamberto Gardelli (cond. Attila)" INDEX 00 06:05:22 INDEX 01 06:06:55 TRACK 04 AUDIO TITLE "Carlo Bergonzi, Nello Santi (cond.) / Ernani: Merce diletti amici" PERFORMER "1 Carlo Bergonzi, Nello Santi (cond.), Lamberto Gardelli (cond. Attila)" INDEX 00 10:45:12 INDEX 01 10:53:55 TRACK 05 AUDIO TITLE "Carlo Bergonzi, Nello Santi (cond.) / I due Foscari: Notte, perpetua notte" PERFORMER "1 Carlo Bergonzi, Nello Santi (cond.), Lamberto Gardelli (cond. Attila)" INDEX 00 14:10:67 INDEX 01 14:16:57 TRACK 06 AUDIO TITLE "Carlo Bergonzi, Nello Santi (cond.) / Giovanna d'Arco: Sotto una quercia" PERFORMER "1 Carlo Bergonzi, Nello Santi (cond.), Lamberto Gardelli (cond. Attila)" INDEX 00 20:09:40 INDEX 01 20:14:10 TRACK 07 AUDIO TITLE "Carlo Bergonzi, Nello Santi (cond.) / Alzira: Irne lungi" PERFORMER "1 Carlo Bergonzi, Nello Santi (cond.), Lamberto Gardelli (cond. Attila)" INDEX 00 26:24:60 INDEX 01 26:31:27 TRACK 08 AUDIO TITLE "Carlo Bergonzi, Lamberto Gardelli / Attila: Qual notte!" PERFORMER "1 Carlo Bergonzi, Nello Santi (cond.), Lamberto Gardelli (cond. Attila)" INDEX 00 31:23:10 INDEX 01 31:29:35 TRACK 09 AUDIO TITLE "Carlo Bergonzi, Lamberto Gardelli / Attila: Che non avrebbe il misero" PERFORMER "1 Carlo Bergonzi, Nello Santi (cond.), Lamberto Gardelli (cond. Attila)" INDEX 00 44:56:55 INDEX 01 45:01:12 TRACK 10 AUDIO TITLE "Carlo Bergonzi, Nello Santi (cond.) / Macbeth: Ah, la paterna mano" PERFORMER "1 Carlo Bergonzi, Nello Santi (cond.), Lamberto Gardelli (cond. Attila)" INDEX 00 50:22:40 INDEX 01 50:29:40

Содержание индексной карты (.CUE) CD 2

REM GENRE OperaREM DATE 1975REM DISCID AF0E040BREM COMMENT "ExactAudioCopy v1.0b1"CATALOG 0028943248822PERFORMER "2 Carlo Bergonzi, Lamberto Gardelli (cond.-I Masnadieri), Nello Santi (cond.)"TITLE "Verdi 31 Tenor Arias CD 2"FILE "2 Carlo Bergonzi, Lamberto Gardelli (cond.-I Masnadieri), Nello Santi (cond.) - Verdi 31 Tenor Arias.wav" WAVE TRACK 01 AUDIO TITLE "I Masnadieri: O mio castel paterno" PERFORMER "2 Carlo Bergonzi, Lamberto Gardelli (cond.-I Masnadieri), Nello Santi (cond.)" INDEX 00 00:00:00 INDEX 01 00:00:33 TRACK 02 AUDIO TITLE "I Masnadieri: Di ladroni attorniato" PERFORMER "2 Carlo Bergonzi, Lamberto Gardelli (cond.-I Masnadieri), Nello Santi (cond.)" INDEX 00 10:50:33 INDEX 01 10:52:33 TRACK 03 AUDIO TITLE "Il Corsaro: Eccomi prigioniero!" PERFORMER "2 Carlo Bergonzi, Lamberto Gardelli (cond.-I Masnadieri), Nello Santi (cond.)" INDEX 00 14:56:33 INDEX 01 14:57:33 TRACK 04 AUDIO TITLE "La battaglia di Legnano: La pia materna mano" PERFORMER "2 Carlo Bergonzi, Lamberto Gardelli (cond.-I Masnadieri), Nello Santi (cond.)" INDEX 00 19:12:33 INDEX 01 19:16:33 TRACK 05 AUDIO TITLE "Luisa Miller: Quando le sere al placido" PERFORMER "2 Carlo Bergonzi, Lamberto Gardelli (cond.-I Masnadieri), Nello Santi (cond.)" INDEX 00 23:24:33 INDEX 01 23:27:33 TRACK 06 AUDIO TITLE "Rigoletto: Questa o quella" PERFORMER "2 Carlo Bergonzi, Lamberto Gardelli (cond.-I Masnadieri), Nello Santi (cond.)" INDEX 00 28:43:33 INDEX 01 28:47:33 TRACK 07 AUDIO TITLE "Rigoletto: Ella mi fu rapita" PERFORMER "2 Carlo Bergonzi, Lamberto Gardelli (cond.-I Masnadieri), Nello Santi (cond.)" INDEX 00 30:45:33 INDEX 01 30:46:33 TRACK 08 AUDIO TITLE "Rigoletto: La donna e mobile" PERFORMER "2 Carlo Bergonzi, Lamberto Gardelli (cond.-I Masnadieri), Nello Santi (cond.)" INDEX 00 36:06:33 INDEX 01 36:07:33 TRACK 09 AUDIO TITLE "Il Trovatore: Di quella pira" PERFORMER "2 Carlo Bergonzi, Lamberto Gardelli (cond.-I Masnadieri), Nello Santi (cond.)" INDEX 00 38:29:33 INDEX 01 38:31:33 TRACK 10 AUDIO TITLE "La Traviata: De miei bollenti spiriti" PERFORMER "2 Carlo Bergonzi, Lamberto Gardelli (cond.-I Masnadieri), Nello Santi (cond.)" INDEX 00 46:32:33 INDEX 01 46:35:33 TRACK 11 AUDIO TITLE "I vespri siciliani: Giorno di pianto" PERFORMER "2 Carlo Bergonzi, Lamberto Gardelli (cond.-I Masnadieri), Nello Santi (cond.)" INDEX 00 50:14:33 INDEX 01 50:15:33

Содержание индексной карты (.CUE) CD 3

REM GENRE OperaREM DATE 1975REM DISCID 880B620AREM COMMENT "ExactAudioCopy v1.0b1"CATALOG 0028943248921PERFORMER "3 Carlo Bergonzi, Nello Santi (cond.)"TITLE "Verdi 31 Tenor Arias CD 3"FILE "3 Carlo Bergonzi, Nello Santi (cond.) - Verdi 31 Tenor Arias.wav" WAVE TRACK 01 AUDIO TITLE "Simon Boccanegra: Sento avvampar" PERFORMER "3 Carlo Bergonzi, Nello Santi (cond.)" INDEX 00 00:00:00 INDEX 01 00:00:33 TRACK 02 AUDIO TITLE "Aroldo: Sotto il sol di Siria ardente" PERFORMER "3 Carlo Bergonzi, Nello Santi (cond.)" INDEX 00 04:51:33 INDEX 01 04:55:33 TRACK 03 AUDIO TITLE "Un ballo in maschera: Di' tu se fedele" PERFORMER "3 Carlo Bergonzi, Nello Santi (cond.)" INDEX 00 07:14:33 INDEX 01 07:17:33 TRACK 04 AUDIO TITLE "Un ballo in maschera: Ma se m'e forza perderti" PERFORMER "3 Carlo Bergonzi, Nello Santi (cond.)" INDEX 00 10:43:33 INDEX 01 10:44:33 TRACK 05 AUDIO TITLE "La forza del destino: Oh tu che in seno agli angeli" PERFORMER "3 Carlo Bergonzi, Nello Santi (cond.)" INDEX 00 15:55:33 INDEX 01 15:57:33 TRACK 06 AUDIO TITLE "Don Carlo: Io la vidi e al suo sorriso" PERFORMER "3 Carlo Bergonzi, Nello Santi (cond.)" INDEX 00 25:38:33 INDEX 01 25:41:33 TRACK 07 AUDIO TITLE "Aida: Celeste Aida" PERFORMER "3 Carlo Bergonzi, Nello Santi (cond.)" INDEX 00 30:08:33 INDEX 01 30:11:33 TRACK 08 AUDIO TITLE "Otello: Dio! mi potevi scagliar" PERFORMER "3 Carlo Bergonzi, Nello Santi (cond.)" INDEX 00 34:57:33 INDEX 01 34:58:33 TRACK 09 AUDIO TITLE "Otello: Niun mi tema" PERFORMER "3 Carlo Bergonzi, Nello Santi (cond.)" INDEX 01 39:03:33 TRACK 10 AUDIO TITLE "Falstaff: Dal labbro il canto estasiato" PERFORMER "3 Carlo Bergonzi, Nello Santi (cond.)" INDEX 00 44:19:33 INDEX 01 44:22:33

Треклист

Giuseppe Verdi
Disc 1 [54:06]:
1. Oberto: Ciel che feci!
2. Un giorno di regno: Pietoso al lungo pianto
3. I Lombardi: Come poteva un angelo
4. Ernani: Merce diletti amici
5. I due Foscari: Notte, perpetua notte
6. Giovanna d'Arco: Sotto una quercia
7. Alzira: Irne lungi
8. Attila: Qual notte!
9. Attila: Che non avrebbe il misero
10. Macbeth: Ah, la paterna mano
Disc 2 [59:48]:
1. I Masnadieri: O mio castel paterno
2. I Masnadieri: Di ladroni attorniato
3. Il Corsaro: Eccomi prigioniero!
4. La battaglia di Legnano: La pia materna mano
5. Luisa Miller: Quando le sere al placido
6. Rigoletto: Questa o quella
7. Rigoletto: Ella mi fu rapita
8. Rigoletto: La donna e mobile
9. Il Trovatore: Di quella pira
10. La Traviata: De miei bollenti spiriti
11. I vespri siciliani: Giorno di pianto
Disc 3 [48:34]:
1. Simon Boccanegra: Sento avvampar
2. Aroldo: Sotto il sol di Siria ardente
3. Un ballo in maschera: Di' tu se fedele
4. Un ballo in maschera: Ma se m'e forza perderti
5. La forza del destino: Oh tu che in seno agli angeli
6. Don Carlo: Io la vidi e al suo sorriso
7. Aida: Celeste Aida
8. Otello: Dio! mi potevi scagliar
9. Otello: Niun mi tema
10. Falstaff: Dal labbro il canto estasiato



Показать сообщения:    

Текущее время: 06-Дек 15:15

Часовой пояс: UTC + 3


Вы не можете начинать темы
Вы не можете отвечать на сообщения
Вы не можете редактировать свои сообщения
Вы не можете удалять свои сообщения
Вы не можете голосовать в опросах
Вы не можете прикреплять файлы к сообщениям
Вы не можете скачивать файлы