(Opera) Martinu - Ariane (Lindsley, Dolezal, Kopp, Novak - Czech Philharmonic Orchestra, Neumann) - 2000, APE (image+.cue) lossless


 

[Цитировать]

Bohuslav Martinu (1890-1959) - Ariane
Жанр: Opera
Страна-производитель диска: Czech Republic
Год издания диска: 2000
Издатель (лейбл): Supraphon
Номер по каталогу: SU 3524-2 631
Дата записи: 1978
Аудиокодек: APE
Тип рипа: image+.cue
Битрейт аудио: lossless
Продолжительность: 43'44
Источник: собственный рип
Наличие сканов в содержимом раздачи: да
Треклист:
1. Sinfonia No. 1
2. Scene 1
3. Sinfonia No. 2
4. Scene 2
5. Sinfonia No. 3
6. Scene 3
Исполнители:
Bohuslav Martinu (1890-1959) - Ariane
Celina Lindsley, soprano
Norman Philips, baritone
Vladimir Dolezal, tenor
Miroslav Kopp, tenor
Richard Novak, bass
Ludek Vele, bass
Czech Philharmonic Chorus
Czech Philharmonic Orchestra 
Vaclav Neumann

Лог создания рипа

Exact Audio Copy V1.0 beta 3 from 29. August 2011
EAC extraction logfile from 21. July 2013, 13:04
Martinu / Ariane, Neumann 1978
Used drive : TSSTcorpCDDVDW SH-216AB Adapter: 0 ID: 1
Read mode : SecureUtilize accurate stream : YesDefeat audio cache : YesMake use of C2 pointers : No
Read offset correction : 6Overread into Lead-In and Lead-Out : NoFill up missing offset samples with silence : YesDelete leading and trailing silent blocks : NoNull samples used in CRC calculations : YesUsed interface : Native Win32 interface for Win NT & 2000
Used output format : Monkey's Audio Lossless EncoderSelected bitrate : High Lossless CompressionQuality : HighAdd ID3 tag : YesCommand line compressor : K:\Program Files (x86)\Exact Audio Copy\Monkeys Audio\Monkey's Audio\MAC.exeAdditional command line options : -6 -V -T "ARTIST=%artist%" -T "TITLE=%title%" -T "ALBUM=%albumtitle%" -T "DATE=%year%" -T "TRACKNUMBER=%tracknr%" -T "GENRE=%genre%" -T "COMMENT=%comment%" -T "BAND=%albuminterpret%" -T "ALBUMARTIST=%albuminterpret%" -T "COMPOSER=%composer%" %haslyrics%--tag-from-file=LYRICS="%lyricsfile%"%haslyrics% -T "DISCNUMBER=%cdnumber%" -T "TOTALDISCS=%totalcds%" -T "TOTALTRACKS=%numtracks%" %hascover%--picture="%coverfile%"%hascover% %source% -o %dest%
TOC of the extracted CD
Track | Start | Length | Start sector | End sector --------------------------------------------------------- 1 | 0:00.32 | 4:13.55 | 32 | 19061 2 | 4:14.12 | 12:19.33 | 19062 | 74519 3 | 16:33.45 | 3:22.02 | 74520 | 89671 4 | 19:55.47 | 12:41.05 | 89672 | 146751 5 | 32:36.52 | 1:10.43 | 146752 | 152044 6 | 33:47.20 | 9:58.00 | 152045 | 196894
Range status and errors
Selected range
Filename I:\Foobar-EAC\Martinu - Ariane, Neumann 1978.wav
Peak level 85.1 % Extraction speed 2.4 X Range quality 100.0 % Test CRC FCF0C033 Copy CRC FCF0C033 Copy OK
No errors occurred
AccurateRip summary
Track 1 not present in databaseTrack 2 not present in databaseTrack 3 not present in databaseTrack 4 not present in databaseTrack 5 not present in databaseTrack 6 not present in database
None of the tracks are present in the AccurateRip database
End of status report
==== Log checksum B046ADEA5A5984F0C17FBF1673B6E1CCBD2B7A1456F735E52933FD1506067F7F ====

Содержание индексной карты (.CUE)

REM GENRE OPERAREM DATE 1978REM DISCID 5C0A4106REM COMMENT "ExactAudioCopy v1.0b3"PERFORMER "Martinu"TITLE "Ariane, Neumann 1978"FILE "Martinu - Ariane, Neumann 1978.ape" WAVE TRACK 01 AUDIO TITLE "SINFONIA 1 PROLOG SINFONIA 1" PERFORMER "Martinu" FLAGS PRE INDEX 00 00:00:00 INDEX 01 00:00:32 INDEX 02 01:11:47 INDEX 03 03:03:37 TRACK 02 AUDIO TITLE "SCENE1" PERFORMER "Martinu" FLAGS PRE INDEX 00 04:13:62 INDEX 01 04:14:12 TRACK 03 AUDIO TITLE "SINFONIA 2" PERFORMER "Martinu" FLAGS PRE INDEX 01 16:33:45 TRACK 04 AUDIO TITLE "SCENE 2" PERFORMER "Martinu" FLAGS PRE INDEX 00 19:53:35 INDEX 01 19:55:47 TRACK 05 AUDIO TITLE "SINFONIA 3" PERFORMER "Martinu" FLAGS PRE INDEX 01 32:36:52 TRACK 06 AUDIO TITLE "SCENE 3 ARIA" PERFORMER "Martinu" FLAGS PRE INDEX 01 33:47:20 INDEX 02 34:35:22



Показать сообщения:    

Текущее время: 10-Дек 00:19

Часовой пояс: UTC + 3


Вы не можете начинать темы
Вы не можете отвечать на сообщения
Вы не можете редактировать свои сообщения
Вы не можете удалять свои сообщения
Вы не можете голосовать в опросах
Вы не можете прикреплять файлы к сообщениям
Вы не можете скачивать файлы