Vincenzo Bellini - Norma - Scotto, Troyanos, Giacomini, Plishka - Levine - 2009, APE (image+.cue) lossless


 

[Цитировать]

Vincenzo Bellini - Norma - Scotto, Troyanos, Giacomini, Plishka - Levine - 2009, APE (image+.cue) lossless
Жанр: Opera
Страна-производитель диска: EU
Год издания диска: 2009
Издатель (лейбл): Sony
Номер по каталогу: 88697446182
Дата записи: 1979
Аудиокодек: APE
Тип рипа: image+.cue
Битрейт аудио: lossless
Продолжительность: 151:50
Источник: собственный рип
Наличие сканов в содержимом раздачи: нет
Исполнители:
Conductor - James Levine
Orchestra - National Philharmonic Orchestra
Chorus - Ambrosian Opera Chorus
Norma - Renata Scotto
Adalgisa - Tatiana Troyanos
Pollione - Giuseppe Giacomini
Oroveso - Paul Plishka
Clotilde - Ann Murray
Flavio - Paul Crook

ТреклистCD1

01 Sinfonia02 Atto I - Ite sul colle03 Atto I - Svanir le voci!04 Atto I - Meco all'altar di Venere05 Atto I - Odi? I suoi riti a compiere06 Atto I - Me protegge, me difende07 Atto I - Norma viene08 Atto I - Sediziose voci!09 Atto I - Casta diva10 Atto I - Fine al rito11 Atto I - Ah! Bello, a me ritorna12 Atto I - Sgombra e la sacra selva13 Atto I - Deh! Proteggimi, o Dio!14 Atto I - Eccola! Va, mi lascia15 Atto I - Va, crudele, al Dio spietato16 Atto I - Vieni in Roma, ah, vieni, o cara17 Atto I - Vanne, e li cela entrambi18 Atto I - Adalgisa! - Alma, costanza19 Atto I - Oh! Rimembranza! Io fui cosi20 Atto I - Ma di': l'amato giovane

CD2

01 Atto I - Oh, non tremare02 Atto I - Oh! Di qual sei tu vittima03 Atto II - Introduzione04 Atto II - Dormono entrambi - Teneri, teneri figli05 Atto II - Me chiami, o Norma06 Atto II - Deh! Con te, con te li prendi07 Atto II - Mira, o Norma, a'tuoi ginocchi08 Atto II - Si, fino all'ore09 Atto II - Non parti!10 Atto II - Guerrieri! A voi venirne11 Atto II - Ah! Del Tebro al giogo indegno12 Atto II - Ei tornera13 Atto II - Squilla il bronzo del Dio! - Norma! Che fu14 Atto II - Guerra, guerra!15 Atto II - Ne compi il rito, o Norma16 Atto II - Sacrilego nemico17 Atto II - In mia man alfin tu sei18 Atto II - Dammi quel ferro!19 Atto II - Qual cor tradisti20 Atto II - Norma! Deh! Norma, scolpati!21 Atto II - Deh! Non volerli vittime

Лог создания рипаCD1

Exact Audio Copy V1.0 beta 3 from 29. August 2011
EAC extraction logfile from 6. April 2015, 14:11
Scotto, Giacomini, Troyanos, Plishka - James Levine - Ambrosian Opera Chorus, National Philharmonic Orchestra / Bellini: Norma - CD1
Used drive : TS8XDVDRTranscend Adapter: 2 ID: 1
Read mode : SecureUtilize accurate stream : YesDefeat audio cache : YesMake use of C2 pointers : No
Read offset correction : 6Overread into Lead-In and Lead-Out : NoFill up missing offset samples with silence : YesDelete leading and trailing silent blocks : NoNull samples used in CRC calculations : YesUsed interface : Native Win32 interface for Win NT & 2000
Used output format : Monkey's Audio Lossless EncoderSelected bitrate : Normal Lossless CompressionQuality : HighAdd ID3 tag : YesCommand line compressor : C:\Program Files (x86)\Monkey's Audio\MAC.exeAdditional command line options : %source% %dest% -c3000
TOC of the extracted CD
Track | Start | Length | Start sector | End sector --------------------------------------------------------- 1 | 0:00.00 | 5:41.62 | 0 | 25636 2 | 5:41.62 | 8:41.58 | 25637 | 64769 3 | 14:23.45 | 2:50.00 | 64770 | 77519 4 | 17:13.45 | 2:36.12 | 77520 | 89231 5 | 19:49.57 | 1:24.05 | 89232 | 95536 6 | 21:13.62 | 2:45.38 | 95537 | 107949 7 | 23:59.25 | 3:24.35 | 107950 | 123284 8 | 27:23.60 | 3:46.40 | 123285 | 140274 9 | 31:10.25 | 6:53.67 | 140275 | 171316 10 | 38:04.17 | 1:29.25 | 171317 | 178016 11 | 39:33.42 | 4:41.73 | 178017 | 199164 12 | 44:15.40 | 3:08.37 | 199165 | 213301 13 | 47:24.02 | 1:49.28 | 213302 | 221504 14 | 49:13.30 | 1:23.02 | 221505 | 227731 15 | 50:36.32 | 4:49.55 | 227732 | 249461 16 | 55:26.12 | 4:07.43 | 249462 | 268029 17 | 59:33.55 | 4:30.27 | 268030 | 288306 18 | 64:04.07 | 3:27.18 | 288307 | 303849 19 | 67:31.25 | 7:46.57 | 303850 | 338856 20 | 75:18.07 | 1:22.43 | 338857 | 345049
Range status and errors
Selected range
Filename C:\Users\Music\Bellini - NORMA - Scotto, Giacomini, Troyanos, Plishka - Levine (1979)\CD1.wav
Peak level 100.0 % Extraction speed 4.3 X Range quality 100.0 % Test CRC 77853637 Copy CRC 77853637 Copy OK
No errors occurred
AccurateRip summary
Track 1 accurately ripped (confidence 7) [B6718C7F] (AR v2)Track 2 accurately ripped (confidence 7) [93CB30A1] (AR v2)Track 3 accurately ripped (confidence 7) [1F70A242] (AR v2)Track 4 accurately ripped (confidence 7) [78FDEEA9] (AR v2)Track 5 accurately ripped (confidence 7) [0D3945C5] (AR v2)Track 6 accurately ripped (confidence 7) [CE3BEA69] (AR v2)Track 7 accurately ripped (confidence 7) [47465705] (AR v2)Track 8 accurately ripped (confidence 7) [C1DA5400] (AR v2)Track 9 accurately ripped (confidence 7) [8C001CAB] (AR v2)Track 10 accurately ripped (confidence 7) [BD14C3C6] (AR v2)Track 11 accurately ripped (confidence 7) [D6C718A0] (AR v2)Track 12 accurately ripped (confidence 7) [7C06A0E8] (AR v2)Track 13 accurately ripped (confidence 7) [6C2A8A41] (AR v2)Track 14 accurately ripped (confidence 7) [B8547B9C] (AR v2)Track 15 accurately ripped (confidence 7) [13D63D12] (AR v2)Track 16 accurately ripped (confidence 7) [647AEB90] (AR v2)Track 17 accurately ripped (confidence 7) [A3BB3119] (AR v2)Track 18 accurately ripped (confidence 7) [E5243557] (AR v2)Track 19 accurately ripped (confidence 7) [5E264AB0] (AR v2)Track 20 accurately ripped (confidence 7) [2D6D8881] (AR v2)
All tracks accurately ripped
End of status report
==== Log checksum 6F9EBD84B37C4C75B7E0D2C6122BA9ABA7C37D3558B48FC4BB9FDE48C866DB3D ====

CD2

Exact Audio Copy V1.0 beta 3 from 29. August 2011
EAC extraction logfile from 6. April 2015, 11:17
Scotto, Giacomini, Troyanos, Plishka - James Levine - Ambrosian Opera Chorus, National Philharmonic Orchestra / Bellini: Norma - CD2
Used drive : TS8XDVDRTranscend Adapter: 2 ID: 1
Read mode : SecureUtilize accurate stream : YesDefeat audio cache : YesMake use of C2 pointers : No
Read offset correction : 6Overread into Lead-In and Lead-Out : NoFill up missing offset samples with silence : YesDelete leading and trailing silent blocks : NoNull samples used in CRC calculations : YesUsed interface : Native Win32 interface for Win NT & 2000
Used output format : Monkey's Audio Lossless EncoderSelected bitrate : Normal Lossless CompressionQuality : HighAdd ID3 tag : YesCommand line compressor : C:\Program Files (x86)\Monkey's Audio\MAC.exeAdditional command line options : %source% %dest% -c3000
TOC of the extracted CD
Track | Start | Length | Start sector | End sector --------------------------------------------------------- 1 | 0:00.00 | 1:23.55 | 0 | 6279 2 | 1:23.55 | 7:17.62 | 6280 | 39116 3 | 8:41.42 | 3:15.10 | 39117 | 53751 4 | 11:56.52 | 5:20.15 | 53752 | 77766 5 | 17:16.67 | 2:38.00 | 77767 | 89616 6 | 19:54.67 | 3:49.05 | 89617 | 106796 7 | 23:43.72 | 5:03.50 | 106797 | 129571 8 | 28:47.47 | 1:58.50 | 129572 | 138471 9 | 30:46.22 | 5:58.33 | 138472 | 165354 10 | 36:44.55 | 1:38.50 | 165355 | 172754 11 | 38:23.30 | 3:06.20 | 172755 | 186724 12 | 41:29.50 | 4:16.50 | 186725 | 205974 13 | 45:46.25 | 1:31.55 | 205975 | 212854 14 | 47:18.05 | 1:08.70 | 212855 | 218024 15 | 48:27.00 | 1:06.50 | 218025 | 223024 16 | 49:33.50 | 2:24.52 | 223025 | 233876 17 | 51:58.27 | 7:25.68 | 233877 | 267319 18 | 59:24.20 | 2:56.27 | 267320 | 280546 19 | 62:20.47 | 5:15.63 | 280547 | 304234 20 | 67:36.35 | 2:34.02 | 304235 | 315786 21 | 70:10.37 | 5:02.38 | 315787 | 338474
Range status and errors
Selected range
Filename C:\Users\Music\Bellini - NORMA - Scotto, Giacomini, Troyanos, Plishka - Levine (1979)\CD2.wav
Peak level 100.0 % Extraction speed 5.0 X Range quality 100.0 % Test CRC AE3B31F4 Copy CRC AE3B31F4 Copy OK
No errors occurred
AccurateRip summary
Track 1 accurately ripped (confidence 8) [E3E089DA] (AR v2)Track 2 accurately ripped (confidence 8) [84A91970] (AR v2)Track 3 accurately ripped (confidence 8) [D822C5B1] (AR v2)Track 4 accurately ripped (confidence 8) [F736042D] (AR v2)Track 5 accurately ripped (confidence 8) [248B14F3] (AR v2)Track 6 accurately ripped (confidence 8) [C80F82C7] (AR v2)Track 7 accurately ripped (confidence 8) [645E320E] (AR v2)Track 8 accurately ripped (confidence 8) [67BF10A6] (AR v2)Track 9 accurately ripped (confidence 8) [130713B6] (AR v2)Track 10 accurately ripped (confidence 8) [F801F279] (AR v2)Track 11 accurately ripped (confidence 8) [17C755CE] (AR v2)Track 12 accurately ripped (confidence 8) [BA2E24AA] (AR v2)Track 13 accurately ripped (confidence 8) [921106C6] (AR v2)Track 14 accurately ripped (confidence 8) [7A660F06] (AR v2)Track 15 accurately ripped (confidence 8) [E8B6EB35] (AR v2)Track 16 accurately ripped (confidence 8) [28152E09] (AR v2)Track 17 accurately ripped (confidence 8) [3E2B21FB] (AR v2)Track 18 accurately ripped (confidence 8) [57BB1A21] (AR v2)Track 19 accurately ripped (confidence 8) [E0622E1E] (AR v2)Track 20 accurately ripped (confidence 8) [67F8E32E] (AR v2)Track 21 accurately ripped (confidence 8) [9D0DF3D0] (AR v2)
All tracks accurately ripped
End of status report
==== Log checksum 11356A131841EEF9C551CF8B7C7498584F4A10E67F924665E68752DD50E1475E ====

Содержание индексной карты (.CUE)CD1

REM GENRE OperaREM DATE 1979REM DISCID 2E11F814REM COMMENT "ExactAudioCopy v1.0b3"PERFORMER "Scotto, Giacomini, Troyanos, Plishka - James Levine - Ambrosian Opera Chorus, National Philharmonic Orchestra"TITLE "Bellini: Norma - CD1"FILE "CD1.ape" WAVE TRACK 01 AUDIO TITLE "Sinfonia" PERFORMER "Scotto, Giacomini, Troyanos, Plishka - James Levine - Ambrosian Opera Chorus, National Philharmonic Orchestra" INDEX 01 00:00:00 TRACK 02 AUDIO TITLE "Atto I - Ite sul colle" PERFORMER "Scotto, Giacomini, Troyanos, Plishka - James Levine - Ambrosian Opera Chorus, National Philharmonic Orchestra" INDEX 01 05:41:62 TRACK 03 AUDIO TITLE "Atto I - Svanir le voci!" PERFORMER "Scotto, Giacomini, Troyanos, Plishka - James Levine - Ambrosian Opera Chorus, National Philharmonic Orchestra" INDEX 01 14:23:45 TRACK 04 AUDIO TITLE "Atto I - Meco all'altar di Venere" PERFORMER "Scotto, Giacomini, Troyanos, Plishka - James Levine - Ambrosian Opera Chorus, National Philharmonic Orchestra" INDEX 01 17:13:45 TRACK 05 AUDIO TITLE "Atto I - Odi? I suoi riti a compiere" PERFORMER "Scotto, Giacomini, Troyanos, Plishka - James Levine - Ambrosian Opera Chorus, National Philharmonic Orchestra" INDEX 01 19:49:57 TRACK 06 AUDIO TITLE "Atto I - Me protegge, me difende" PERFORMER "Scotto, Giacomini, Troyanos, Plishka - James Levine - Ambrosian Opera Chorus, National Philharmonic Orchestra" INDEX 01 21:13:62 TRACK 07 AUDIO TITLE "Atto I - Norma viene" PERFORMER "Scotto, Giacomini, Troyanos, Plishka - James Levine - Ambrosian Opera Chorus, National Philharmonic Orchestra" INDEX 01 23:59:25 TRACK 08 AUDIO TITLE "Atto I - Sediziose voci!" PERFORMER "Scotto, Giacomini, Troyanos, Plishka - James Levine - Ambrosian Opera Chorus, National Philharmonic Orchestra" INDEX 01 27:23:60 TRACK 09 AUDIO TITLE "Atto I - Casta diva" PERFORMER "Scotto, Giacomini, Troyanos, Plishka - James Levine - Ambrosian Opera Chorus, National Philharmonic Orchestra" INDEX 01 31:10:25 TRACK 10 AUDIO TITLE "Atto I - Fine al rito" PERFORMER "Scotto, Giacomini, Troyanos, Plishka - James Levine - Ambrosian Opera Chorus, National Philharmonic Orchestra" INDEX 01 38:04:17 TRACK 11 AUDIO TITLE "Atto I - Ah! Bello, a me ritorna" PERFORMER "Scotto, Giacomini, Troyanos, Plishka - James Levine - Ambrosian Opera Chorus, National Philharmonic Orchestra" INDEX 01 39:33:42 TRACK 12 AUDIO TITLE "Atto I - Sgombra e la sacra selva" PERFORMER "Scotto, Giacomini, Troyanos, Plishka - James Levine - Ambrosian Opera Chorus, National Philharmonic Orchestra" INDEX 01 44:15:40 TRACK 13 AUDIO TITLE "Atto I - Deh! Proteggimi, o Dio!" PERFORMER "Scotto, Giacomini, Troyanos, Plishka - James Levine - Ambrosian Opera Chorus, National Philharmonic Orchestra" INDEX 01 47:24:02 TRACK 14 AUDIO TITLE "Atto I - Eccola! Va, mi lascia" PERFORMER "Scotto, Giacomini, Troyanos, Plishka - James Levine - Ambrosian Opera Chorus, National Philharmonic Orchestra" INDEX 01 49:13:30 TRACK 15 AUDIO TITLE "Atto I - Va, crudele, al Dio spietato" PERFORMER "Scotto, Giacomini, Troyanos, Plishka - James Levine - Ambrosian Opera Chorus, National Philharmonic Orchestra" INDEX 01 50:36:32 TRACK 16 AUDIO TITLE "Atto I - Vieni in Roma, ah, vieni, o cara" PERFORMER "Scotto, Giacomini, Troyanos, Plishka - James Levine - Ambrosian Opera Chorus, National Philharmonic Orchestra" INDEX 01 55:26:12 TRACK 17 AUDIO TITLE "Atto I - Vanne, e li cela entrambi" PERFORMER "Scotto, Giacomini, Troyanos, Plishka - James Levine - Ambrosian Opera Chorus, National Philharmonic Orchestra" INDEX 01 59:33:55 TRACK 18 AUDIO TITLE "Atto I - Adalgisa! - Alma, costanza" PERFORMER "Scotto, Giacomini, Troyanos, Plishka - James Levine - Ambrosian Opera Chorus, National Philharmonic Orchestra" INDEX 01 64:04:07 TRACK 19 AUDIO TITLE "Atto I - Oh! Rimembranza! Io fui cosi" PERFORMER "Scotto, Giacomini, Troyanos, Plishka - James Levine - Ambrosian Opera Chorus, National Philharmonic Orchestra" INDEX 01 67:31:25 TRACK 20 AUDIO TITLE "Atto I - Ma di': l'amato giovane" PERFORMER "Scotto, Giacomini, Troyanos, Plishka - James Levine - Ambrosian Opera Chorus, National Philharmonic Orchestra" INDEX 01 75:18:07

CD2

REM GENRE OperaREM DATE 1979REM DISCID 3111A115REM COMMENT "ExactAudioCopy v1.0b3"PERFORMER "Scotto, Giacomini, Troyanos, Plishka - James Levine - Ambrosian Opera Chorus, National Philharmonic Orchestra"TITLE "Bellini: Norma - CD2"FILE "CD2.ape" WAVE TRACK 01 AUDIO TITLE "Atto I - Oh, non tremare" PERFORMER "Scotto, Giacomini, Troyanos, Plishka - James Levine - Ambrosian Opera Chorus, National Philharmonic Orchestra" INDEX 01 00:00:00 TRACK 02 AUDIO TITLE "Atto I - Oh! Di qual sei tu vittima" PERFORMER "Scotto, Giacomini, Troyanos, Plishka - James Levine - Ambrosian Opera Chorus, National Philharmonic Orchestra" INDEX 01 01:23:55 TRACK 03 AUDIO TITLE "Atto II - Introduzione" PERFORMER "Scotto, Giacomini, Troyanos, Plishka - James Levine - Ambrosian Opera Chorus, National Philharmonic Orchestra" INDEX 01 08:41:42 TRACK 04 AUDIO TITLE "Atto II - Dormono entrambi - Teneri, teneri figli" PERFORMER "Scotto, Giacomini, Troyanos, Plishka - James Levine - Ambrosian Opera Chorus, National Philharmonic Orchestra" INDEX 01 11:56:52 TRACK 05 AUDIO TITLE "Atto II - Me chiami, o Norma" PERFORMER "Scotto, Giacomini, Troyanos, Plishka - James Levine - Ambrosian Opera Chorus, National Philharmonic Orchestra" INDEX 01 17:16:67 TRACK 06 AUDIO TITLE "Atto II - Deh! Con te, con te li prendi" PERFORMER "Scotto, Giacomini, Troyanos, Plishka - James Levine - Ambrosian Opera Chorus, National Philharmonic Orchestra" INDEX 01 19:54:67 TRACK 07 AUDIO TITLE "Atto II - Mira, o Norma, a'tuoi ginocchi" PERFORMER "Scotto, Giacomini, Troyanos, Plishka - James Levine - Ambrosian Opera Chorus, National Philharmonic Orchestra" INDEX 01 23:43:72 TRACK 08 AUDIO TITLE "Atto II - Si, fino all'ore" PERFORMER "Scotto, Giacomini, Troyanos, Plishka - James Levine - Ambrosian Opera Chorus, National Philharmonic Orchestra" INDEX 01 28:47:47 TRACK 09 AUDIO TITLE "Atto II - Non parti!" PERFORMER "Scotto, Giacomini, Troyanos, Plishka - James Levine - Ambrosian Opera Chorus, National Philharmonic Orchestra" INDEX 01 30:46:22 TRACK 10 AUDIO TITLE "Atto II - Guerrieri! A voi venirne" PERFORMER "Scotto, Giacomini, Troyanos, Plishka - James Levine - Ambrosian Opera Chorus, National Philharmonic Orchestra" INDEX 01 36:44:55 TRACK 11 AUDIO TITLE "Atto II - Ah! Del Tebro al giogo indegno" PERFORMER "Scotto, Giacomini, Troyanos, Plishka - James Levine - Ambrosian Opera Chorus, National Philharmonic Orchestra" INDEX 01 38:23:30 TRACK 12 AUDIO TITLE "Atto II - Ei tornera" PERFORMER "Scotto, Giacomini, Troyanos, Plishka - James Levine - Ambrosian Opera Chorus, National Philharmonic Orchestra" INDEX 01 41:29:50 TRACK 13 AUDIO TITLE "Atto II - Squilla il bronzo del Dio! - Norma! Che fu" PERFORMER "Scotto, Giacomini, Troyanos, Plishka - James Levine - Ambrosian Opera Chorus, National Philharmonic Orchestra" INDEX 01 45:46:25 TRACK 14 AUDIO TITLE "Atto II - Guerra, guerra!" PERFORMER "Scotto, Giacomini, Troyanos, Plishka - James Levine - Ambrosian Opera Chorus, National Philharmonic Orchestra" INDEX 01 47:18:05 TRACK 15 AUDIO TITLE "Atto II - Ne compi il rito, o Norma" PERFORMER "Scotto, Giacomini, Troyanos, Plishka - James Levine - Ambrosian Opera Chorus, National Philharmonic Orchestra" INDEX 01 48:27:00 TRACK 16 AUDIO TITLE "Atto II - Sacrilego nemico" PERFORMER "Scotto, Giacomini, Troyanos, Plishka - James Levine - Ambrosian Opera Chorus, National Philharmonic Orchestra" INDEX 01 49:33:50 TRACK 17 AUDIO TITLE "Atto II - In mia man alfin tu sei" PERFORMER "Scotto, Giacomini, Troyanos, Plishka - James Levine - Ambrosian Opera Chorus, National Philharmonic Orchestra" INDEX 01 51:58:27 TRACK 18 AUDIO TITLE "Atto II - Dammi quel ferro!" PERFORMER "Scotto, Giacomini, Troyanos, Plishka - James Levine - Ambrosian Opera Chorus, National Philharmonic Orchestra" INDEX 01 59:24:20 TRACK 19 AUDIO TITLE "Atto II - Qual cor tradisti" PERFORMER "Scotto, Giacomini, Troyanos, Plishka - James Levine - Ambrosian Opera Chorus, National Philharmonic Orchestra" INDEX 01 62:20:47 TRACK 20 AUDIO TITLE "Atto II - Norma! Deh! Norma, scolpati!" PERFORMER "Scotto, Giacomini, Troyanos, Plishka - James Levine - Ambrosian Opera Chorus, National Philharmonic Orchestra" INDEX 01 67:36:35 TRACK 21 AUDIO TITLE "Atto II - Deh! Non volerli vittime" PERFORMER "Scotto, Giacomini, Troyanos, Plishka - James Levine - Ambrosian Opera Chorus, National Philharmonic Orchestra" INDEX 01 70:10:37



Показать сообщения:    

Текущее время: 05-Дек 01:24

Часовой пояс: UTC + 3


Вы не можете начинать темы
Вы не можете отвечать на сообщения
Вы не можете редактировать свои сообщения
Вы не можете удалять свои сообщения
Вы не можете голосовать в опросах
Вы не можете прикреплять файлы к сообщениям
Вы не можете скачивать файлы