(Opera) Richard Wagner - Tristan und Isolde / Рихард Вагнер - Тристан и Изольда (Nilsson, Brilioth, Wolf, Meven, Nimsgern, Strudthoff, Coro e Orchestra di Roma della RAI, Zubin Mehta) - 2001, FLAC (image+.cue) lossless


 

[Цитировать]

Richard Wagner - Tristan und Isolde / Рихард Вагнер - Тристан и Изольда - Zubin Mehta
Жанр: Opera
Страна-производитель диска: Italy
Год издания диска: 2001
Издатель (лейбл): Myto Records
Номер по каталогу: 3 MCD 011.239
Дата записи: 01/02/1972
Аудиокодек: FLAC
Тип рипа: image+.cue
Битрейт аудио: lossless
Продолжительность: 77.18 + 66.40 + 73.17
Источник: собственный рип
Наличие сканов в содержимом раздачи: да

CD1:Треклист:

Act I
01. Vorspiel
02. Westwarts scheift der Blick
03. Wer wagt mich zu hohnen?
04. Frisch weht der Wind der Heimat zu
05. Hab acht, Tristan!
06. Weh, ach wehe! Dies zu dulden!
07. Wie lachend sie mir Lieder singen
08. O blinde Augen! Blonde Herzen!
09. O Sube! Traute
10. Kennst du der Mutter Kunste nicht!
11. Auf! Auf! Ihr Frauen!
12. Nun leb wohl, Brangane!
13. Herr Tristan trete nah!
14. War Morold dir so wert
15. Wo sind wir?
16. Tristan! ... Isolde!
17. Was traumte mir von Tristans Ehre?
Total 77.18

Лог создания рипа:

Exact Audio Copy V1.0 beta 3 from 29. August 2011
Отчёт EAC об извлечении, выполненном 2. апреля 2015, 17:31
Richard Wagner / Tristan und Isolde - CD1
Дисковод: _NEC DVD_RW ND-3570A Adapter: 2 ID: 0
Режим чтения : Скоростной
Коррекция смещения при чтении : 48
Способность читать области Lead-in и Lead-out : Нет
Заполнение пропущенных сэмплов тишиной : Да
Удаление блоков с тишиной в начале и конце : Нет
При вычислениях CRC использовались нулевые сэмплы : Да
Интерфейс : Встроенный Win32-интерфейс для Win NT/2000
Выходной формат : Пользовательский кодировщик
Выбранный битрейт : 896 kBit/s
Качество : Высокий
Добавление ID3-тега : Нет
Утилита сжатия : C:\Program Files\FLAC Frontend\tools\flac.exe
Дополнительные параметры : -V -8 -T "Date=%year%" -T "Genre=%genre%" %source%
TOC извлечённого CD
Трек | Старт | Длительность | Начальный сектор | Конечный сектор
---------------------------------------------------------------------
1 | 0:00.00 | 10:20.70 | 0 | 46569
2 | 10:20.70 | 1:11.20 | 46570 | 51914
3 | 11:32.15 | 4:33.56 | 51915 | 72445
4 | 16:05.71 | 3:38.08 | 72446 | 88803
5 | 19:44.04 | 5:16.33 | 88804 | 112536
6 | 25:00.37 | 1:50.19 | 112537 | 120805
7 | 26:50.56 | 6:24.34 | 120806 | 149639
8 | 33:15.15 | 2:27.40 | 149640 | 160704
9 | 35:42.55 | 5:12.57 | 160705 | 184161
10 | 40:55.37 | 3:17.36 | 184162 | 198972
11 | 44:12.73 | 2:52.28 | 198973 | 211900
12 | 47:05.26 | 4:30.08 | 211901 | 232158
13 | 51:35.34 | 8:36.13 | 232159 | 270871
14 | 60:11.47 | 3:26.21 | 270872 | 286342
15 | 63:37.68 | 5:34.32 | 286343 | 311424
16 | 69:12.25 | 3:57.43 | 311425 | 329242
17 | 73:09.68 | 4:07.49 | 329243 | 347816
Характеристики диапазона извлечения и сообщения об ошибках
Выбранный диапазон
Имя файла N:\Wagner - Tristan und Isolde - Mehta\CD1\Richard Wagner - Tristan und Isolde - CD1.wav
Пиковый уровень 100.0 %
Скорость извлечения 7.8 X
CRC теста 07582974
CRC копии 07582974
Копирование... OK
Ошибок не произошло
AccurateRip: сводка
Трек 1 : извлечено точно (доверие 2) [98F06F61] (AR v1)
Трек 2 : извлечено точно (доверие 2) [DF317D59] (AR v1)
Трек 3 : извлечено точно (доверие 2) [1EC398A3] (AR v1)
Трек 4 : извлечено точно (доверие 2) [65DCE17A] (AR v1)
Трек 5 : извлечено точно (доверие 2) [6C53BE7A] (AR v1)
Трек 6 : извлечено точно (доверие 2) [88C68F64] (AR v1)
Трек 7 : извлечено точно (доверие 2) [DD48E4C0] (AR v1)
Трек 8 : извлечено точно (доверие 2) [005FCB7D] (AR v1)
Трек 9 : извлечено точно (доверие 2) [3CF381CD] (AR v1)
Трек 10 : извлечено точно (доверие 2) [26F72972] (AR v1)
Трек 11 : извлечено точно (доверие 2) [1599CCA2] (AR v1)
Трек 12 : извлечено точно (доверие 2) [3A49DBC4] (AR v1)
Трек 13 : извлечено точно (доверие 2) [E11ED90A] (AR v1)
Трек 14 : извлечено точно (доверие 2) [1F53121B] (AR v1)
Трек 15 : извлечено точно (доверие 2) [1B0D2FF1] (AR v1)
Трек 16 : извлечено точно (доверие 2) [EDFE56BF] (AR v1)
Трек 17 : извлечено точно (доверие 1) [34EB4DD2] (AR v1)
Все треки извлечены точно
Конец отчёта
==== Контрольная сумма отчёта ED6237D8DC4E2D4B75F4F2EFF624B7C29F6F8CB0286D57CB99366947D3B2BE87 ====

CD2:Треклист:

Act II
01. Orchestereinleitung
02. Horst du sie noch?
03. Der deiner harrt
04. Dein Werk?
05. Isolde! Geliebte!
06. O sink hernieder, Nacht der Liebe
07. Einsam wachend in der Nacht
08. Lausch, Geliebter!
09. So sturben wir. um ungetrennt
10. O ew'ge Nacht, sube Nacht!
11. Rette dich, Tristan!
12. Tatest du's wirklich?
13. Wozu die Dienste ohne Zahl
14. O Konig, das kann ich dir nicht sagen
15. Als fur ein fremdes Land
Total 66.40

Лог создания рипа:

Exact Audio Copy V1.0 beta 3 from 29. August 2011
Отчёт EAC об извлечении, выполненном 2. апреля 2015, 18:08
Richard Wagner / Tristan und Isolde - CD2
Дисковод: _NEC DVD_RW ND-3570A Adapter: 2 ID: 0
Режим чтения : Скоростной
Коррекция смещения при чтении : 48
Способность читать области Lead-in и Lead-out : Нет
Заполнение пропущенных сэмплов тишиной : Да
Удаление блоков с тишиной в начале и конце : Нет
При вычислениях CRC использовались нулевые сэмплы : Да
Интерфейс : Встроенный Win32-интерфейс для Win NT/2000
Выходной формат : Пользовательский кодировщик
Выбранный битрейт : 896 kBit/s
Качество : Высокий
Добавление ID3-тега : Нет
Утилита сжатия : C:\Program Files\FLAC Frontend\tools\flac.exe
Дополнительные параметры : -V -8 -T "Date=%year%" -T "Genre=%genre%" %source%
TOC извлечённого CD
Трек | Старт | Длительность | Начальный сектор | Конечный сектор
---------------------------------------------------------------------
1 | 0:00.00 | 2:31.33 | 0 | 11357
2 | 2:31.33 | 3:07.55 | 11358 | 25437
3 | 5:39.13 | 4:45.51 | 25438 | 46863
4 | 10:24.64 | 3:54.59 | 46864 | 64472
5 | 14:19.48 | 7:40.19 | 64473 | 98991
6 | 21:59.67 | 5:03.51 | 98992 | 121767
7 | 27:03.43 | 2:37.11 | 121768 | 133553
8 | 29:40.54 | 6:30.32 | 133554 | 162835
9 | 36:11.11 | 4:55.72 | 162836 | 185032
10 | 41:07.08 | 3:32.64 | 185033 | 200996
11 | 44:39.72 | 1:55.65 | 200997 | 209686
12 | 46:35.62 | 3:56.16 | 209687 | 227402
13 | 50:32.03 | 7:24.38 | 227403 | 260740
14 | 57:56.41 | 4:36.10 | 260741 | 281450
15 | 62:32.51 | 4:07.11 | 281451 | 299986
Характеристики диапазона извлечения и сообщения об ошибках
Выбранный диапазон
Имя файла N:\Wagner - Tristan und Isolde - Mehta\CD2\Richard Wagner - Tristan und Isolde - CD2.wav
Пиковый уровень 100.0 %
Скорость извлечения 7.0 X
CRC теста 0F6C5B36
CRC копии 0F6C5B36
Копирование... OK
Ошибок не произошло
AccurateRip: сводка
Трек 1 : извлечено точно (доверие 2) [8DEAA8D1] (AR v1)
Трек 2 : извлечено точно (доверие 2) [EF0D236D] (AR v1)
Трек 3 : извлечено точно (доверие 2) [2ED7C0F4] (AR v1)
Трек 4 : извлечено точно (доверие 2) [80A5D921] (AR v1)
Трек 5 : извлечено точно (доверие 2) [3812D27F] (AR v1)
Трек 6 : извлечено точно (доверие 2) [B68445BB] (AR v1)
Трек 7 : извлечено точно (доверие 2) [D3BB18B5] (AR v1)
Трек 8 : извлечено точно (доверие 2) [5D034730] (AR v1)
Трек 9 : извлечено точно (доверие 2) [8264A86A] (AR v1)
Трек 10 : извлечено точно (доверие 2) [52BB9D4E] (AR v1)
Трек 11 : извлечено точно (доверие 2) [D2BD840D] (AR v1)
Трек 12 : извлечено точно (доверие 2) [D9DCAC99] (AR v1)
Трек 13 : извлечено точно (доверие 2) [95AE49A1] (AR v1)
Трек 14 : извлечено точно (доверие 2) [39BF44FE] (AR v1)
Трек 15 : извлечено точно (доверие 2) [A06E3012] (AR v1)
Все треки извлечены точно
Конец отчёта
==== Контрольная сумма отчёта 5614709F85F234FD1555B8512790788E371D35590A7377EF7AD221C008FF46CB ====

CD3:Треклист:

Act III
01. Vorspiel
02. Kurwenal! He! Sag, Kurwenal!
03. Die Alte Weise
04. Hei nun! Wie du kamst?
05. Dunkt dich das?
06. Der einst ich trotzt'
07. Isolde kommt!
08. Noch ist kein Schiff zu sehn!
09. Sterbend lag ich stumm im Kahn
10. Mein Herre! Tristan!
11. Wie sie selig, hehr und milde
12. O Wonne! Freude!
13. O diese Sonne!
14. Ha! Ich bin's
15. Kurwenal! hor! Ein zweites Schiff
16. Tot denn alles!
17. Mild uns leise wie er lachelt
Total 73.17

Лог создания рипа:

Exact Audio Copy V1.0 beta 3 from 29. August 2011
Отчёт EAC об извлечении, выполненном 2. апреля 2015, 18:53
Richard Wagner / Tristan und Isolde - CD3
Дисковод: _NEC DVD_RW ND-3570A Adapter: 2 ID: 0
Режим чтения : Скоростной
Коррекция смещения при чтении : 48
Способность читать области Lead-in и Lead-out : Нет
Заполнение пропущенных сэмплов тишиной : Да
Удаление блоков с тишиной в начале и конце : Нет
При вычислениях CRC использовались нулевые сэмплы : Да
Интерфейс : Встроенный Win32-интерфейс для Win NT/2000
Выходной формат : Пользовательский кодировщик
Выбранный битрейт : 896 kBit/s
Качество : Высокий
Добавление ID3-тега : Нет
Утилита сжатия : C:\Program Files\FLAC Frontend\tools\flac.exe
Дополнительные параметры : -V -8 -T "Date=%year%" -T "Genre=%genre%" %source%
TOC извлечённого CD
Трек | Старт | Длительность | Начальный сектор | Конечный сектор
---------------------------------------------------------------------
1 | 0:00.00 | 4:45.16 | 0 | 21390
2 | 4:45.16 | 6:08.59 | 21391 | 49049
3 | 10:54.00 | 3:57.31 | 49050 | 66855
4 | 14:51.31 | 1:27.53 | 66856 | 73433
5 | 16:19.09 | 7:18.61 | 73434 | 106344
6 | 23:37.70 | 2:30.37 | 106345 | 117631
7 | 26:08.32 | 3:01.07 | 117632 | 131213
8 | 29:09.39 | 5:42.27 | 131214 | 156890
9 | 34:51.66 | 4:00.07 | 156891 | 174897
10 | 38:51.73 | 4:45.17 | 174898 | 196289
11 | 43:37.15 | 3:25.09 | 196290 | 211673
12 | 47:02.24 | 2:59.72 | 211674 | 225170
13 | 50:02.21 | 3:13.54 | 225171 | 239699
14 | 53:16.00 | 4:50.31 | 239700 | 261480
15 | 58:06.31 | 3:42.06 | 261481 | 278136
16 | 61:48.37 | 4:22.14 | 278137 | 297800
17 | 66:10.51 | 7:06.60 | 297801 | 329810
Характеристики диапазона извлечения и сообщения об ошибках
Выбранный диапазон
Имя файла N:\Wagner - Tristan und Isolde - Mehta\CD3\Richard Wagner - Tristan und Isolde - CD3.wav
Пиковый уровень 100.0 %
Скорость извлечения 7.7 X
CRC теста E150AF5D
CRC копии E150AF5D
Копирование... OK
Ошибок не произошло
AccurateRip: сводка
Трек 1 : извлечено точно (доверие 2) [BE299DFF] (AR v1)
Трек 2 : извлечено точно (доверие 2) [AB3D6A54] (AR v1)
Трек 3 : извлечено точно (доверие 2) [A8964285] (AR v1)
Трек 4 : извлечено точно (доверие 2) [BAD3857E] (AR v1)
Трек 5 : извлечено точно (доверие 2) [D004B4C0] (AR v1)
Трек 6 : извлечено точно (доверие 2) [782E47A2] (AR v1)
Трек 7 : извлечено точно (доверие 2) [E58EA674] (AR v1)
Трек 8 : извлечено точно (доверие 2) [C4CCEA29] (AR v1)
Трек 9 : извлечено точно (доверие 2) [FBB4FACF] (AR v1)
Трек 10 : извлечено точно (доверие 2) [ED4B6903] (AR v1)
Трек 11 : извлечено точно (доверие 2) [146C82DF] (AR v1)
Трек 12 : извлечено точно (доверие 2) [558B78F1] (AR v1)
Трек 13 : извлечено точно (доверие 2) [86798933] (AR v1)
Трек 14 : извлечено точно (доверие 2) [036A69E2] (AR v1)
Трек 15 : извлечено точно (доверие 2) [04AA3F8A] (AR v1)
Трек 16 : извлечено точно (доверие 2) [2EE7B30A] (AR v1)
Трек 17 : извлечено точно (доверие 2) [1052B84D] (AR v1)
Все треки извлечены точно
Конец отчёта
==== Контрольная сумма отчёта 0FE5516BC046372DFC9D0621EECAB47FF762D241F041DFBCEC769FFFF6D7C0F9 ====

Исполнители:

Tristan - Helge Brilioth
Marke - Peter Meven
Isolde - Birgit Nilsson
Kurwenal - Siegmund Nimsgern
Melot - Claudio Strudthoff
Brangane - Beverly Wolf
Ein Hirt - Ennio Buoso
Ein Steuermann - Wande Bertolini
Ein junger Seemann - Gianfranco Pastine
Coro e Orchestra di Roma della RAI
Zubin Mehta



Показать сообщения:    

Текущее время: 21-Янв 11:36

Часовой пояс: UTC + 3


Вы не можете начинать темы
Вы не можете отвечать на сообщения
Вы не можете редактировать свои сообщения
Вы не можете удалять свои сообщения
Вы не можете голосовать в опросах
Вы не можете прикреплять файлы к сообщениям
Вы не можете скачивать файлы