(Opera) Richard Wagner - Siegfried / Рихард Вагнер - Зигфрид (Varnay, Aldenhoff, Bjorling, Kuen, Pflanzl, Orchester der Bayreuther Festspiele, Herbert von Karajan) - 2001, FLAC (image+.cue), lossless


 

[Цитировать]

Richard Wagner - Siegfried / Рихард Вагнер - Зигфрид - Herbert von Karajan
Жанр: Opera
Страна-производитель диска: Italy
Год издания диска: 2001
Издатель (лейбл): Myto Records
Номер по каталогу: 011.H055
Дата записи: 1951
Аудиокодек: FLAC
Тип рипа: image+.cue
Битрейт аудио: lossless
Продолжительность: 77.37 + 78.18 + 78.07
Источник: собственный рип
Наличие сканов в содержимом раздачи: да

CD1:Треклист:

Act I
01. Vorspiel
02. Zwangvolle Plage!
03. Hoiho! Hoiho!
04. Vieles lehrtest du, Mime
05. Einst lag wimmernd ein Weib
06. So starb meine Mutter an mir?
07. Heil dir, weiser Schmied!
08. Du ruhrtest dich viel
09. Auf der Erde Rucken
10. Auf wolkigen Hoh'n
11. Was zu wissen dir frommt
12. Wenig hort' ich von
13. Heda! Du Fauler!
14. Fuhltest du nie
15. Nothung! Nothung!
Total 77.37

Лог создания рипа:

Exact Audio Copy V1.0 beta 3 from 29. August 2011
Отчёт EAC об извлечении, выполненном 2. апреля 2015, 10:20
Richard Wagner / Siegfried - CD1
Дисковод: _NEC DVD_RW ND-3570A Adapter: 2 ID: 0
Режим чтения : Скоростной
Коррекция смещения при чтении : 48
Способность читать области Lead-in и Lead-out : Нет
Заполнение пропущенных сэмплов тишиной : Да
Удаление блоков с тишиной в начале и конце : Нет
При вычислениях CRC использовались нулевые сэмплы : Да
Интерфейс : Встроенный Win32-интерфейс для Win NT/2000
Выходной формат : Пользовательский кодировщик
Выбранный битрейт : 896 kBit/s
Качество : Высокий
Добавление ID3-тега : Нет
Утилита сжатия : C:\Program Files\FLAC Frontend\tools\flac.exe
Дополнительные параметры : -V -8 -T "Date=%year%" -T "Genre=%genre%" %source%
TOC извлечённого CD
Трек | Старт | Длительность | Начальный сектор | Конечный сектор
---------------------------------------------------------------------
1 | 0:00.00 | 3:57.50 | 0 | 17824
2 | 3:57.50 | 3:46.26 | 17825 | 34800
3 | 7:44.01 | 5:14.38 | 34801 | 58388
4 | 12:58.39 | 8:15.70 | 58389 | 95583
5 | 21:14.34 | 1:53.25 | 95584 | 104083
6 | 23:07.59 | 6:21.63 | 104084 | 132721
7 | 29:29.47 | 5:43.63 | 132722 | 158509
8 | 35:13.35 | 2:40.33 | 158510 | 170542
9 | 37:53.68 | 2:09.50 | 170543 | 180267
10 | 40:03.43 | 3:13.25 | 180268 | 194767
11 | 43:16.68 | 3:41.73 | 194768 | 211415
12 | 46:58.66 | 7:18.17 | 211416 | 244282
13 | 54:17.08 | 3:14.04 | 244283 | 258836
14 | 57:31.12 | 8:05.13 | 258837 | 295224
15 | 65:36.25 | 12:00.40 | 295225 | 349264
Характеристики диапазона извлечения и сообщения об ошибках
Выбранный диапазон
Имя файла N:\Wagner - Siegfried - Karajan\CD1\Richard Wagner - Siegfried - CD1.wav
Пиковый уровень 100.0 %
Скорость извлечения 7.7 X
CRC теста 6B3B58C9
CRC копии 6B3B58C9
Копирование... OK
Ошибок не произошло
AccurateRip: сводка
Трек 1 : извлечено точно (доверие 1) [064997B0] (AR v2)
Трек 2 : извлечено точно (доверие 1) [DCE32050] (AR v2)
Трек 3 : извлечено точно (доверие 1) [A0226C49] (AR v2)
Трек 4 : извлечено точно (доверие 1) [2B0B8106] (AR v2)
Трек 5 : извлечено точно (доверие 1) [AD9EF77E] (AR v2)
Трек 6 : извлечено точно (доверие 1) [29434AAA] (AR v2)
Трек 7 : извлечено точно (доверие 1) [7CE4A699] (AR v2)
Трек 8 : извлечено точно (доверие 1) [F6265852] (AR v2)
Трек 9 : извлечено точно (доверие 1) [B5EB7A51] (AR v2)
Трек 10 : извлечено точно (доверие 1) [E2DBEC28] (AR v2)
Трек 11 : извлечено точно (доверие 1) [A7A7DBB5] (AR v2)
Трек 12 : извлечено точно (доверие 1) [C4BEDB1F] (AR v2)
Трек 13 : извлечено точно (доверие 1) [561394C2] (AR v2)
Трек 14 : извлечено точно (доверие 1) [B9CE7728] (AR v2)
Трек 15 : извлечено точно (доверие 1) [2499037B] (AR v2)
Все треки извлечены точно
Конец отчёта
==== Контрольная сумма отчёта A96D9342880557834AB4FAEE6A86C128992B94060370FDE4DAF362C304020780 ====

CD2:Треклист:

01. Nothung! Nothung!
Act II
02. Vorspiel
03. In Wald und Nacht
04. Ein Helde naht
05. Wir sind zur Stelle
06. Dass der mein Vater nicht ist
07. Da hatte mein Lied
08. Zur Kunde taugt kein Toter
09. Wohin schleichst du
10. Willkommen, Siegfried!
11. Heiss ward mir
Act III
12. Wache! Wache! Wala, erwach'!
Total 78.18

Лог создания рипа:

Exact Audio Copy V1.0 beta 3 from 29. August 2011
Отчёт EAC об извлечении, выполненном 2. апреля 2015, 10:53
Richard Wagner / Siegfried - CD2
Дисковод: _NEC DVD_RW ND-3570A Adapter: 2 ID: 0
Режим чтения : Скоростной
Коррекция смещения при чтении : 48
Способность читать области Lead-in и Lead-out : Нет
Заполнение пропущенных сэмплов тишиной : Да
Удаление блоков с тишиной в начале и конце : Нет
При вычислениях CRC использовались нулевые сэмплы : Да
Интерфейс : Встроенный Win32-интерфейс для Win NT/2000
Выходной формат : Пользовательский кодировщик
Выбранный битрейт : 896 kBit/s
Качество : Высокий
Добавление ID3-тега : Нет
Утилита сжатия : C:\Program Files\FLAC Frontend\tools\flac.exe
Дополнительные параметры : -V -8 -T "Date=%year%" -T "Genre=%genre%" %source%
TOC извлечённого CD
Трек | Старт | Длительность | Начальный сектор | Конечный сектор
---------------------------------------------------------------------
1 | 0:00.00 | 2:06.18 | 0 | 9467
2 | 2:06.18 | 5:14.29 | 9468 | 33046
3 | 7:20.47 | 10:00.11 | 33047 | 78057
4 | 17:20.58 | 7:13.42 | 78058 | 110574
5 | 24:34.25 | 5:43.21 | 110575 | 136320
6 | 30:17.46 | 11:53.54 | 136321 | 189849
7 | 42:11.25 | 7:31.58 | 189850 | 223732
8 | 49:43.08 | 2:07.71 | 223733 | 233328
9 | 51:51.04 | 4:55.36 | 233329 | 255489
10 | 56:46.40 | 9:50.66 | 255490 | 299805
11 | 66:37.31 | 7:25.06 | 299806 | 333186
12 | 74:02.37 | 4:15.35 | 333187 | 352346
Характеристики диапазона извлечения и сообщения об ошибках
Выбранный диапазон
Имя файла N:\Wagner - Siegfried - Karajan\CD2\Richard Wagner - Siegfried - CD2.wav
Проблемы синхронизации 0:07:36
Проблемы синхронизации 0:11:41
Проблемы синхронизации 0:13:12
Пиковый уровень 100.0 %
Скорость извлечения 7.8 X
CRC теста F808FB32
CRC копии F808FB32
Копирование завершено
Ошибок не произошло
AccurateRip: сводка
Трек 1 : извлечено точно (доверие 1) [5810C1BB] (AR v2)
Трек 2 : извлечено точно (доверие 1) [039BD712] (AR v2)
Трек 3 : извлечено точно (доверие 1) [01A3F3BF] (AR v2)
Трек 4 : извлечено точно (доверие 1) [23775426] (AR v2)
Трек 5 : извлечено точно (доверие 1) [F534845A] (AR v2)
Трек 6 : извлечено точно (доверие 1) [A8F8DB60] (AR v2)
Трек 7 : извлечено точно (доверие 1) [1EB6431E] (AR v2)
Трек 8 : извлечено точно (доверие 1) [22E45E43] (AR v2)
Трек 9 : извлечено точно (доверие 1) [291E1F5D] (AR v2)
Трек 10 : извлечено точно (доверие 1) [21445AF2] (AR v2)
Трек 11 : извлечено точно (доверие 1) [72BB55CB] (AR v2)
Трек 12 : извлечено точно (доверие 1) [B2B849A5] (AR v2)
Все треки извлечены точно
Конец отчёта
==== Контрольная сумма отчёта 5C49CF8C220F46C718839B5981BE068FD1CA189C8C061F4C3FDE5EBD5450DF46 ====

CD3:Треклист:

01. Stark ruft das Lied
02. Dir Unweisen ruf' ich in's Ohr
03. Mein Voglein schwebte mir fort
04. Kenntest du mich
05. Zieh hin! Ich kann dich nicht halten
06. Selige Ode auf sonniger Hoh'!
07. Das ist kein Mann!
08. Heil dir, Sonne! Heil dir, Licht!
09. Du wonniges Kind
10. Dort seh' ich Grane
11. Kein Gott nahte mir je
12. Ewig war ich, ewig bin ich
13. Dich - lieb' ich
Total 78.07

Лог создания рипа:

Exact Audio Copy V1.0 beta 3 from 29. August 2011
Отчёт EAC об извлечении, выполненном 2. апреля 2015, 11:28
Richard Wagner / Siegfried - CD3
Дисковод: _NEC DVD_RW ND-3570A Adapter: 2 ID: 0
Режим чтения : Скоростной
Коррекция смещения при чтении : 48
Способность читать области Lead-in и Lead-out : Нет
Заполнение пропущенных сэмплов тишиной : Да
Удаление блоков с тишиной в начале и конце : Нет
При вычислениях CRC использовались нулевые сэмплы : Да
Интерфейс : Встроенный Win32-интерфейс для Win NT/2000
Выходной формат : Пользовательский кодировщик
Выбранный битрейт : 896 kBit/s
Качество : Высокий
Добавление ID3-тега : Нет
Утилита сжатия : C:\Program Files\FLAC Frontend\tools\flac.exe
Дополнительные параметры : -V -8 -T "Date=%year%" -T "Genre=%genre%" %source%
TOC извлечённого CD
Трек | Старт | Длительность | Начальный сектор | Конечный сектор
---------------------------------------------------------------------
1 | 0:00.00 | 10:11.61 | 0 | 45885
2 | 10:11.61 | 4:53.19 | 45886 | 67879
3 | 15:05.05 | 5:11.18 | 67880 | 91222
4 | 20:16.23 | 4:37.69 | 91223 | 112066
5 | 24:54.17 | 7:20.11 | 112067 | 145077
6 | 32:14.28 | 4:05.72 | 145078 | 163524
7 | 36:20.25 | 9:22.51 | 163525 | 205725
8 | 45:43.01 | 6:42.71 | 205726 | 235946
9 | 52:25.72 | 4:36.45 | 235947 | 256691
10 | 57:02.42 | 3:34.34 | 256692 | 272775
11 | 60:37.01 | 4:55.00 | 272776 | 294900
12 | 65:32.01 | 4:45.34 | 294901 | 316309
13 | 70:17.35 | 7:49.51 | 316310 | 351535
Характеристики диапазона извлечения и сообщения об ошибках
Выбранный диапазон
Имя файла N:\Wagner - Siegfried - Karajan\CD3\Richard Wagner - Siegfried - CD3.wav
Пиковый уровень 100.0 %
Скорость извлечения 7.8 X
CRC теста CE7C29EB
CRC копии CE7C29EB
Копирование... OK
Ошибок не произошло
AccurateRip: сводка
Трек 1 : извлечено точно (доверие 1) [CBDD7AD4] (AR v2)
Трек 2 : извлечено точно (доверие 1) [091EC577] (AR v2)
Трек 3 : извлечено точно (доверие 1) [CFAFD23B] (AR v2)
Трек 4 : извлечено точно (доверие 1) [4528BE6A] (AR v2)
Трек 5 : извлечено точно (доверие 1) [9FAEEB07] (AR v2)
Трек 6 : извлечено точно (доверие 1) [51F8A587] (AR v2)
Трек 7 : извлечено точно (доверие 1) [FDA7C74B] (AR v2)
Трек 8 : извлечено точно (доверие 1) [30EC1634] (AR v2)
Трек 9 : извлечено точно (доверие 1) [2150F165] (AR v2)
Трек 10 : извлечено точно (доверие 1) [23E285CB] (AR v2)
Трек 11 : извлечено точно (доверие 1) [FE8998D9] (AR v2)
Трек 12 : извлечено точно (доверие 1) [38A458DC] (AR v2)
Трек 13 : извлечено точно (доверие 1) [956E58AA] (AR v2)
Все треки извлечены точно
Конец отчёта
==== Контрольная сумма отчёта C9C4D3951A426545881F038A8586622A3E70D32510FA81F6A238B2BD26AF158C ====

Исполнители:

Brunnhilde - Astrid Varnay
Siegfried - Bernd Aldenhoff
Alberih - Heinrih Pflanzl
Mime - Paul Kuen
Der Wanderer - Sigurd Bjorling
Erda - Ruth Sievert
Waldvogel - Wilma Lipp
Fafner - Friedrich Dalberg
Orchester der Bayreuther Festspiele
Herbert von Karajan



Показать сообщения:    

Текущее время: 04-Дек 23:25

Часовой пояс: UTC + 3


Вы не можете начинать темы
Вы не можете отвечать на сообщения
Вы не можете редактировать свои сообщения
Вы не можете удалять свои сообщения
Вы не можете голосовать в опросах
Вы не можете прикреплять файлы к сообщениям
Вы не можете скачивать файлы