(Opera) Richard Wagner - Parsifal / Рихард Вагнер - Парсифаль (Gazheli, Doumas, Hemm, Baba, Kupfer, Tomcic, Orchestra and Chorus of the Tyrolean Festival, Gustav Kuhn) - 2009, FLAC (image+.cue), lossless


 

[Цитировать]

Richard Wagner - Parsifal / Рихард Вагнер - Парсифаль - Gustav Kuhn
Жанр: Opera
Страна-производитель диска: EU
Год издания диска: 2009
Издатель (лейбл): Col Legno
Номер по каталогу: WWE 3CD 60016
Дата записи: 07/2007
Аудиокодек: FLAC
Тип рипа: image+.cue
Битрейт аудио: lossless
Продолжительность: 76.26 + 75.53 + 65.05
Источник: собственный рип
Наличие сканов в содержимом раздачи: да

CD1:Треклист:

Act I
01. Vorspiel
02. He! Ho! Waldhuter ihr
03. Gawan!
04. O wunden-wundervoller heiliger Speer!
05. Drum blieb es dem, nach dem ihr fragt, verwehrt
06. Weh! Weh! - Hoho!
07. Nun sag: Nicht weisst du, ich dich frage
08. Vom Bade kehrt der Konig heim
09. Nun achte wohl, und lass mich sehn
10. Mein Sohn Amfortas, bist du am Amt?
Total 76.26

Лог создания рипа:

Exact Audio Copy V1.0 beta 3 from 29. August 2011
Отчёт EAC об извлечении, выполненном 1. апреля 2015, 17:19
Richard Wagner / Parsifal - CD1
Дисковод: Optiarc DVD RW AD-7260S Adapter: 0 ID: 1
Режим чтения : Достоверность
Использование точного потока : Да
Отключение кэша аудио : Да
Использование указателей C2 : Нет
Коррекция смещения при чтении : 48
Способность читать области Lead-in и Lead-out : Нет
Заполнение пропущенных сэмплов тишиной : Да
Удаление блоков с тишиной в начале и конце : Нет
При вычислениях CRC использовались нулевые сэмплы : Да
Интерфейс : Встроенный Win32-интерфейс для Win NT/2000
Выходной формат : Пользовательский кодировщик
Выбранный битрейт : 896 kBit/s
Качество : Высокий
Добавление ID3-тега : Нет
Утилита сжатия : C:\Program Files\FLAC Frontend\tools\flac.exe
Дополнительные параметры : -V -8 -T "Date=%year%" -T "Genre=%genre%" %source%
TOC извлечённого CD
Трек | Старт | Длительность | Начальный сектор | Конечный сектор
---------------------------------------------------------------------
1 | 0:00.00 | 11:02.50 | 0 | 49699
2 | 11:02.50 | 9:00.63 | 49700 | 90262
3 | 20:03.38 | 9:56.19 | 90263 | 134981
4 | 29:59.57 | 6:44.04 | 134982 | 165285
5 | 36:43.61 | 6:06.14 | 165286 | 192749
6 | 42:50.00 | 6:11.67 | 192750 | 220641
7 | 49:01.67 | 6:12.52 | 220642 | 248593
8 | 55:14.44 | 4:10.04 | 248594 | 267347
9 | 59:24.48 | 6:41.57 | 267348 | 297479
10 | 66:06.30 | 10:17.15 | 297480 | 343769
Характеристики диапазона извлечения и сообщения об ошибках
Выбранный диапазон
Имя файла N:\EAC\Wagner - Parsifal - Kuhn\CD1\Richard Wagner - Parsifal - CD1.wav
Пиковый уровень 98.4 %
Скорость извлечения 4.5 X
Качество диапазона 99.9 %
CRC теста 61892B55
CRC копии 61892B55
Копирование... OK
Ошибок не произошло
AccurateRip: сводка
Трек 1 отсутствует в базе данных
Трек 2 отсутствует в базе данных
Трек 3 отсутствует в базе данных
Трек 4 отсутствует в базе данных
Трек 5 отсутствует в базе данных
Трек 6 отсутствует в базе данных
Трек 7 отсутствует в базе данных
Трек 8 отсутствует в базе данных
Трек 9 отсутствует в базе данных
Трек 10 отсутствует в базе данных
Ни одного трека нет в базе AccurateRip
Конец отчёта
==== Контрольная сумма отчёта 605F20C0187B2E24B76955A2F59023F2F8924B04DD3DDDDA881C193528C12044 ====

CD2:Треклист:

01. Nehmet hin meinen Leib
02. Was stehst du noch da?
Act II
03. Vorspiel
04. Ach! - Ach! Tiefe Nacht...
05. Ho! Ihr Wachter!
06. Hier war das Tosen!
07. Komm! Komm! Holder Knabe!
08. Parsifal! - Weile!
09. Wehe! Wehe! Was tat ich?
10. Amfertas! Die Wunde!
11. Grausamer!
Total 75.53

Лог создания рипа:

Exact Audio Copy V1.0 beta 3 from 29. August 2011
Отчёт EAC об извлечении, выполненном 1. апреля 2015, 18:13
Richard Wagner / Parsifal - CD2
Дисковод: Optiarc DVD RW AD-7260S Adapter: 0 ID: 1
Режим чтения : Достоверность
Использование точного потока : Да
Отключение кэша аудио : Да
Использование указателей C2 : Нет
Коррекция смещения при чтении : 48
Способность читать области Lead-in и Lead-out : Нет
Заполнение пропущенных сэмплов тишиной : Да
Удаление блоков с тишиной в начале и конце : Нет
При вычислениях CRC использовались нулевые сэмплы : Да
Интерфейс : Встроенный Win32-интерфейс для Win NT/2000
Выходной формат : Пользовательский кодировщик
Выбранный битрейт : 896 kBit/s
Качество : Высокий
Добавление ID3-тега : Нет
Утилита сжатия : C:\Program Files\FLAC Frontend\tools\flac.exe
Дополнительные параметры : -V -8 -T "Date=%year%" -T "Genre=%genre%" %source%
TOC извлечённого CD
Трек | Старт | Длительность | Начальный сектор | Конечный сектор
---------------------------------------------------------------------
1 | 0:00.00 | 9:57.36 | 0 | 44810
2 | 9:57.36 | 5:50.01 | 44811 | 71061
3 | 15:47.37 | 5:30.25 | 71062 | 95836
4 | 21:17.62 | 6:46.11 | 95837 | 126297
5 | 28:03.73 | 3:00.54 | 126298 | 139851
6 | 31:04.52 | 4:12.26 | 139852 | 158777
7 | 35:17.03 | 4:52.69 | 158778 | 180746
8 | 40:09.72 | 10:04.34 | 180747 | 226080
9 | 50:14.31 | 3:56.38 | 226081 | 243818
10 | 54:10.69 | 6:43.64 | 243819 | 274107
11 | 60:54.58 | 14:56.38 | 274108 | 341345
Характеристики диапазона извлечения и сообщения об ошибках
Выбранный диапазон
Имя файла N:\EAC\Wagner - Parsifal - Kuhn\CD2\Richard Wagner - Parsifal - CD2.wav
Пиковый уровень 99.3 %
Скорость извлечения 4.4 X
Качество диапазона 100.0 %
CRC теста ADBAFF40
CRC копии ADBAFF40
Копирование... OK
Ошибок не произошло
AccurateRip: сводка
Трек 1 отсутствует в базе данных
Трек 2 отсутствует в базе данных
Трек 3 отсутствует в базе данных
Трек 4 отсутствует в базе данных
Трек 5 отсутствует в базе данных
Трек 6 отсутствует в базе данных
Трек 7 отсутствует в базе данных
Трек 8 отсутствует в базе данных
Трек 9 отсутствует в базе данных
Трек 10 отсутствует в базе данных
Трек 11 отсутствует в базе данных
Ни одного трека нет в базе AccurateRip
Конец отчёта
==== Контрольная сумма отчёта 0CB93FCEC5E2BB5782487D4CA9A7996202636EFBDBEF698870CC1284D0203B6A ====

CD3:Треклист:

Act III
01. Vorspiel
02. Von dorther kamm das Stohnen
03. Du tolles Weib!
04. Erkennst du ihn?
05. O Gnade! Hochstes Heil!
06. Nicht so! Die heil'ge Quelle selbst
07. Mein erstes Amt verricht' ich so
08. Mittag: - die Stund' ist da
09. Ja! Wehe! Wehe!
10. Nur eine Waffe taugt
Total 65.05

Лог создания рипа:

Exact Audio Copy V1.0 beta 3 from 29. August 2011
Отчёт EAC об извлечении, выполненном 1. апреля 2015, 18:53
Richard Wagner / Parsifal - CD3
Дисковод: Optiarc DVD RW AD-7260S Adapter: 0 ID: 1
Режим чтения : Достоверность
Использование точного потока : Да
Отключение кэша аудио : Да
Использование указателей C2 : Нет
Коррекция смещения при чтении : 48
Способность читать области Lead-in и Lead-out : Нет
Заполнение пропущенных сэмплов тишиной : Да
Удаление блоков с тишиной в начале и конце : Нет
При вычислениях CRC использовались нулевые сэмплы : Да
Интерфейс : Встроенный Win32-интерфейс для Win NT/2000
Выходной формат : Пользовательский кодировщик
Выбранный битрейт : 896 kBit/s
Качество : Высокий
Добавление ID3-тега : Нет
Утилита сжатия : C:\Program Files\FLAC Frontend\tools\flac.exe
Дополнительные параметры : -V -8 -T "Date=%year%" -T "Genre=%genre%" %source%
TOC извлечённого CD
Трек | Старт | Длительность | Начальный сектор | Конечный сектор
---------------------------------------------------------------------
1 | 0:00.00 | 3:34.11 | 0 | 16060
2 | 3:34.11 | 3:40.66 | 16061 | 32626
3 | 7:15.02 | 5:50.26 | 32627 | 58902
4 | 13:05.28 | 6:13.51 | 58903 | 86928
5 | 19:19.04 | 7:02.70 | 86929 | 118648
6 | 26:21.74 | 6:51.45 | 118649 | 149518
7 | 33:13.44 | 9:10.06 | 149519 | 190774
8 | 42:23.50 | 7:04.72 | 190775 | 222646
9 | 49:28.47 | 5:57.55 | 222647 | 249476
10 | 55:26.27 | 9:38.51 | 249477 | 292877
Характеристики диапазона извлечения и сообщения об ошибках
Выбранный диапазон
Имя файла N:\EAC\Wagner - Parsifal - Kuhn\CD3\Richard Wagner - Parsifal - CD3.wav
Пиковый уровень 97.1 %
Скорость извлечения 4.3 X
Качество диапазона 100.0 %
CRC теста 845FE7E5
CRC копии 845FE7E5
Копирование... OK
Ошибок не произошло
AccurateRip: сводка
Трек 1 отсутствует в базе данных
Трек 2 отсутствует в базе данных
Трек 3 отсутствует в базе данных
Трек 4 отсутствует в базе данных
Трек 5 отсутствует в базе данных
Трек 6 отсутствует в базе данных
Трек 7 отсутствует в базе данных
Трек 8 отсутствует в базе данных
Трек 9 отсутствует в базе данных
Трек 10 отсутствует в базе данных
Ни одного трека нет в базе AccurateRip
Конец отчёта
==== Контрольная сумма отчёта AA42248F19FCE8A241E4CD9653B8225CC9FDB7EBCF81F09D447CFD708308BEF0 ====

Исполнители:

Thomas Gazheli (Amfortas)
Michael Doumas (Titurel)
Manfred Hemm (Gurnemanz)
Michael Baba (Parsifal)
Michael Kupfer (Klingsor)
Martina Tomcic (Kundry)
Chorus of the Tyrolean Festival, Jacek Benn
Wiltener Sangerknaben, Johannes Stecher
Orchestra of the Tyrolean Festival
Gustav Kuhn



Показать сообщения:    

Текущее время: 08-Дек 23:12

Часовой пояс: UTC + 3


Вы не можете начинать темы
Вы не можете отвечать на сообщения
Вы не можете редактировать свои сообщения
Вы не можете удалять свои сообщения
Вы не можете голосовать в опросах
Вы не можете прикреплять файлы к сообщениям
Вы не можете скачивать файлы