(opera) Gaetano Donizetti - La Fille du regiment ( Lily Pons, Raoul Jobin, Irra Petina - Gennaro Papi 1940) - 2011, FLAC (tracks+.cue) lossless


 

[Цитировать]

Gaetano Donizetti - La Fille du regiment ( Lily Pons, Raoul Jobin, Irra Petina - Gennaro Papi 1940)
Жанр: opera
Страна-производитель диска: EU
Год издания диска: 2011
Издатель (лейбл): Sony Classical
Дата записи: 28,12,1940
Аудиокодек: FLAC
Тип рипа: tracks+.cue
Битрейт аудио: lossless
Продолжительность: CD1 - 60'21" CD2 - 38'13"
Источник: собственный рип
Наличие сканов в содержимом раздачи: нет
Треклист:
CD1
01. Overture.flac
02. Act I- L'ennemi s'avance . . . Sainte Madone!.flac
03. Allons, madame la marquise.flac
04. Les Francais quittent la montagne - Allons, plus d'alarmes!.flac
05. Mes enfants, par pitie soutenez-moi!.flac
06. Sacre nom d'une pipe!.flac
07. Au bruit de la guerre.flac
08. J'ai plaisir de te voir, sans que personne ne nous entende.flac
09. Allons, allons, march', march' . . . C'est un traitre, qui, peut-etre.flac
10. Chacun le sait, chacun le dit.flac
11. C'est l'instant de l'appel!.flac
12. Act II- Ils l'ont emmene brutalement.flac
13. Quoi! Vous m'aimez - Depuis l'instant ou.flac
14. La Fille du Regiment Sacre nom d'un chien!.flac
15. Rataplan, rataplan, rataplan!.flac
16. Sulpice! A gauche!.flac
17. Ah! mes amis, quel jour de fete! - La camarade est amoureux!.flac
18. Je suis soldat . . . Il faut partir.flac
19. Ah! Si vous nous quittez . . . O douleur! O surprise! Elle quitte ces lieux!.flac
CD2
01. Act III- Entr'acte - Voici le contrat que le notaire envoie.flac
02. La romance perdue on l'a retrouvee.flac
03. Le jour naissait dans le bocage . . . Le voila, le voila, le voila, morbleu!.flac
04. Continuons! - Je le veux bien!.flac
05. C'est bien vous grenadier!.flac
06. C'en est donc fait . . . Par le rang et par l'opulence.flac
07. Pour ce contrat fatal . . . Salut a la France.flac
08. Toi par qui mon coeur rayonne (Interpolation from Lucie de Lammermoor).flac
09. Mais vous mes braves amis.flac
10. Tous les trois reunis.flac
11. Qu'est-ce que je vois un officier.flac
12. Waltz.flac
13. Au secours de notre fille.flac
14. Quand le destin, au milieu de la guerre.flac
15. Salut a la France!.flac
Исполнители:
La Fille du regiment by Gaetano Donizetti performed in French
Conductor Gennaro Papi - 1940(LI)
Orchestra - Metropolitan Opera
Chorus - Metropolitan Opera
Marie - Lily Pons
Tonio - Raoul Jobin
Sulplice - Salvatore Baccaloni
La Maquise - Irra Petina
Hortensius - Louis D' Angelo
Caporale - Wilfred Engelman
Un Paysan - Lodovico Oliviero
La Duchesse - Maria Savage

Лог создания рипа

La Fille du Regiment CD1.log

Exact Audio Copy V1.0 beta 3 from 29. August 2011
EAC extraction logfile from 28. February 2015, 13:30
Lily Pons, Raoul Jobin, Irra Petina, / La Fille du Regiment CD1
Used drive : hp DVDRAM GT50N Adapter: 0 ID: 0
Read mode : Secure
Utilize accurate stream : Yes
Defeat audio cache : Yes
Make use of C2 pointers : No
Read offset correction : 103
Overread into Lead-In and Lead-Out : No
Fill up missing offset samples with silence : Yes
Delete leading and trailing silent blocks : No
Null samples used in CRC calculations : Yes
Used interface : Native Win32 interface for Win NT & 2000
Gap handling : Appended to previous track
Used output format : User Defined Encoder
Selected bitrate : 128 kBit/s
Quality : High
Add ID3 tag : No
Command line compressor : C:\Program Files\Exact Audio Copy\Flac\flac.exe
Additional command line options : -V -8 -T "Genre=%genre%" -T "Artist=%artist%" -T "Title=%title%" -T "Album=%albumtitle%" -T "Date=%year%" -T "Tracknumber=%tracknr%" -T "Comment=%comment%" %source%
TOC of the extracted CD
Track | Start | Length | Start sector | End sector
---------------------------------------------------------
1 | 0:00.00 | 6:00.35 | 0 | 27034
2 | 6:00.35 | 2:30.30 | 27035 | 38314
3 | 8:30.65 | 1:21.38 | 38315 | 44427
4 | 9:52.28 | 2:03.63 | 44428 | 53715
5 | 11:56.16 | 1:24.31 | 53716 | 60046
6 | 13:20.47 | 2:17.72 | 60047 | 70393
7 | 15:38.44 | 5:57.56 | 70394 | 97224
8 | 21:36.25 | 1:02.31 | 97225 | 101905
9 | 22:38.56 | 3:27.51 | 101906 | 117481
10 | 26:06.32 | 3:17.12 | 117482 | 132268
11 | 29:23.44 | 3:20.20 | 132269 | 147288
12 | 32:43.64 | 1:53.40 | 147289 | 155803
13 | 34:37.29 | 3:58.71 | 155804 | 173724
14 | 38:36.25 | 3:09.57 | 173725 | 187956
15 | 41:46.07 | 2:29.52 | 187957 | 199183
16 | 44:15.59 | 2:32.51 | 199184 | 210634
17 | 46:48.35 | 3:54.39 | 210635 | 228223
18 | 50:42.74 | 6:29.40 | 228224 | 257438
19 | 57:12.39 | 3:07.69 | 257439 | 271532
Track 1
Filename D:\Temp\Доницетти - La Fille du Regiment - Lily Pons, Raoul Jobin, Irra Petina - Gennaro Papi;\La Fille du Regiment CD1\01. Overture.wav
Pre-gap length 0:00:02.00
Peak level 70.0 %
Extraction speed 2.7 X
Track quality 100.0 %
Test CRC 59C9B83D
Copy CRC 59C9B83D
Accurately ripped (confidence 1) [EDC7A828] (AR v2)
Copy OK
Track 2
Filename D:\Temp\Доницетти - La Fille du Regiment - Lily Pons, Raoul Jobin, Irra Petina - Gennaro Papi;\La Fille du Regiment CD1\02. Act I- L'ennemi s'avance . . . Sainte Madone!.wav
Peak level 53.9 %
Extraction speed 2.1 X
Track quality 99.9 %
Test CRC D5CB6BE4
Copy CRC D5CB6BE4
Accurately ripped (confidence 1) [853EBA10] (AR v2)
Copy OK
Track 3
Filename D:\Temp\Доницетти - La Fille du Regiment - Lily Pons, Raoul Jobin, Irra Petina - Gennaro Papi;\La Fille du Regiment CD1\03. Allons, madame la marquise.wav
Peak level 82.6 %
Extraction speed 2.2 X
Track quality 100.0 %
Test CRC 36353EF4
Copy CRC 36353EF4
Accurately ripped (confidence 1) [B14D1788] (AR v2)
Copy OK
Track 4
Filename D:\Temp\Доницетти - La Fille du Regiment - Lily Pons, Raoul Jobin, Irra Petina - Gennaro Papi;\La Fille du Regiment CD1\04. Les Francais quittent la montagne - Allons, plus d'alarmes!.wav
Peak level 78.7 %
Extraction speed 2.1 X
Track quality 99.9 %
Test CRC 6ABB096F
Copy CRC 6ABB096F
Accurately ripped (confidence 1) [249327DF] (AR v2)
Copy OK
Track 5
Filename D:\Temp\Доницетти - La Fille du Regiment - Lily Pons, Raoul Jobin, Irra Petina - Gennaro Papi;\La Fille du Regiment CD1\05. Mes enfants, par pitie soutenez-moi!.wav
Peak level 53.6 %
Extraction speed 2.5 X
Track quality 100.0 %
Test CRC 471D995F
Copy CRC 471D995F
Accurately ripped (confidence 1) [AD056346] (AR v2)
Copy OK
Track 6
Filename D:\Temp\Доницетти - La Fille du Regiment - Lily Pons, Raoul Jobin, Irra Petina - Gennaro Papi;\La Fille du Regiment CD1\06. Sacre nom d'une pipe!.wav
Peak level 58.8 %
Extraction speed 2.8 X
Track quality 100.0 %
Test CRC 9BA85A45
Copy CRC 9BA85A45
Accurately ripped (confidence 1) [A0564E5C] (AR v2)
Copy OK
Track 7
Filename D:\Temp\Доницетти - La Fille du Regiment - Lily Pons, Raoul Jobin, Irra Petina - Gennaro Papi;\La Fille du Regiment CD1\07. Au bruit de la guerre.wav
Peak level 62.8 %
Extraction speed 3.5 X
Track quality 100.0 %
Test CRC 9D8F9451
Copy CRC 9D8F9451
Accurately ripped (confidence 1) [685D583E] (AR v2)
Copy OK
Track 8
Filename D:\Temp\Доницетти - La Fille du Regiment - Lily Pons, Raoul Jobin, Irra Petina - Gennaro Papi;\La Fille du Regiment CD1\08. J'ai plaisir de te voir, sans que personne ne nous entende.wav
Peak level 45.0 %
Extraction speed 1.8 X
Track quality 99.8 %
Test CRC 2AA81A54
Copy CRC 2AA81A54
Accurately ripped (confidence 1) [1842ECCB] (AR v2)
Copy OK
Track 9
Filename D:\Temp\Доницетти - La Fille du Regiment - Lily Pons, Raoul Jobin, Irra Petina - Gennaro Papi;\La Fille du Regiment CD1\09. Allons, allons, march', march' . . . C'est un traitre, qui, peut-etre.wav
Peak level 63.5 %
Extraction speed 3.5 X
Track quality 100.0 %
Test CRC 04054E13
Copy CRC 04054E13
Accurately ripped (confidence 1) [8FA455D3] (AR v2)
Copy OK
Track 10
Filename D:\Temp\Доницетти - La Fille du Regiment - Lily Pons, Raoul Jobin, Irra Petina - Gennaro Papi;\La Fille du Regiment CD1\10. Chacun le sait, chacun le dit.wav
Peak level 67.6 %
Extraction speed 3.6 X
Track quality 100.0 %
Test CRC D1AAA90B
Copy CRC D1AAA90B
Accurately ripped (confidence 1) [C294E2A4] (AR v2)
Copy OK
Track 11
Filename D:\Temp\Доницетти - La Fille du Regiment - Lily Pons, Raoul Jobin, Irra Petina - Gennaro Papi;\La Fille du Regiment CD1\11. C'est l'instant de l'appel!.wav
Peak level 69.4 %
Extraction speed 3.7 X
Track quality 100.0 %
Test CRC 2D8FEBC6
Copy CRC 2D8FEBC6
Accurately ripped (confidence 1) [A8E6FEC2] (AR v2)
Copy OK
Track 12
Filename D:\Temp\Доницетти - La Fille du Regiment - Lily Pons, Raoul Jobin, Irra Petina - Gennaro Papi;\La Fille du Regiment CD1\12. Act II- Ils l'ont emmene brutalement.wav
Peak level 65.5 %
Extraction speed 2.7 X
Track quality 99.9 %
Test CRC C28C235A
Copy CRC C28C235A
Accurately ripped (confidence 1) [87CC1221] (AR v2)
Copy OK
Track 13
Filename D:\Temp\Доницетти - La Fille du Regiment - Lily Pons, Raoul Jobin, Irra Petina - Gennaro Papi;\La Fille du Regiment CD1\13. Quoi! Vous m'aimez - Depuis l'instant ou.wav
Peak level 76.4 %
Extraction speed 4.0 X
Track quality 100.0 %
Test CRC 1B840B98
Copy CRC 1B840B98
Accurately ripped (confidence 1) [6E180743] (AR v2)
Copy OK
Track 14
Filename D:\Temp\Доницетти - La Fille du Regiment - Lily Pons, Raoul Jobin, Irra Petina - Gennaro Papi;\La Fille du Regiment CD1\14. La Fille du Regiment Sacre nom d'un chien!.wav
Peak level 83.6 %
Extraction speed 4.0 X
Track quality 100.0 %
Test CRC 38670096
Copy CRC 38670096
Accurately ripped (confidence 1) [BE5B84DE] (AR v2)
Copy OK
Track 15
Filename D:\Temp\Доницетти - La Fille du Regiment - Lily Pons, Raoul Jobin, Irra Petina - Gennaro Papi;\La Fille du Regiment CD1\15. Rataplan, rataplan, rataplan!.wav
Peak level 74.4 %
Extraction speed 3.3 X
Track quality 99.9 %
Test CRC A211C743
Copy CRC A211C743
Accurately ripped (confidence 1) [15AC534B] (AR v2)
Copy OK
Track 16
Filename D:\Temp\Доницетти - La Fille du Regiment - Lily Pons, Raoul Jobin, Irra Petina - Gennaro Papi;\La Fille du Regiment CD1\16. Sulpice! A gauche!.wav
Peak level 57.9 %
Extraction speed 4.0 X
Track quality 100.0 %
Test CRC DC1C7898
Copy CRC DC1C7898
Accurately ripped (confidence 1) [B490C5B1] (AR v2)
Copy OK
Track 17
Filename D:\Temp\Доницетти - La Fille du Regiment - Lily Pons, Raoul Jobin, Irra Petina - Gennaro Papi;\La Fille du Regiment CD1\17. Ah! mes amis, quel jour de fete! - La camarade est amoureux!.wav
Peak level 86.8 %
Extraction speed 4.5 X
Track quality 100.0 %
Test CRC C1D0F335
Copy CRC C1D0F335
Accurately ripped (confidence 1) [494F221C] (AR v2)
Copy OK
Track 18
Filename D:\Temp\Доницетти - La Fille du Regiment - Lily Pons, Raoul Jobin, Irra Petina - Gennaro Papi;\La Fille du Regiment CD1\18. Je suis soldat . . . Il faut partir.wav
Peak level 77.2 %
Extraction speed 4.9 X
Track quality 100.0 %
Test CRC 859B70CB
Copy CRC 859B70CB
Accurately ripped (confidence 1) [6DBA050E] (AR v2)
Copy OK
Track 19
Filename D:\Temp\Доницетти - La Fille du Regiment - Lily Pons, Raoul Jobin, Irra Petina - Gennaro Papi;\La Fille du Regiment CD1\19. Ah! Si vous nous quittez . . . O douleur! O surprise! Elle quitte ces lieux!.wav
Peak level 100.0 %
Extraction speed 3.9 X
Track quality 99.9 %
Test CRC 3B0AC85A
Copy CRC 3B0AC85A
Accurately ripped (confidence 1) [6AC7C3DB] (AR v2)
Copy OK
All tracks accurately ripped
No errors occurred
End of status report
==== Log checksum B65065CA944A83CE4DFDCB716E2330C50C6D12FA787C3C1D0703F5D2B9C58082 ====

La Fille du Regiment CD2.log

Exact Audio Copy V1.0 beta 3 from 29. August 2011
EAC extraction logfile from 28. February 2015, 15:42
Lily Pons, Raoul Jobin, Irra Petina, / La Fille du Regiment CD2
Used drive : hp DVDRAM GT50N Adapter: 0 ID: 0
Read mode : Secure
Utilize accurate stream : Yes
Defeat audio cache : Yes
Make use of C2 pointers : No
Read offset correction : 103
Overread into Lead-In and Lead-Out : No
Fill up missing offset samples with silence : Yes
Delete leading and trailing silent blocks : No
Null samples used in CRC calculations : Yes
Used interface : Native Win32 interface for Win NT & 2000
Gap handling : Appended to previous track
Used output format : User Defined Encoder
Selected bitrate : 128 kBit/s
Quality : High
Add ID3 tag : No
Command line compressor : C:\Program Files\Exact Audio Copy\Flac\flac.exe
Additional command line options : -V -8 -T "Genre=%genre%" -T "Artist=%artist%" -T "Title=%title%" -T "Album=%albumtitle%" -T "Date=%year%" -T "Tracknumber=%tracknr%" -T "Comment=%comment%" %source%
TOC of the extracted CD
Track | Start | Length | Start sector | End sector
---------------------------------------------------------
1 | 0:00.00 | 3:59.72 | 0 | 17996
2 | 3:59.72 | 1:38.44 | 17997 | 25390
3 | 5:38.41 | 3:00.31 | 25391 | 38921
4 | 8:38.72 | 3:39.11 | 38922 | 55357
5 | 12:18.08 | 0:35.69 | 55358 | 58051
6 | 12:54.02 | 4:39.06 | 58052 | 78982
7 | 17:33.08 | 2:56.36 | 78983 | 92218
8 | 20:29.44 | 3:15.71 | 92219 | 106914
9 | 23:45.40 | 0:54.66 | 106915 | 111030
10 | 24:40.31 | 1:31.47 | 111031 | 117902
11 | 26:12.03 | 3:38.74 | 117903 | 134326
12 | 29:51.02 | 2:08.15 | 134327 | 143941
13 | 31:59.17 | 2:27.42 | 143942 | 155008
14 | 34:26.59 | 2:27.60 | 155009 | 166093
15 | 36:54.44 | 1:17.50 | 166094 | 171918
Track 1
Filename D:\Temp\Доницетти - La Fille du Regiment - Lily Pons, Raoul Jobin, Irra Petina - Gennaro Papi;\La Fille du Regiment CD2\01. Act III- Entr'acte - Voici le contrat que le notaire envoie.wav
Pre-gap length 0:00:02.00
Peak level 47.9 %
Extraction speed 2.4 X
Track quality 100.0 %
Test CRC B49F84F5
Copy CRC B49F84F5
Accurately ripped (confidence 1) [807A176C] (AR v2)
Copy OK
Track 2
Filename D:\Temp\Доницетти - La Fille du Regiment - Lily Pons, Raoul Jobin, Irra Petina - Gennaro Papi;\La Fille du Regiment CD2\02. La romance perdue on l'a retrouvee.wav
Peak level 40.3 %
Extraction speed 1.7 X
Track quality 99.8 %
Test CRC 3849D57F
Copy CRC 3849D57F
Accurately ripped (confidence 1) [283D8764] (AR v2)
Copy OK
Track 3
Filename D:\Temp\Доницетти - La Fille du Regiment - Lily Pons, Raoul Jobin, Irra Petina - Gennaro Papi;\La Fille du Regiment CD2\03. Le jour naissait dans le bocage . . . Le voila, le voila, le voila, morbleu!.wav
Peak level 58.8 %
Extraction speed 2.7 X
Track quality 100.0 %
Test CRC DA09E291
Copy CRC DA09E291
Accurately ripped (confidence 1) [304040B9] (AR v2)
Copy OK
Track 4
Filename D:\Temp\Доницетти - La Fille du Regiment - Lily Pons, Raoul Jobin, Irra Petina - Gennaro Papi;\La Fille du Regiment CD2\04. Continuons! - Je le veux bien!.wav
Peak level 69.2 %
Extraction speed 3.0 X
Track quality 100.0 %
Test CRC 20D7125E
Copy CRC 20D7125E
Accurately ripped (confidence 1) [1F2B6D8B] (AR v2)
Copy OK
Track 5
Filename D:\Temp\Доницетти - La Fille du Regiment - Lily Pons, Raoul Jobin, Irra Petina - Gennaro Papi;\La Fille du Regiment CD2\05. C'est bien vous grenadier!.wav
Peak level 43.3 %
Extraction speed 1.8 X
Track quality 100.0 %
Test CRC DC4844DB
Copy CRC DC4844DB
Accurately ripped (confidence 1) [75C4CB6E] (AR v2)
Copy OK
Track 6
Filename D:\Temp\Доницетти - La Fille du Regiment - Lily Pons, Raoul Jobin, Irra Petina - Gennaro Papi;\La Fille du Regiment CD2\06. C'en est donc fait . . . Par le rang et par l'opulence.wav
Peak level 51.4 %
Extraction speed 3.4 X
Track quality 100.0 %
Test CRC A217B768
Copy CRC A217B768
Accurately ripped (confidence 1) [0F4E6953] (AR v2)
Copy OK
Track 7
Filename D:\Temp\Доницетти - La Fille du Regiment - Lily Pons, Raoul Jobin, Irra Petina - Gennaro Papi;\La Fille du Regiment CD2\07. Pour ce contrat fatal . . . Salut a la France.wav
Peak level 62.7 %
Extraction speed 3.3 X
Track quality 100.0 %
Test CRC 42F0205E
Copy CRC 42F0205E
Accurately ripped (confidence 1) [A7171C0B] (AR v2)
Copy OK
Track 8
Filename D:\Temp\Доницетти - La Fille du Regiment - Lily Pons, Raoul Jobin, Irra Petina - Gennaro Papi;\La Fille du Regiment CD2\08. Toi par qui mon coeur rayonne (Interpolation from Lucie de Lammermoor).wav
Peak level 75.6 %
Extraction speed 3.6 X
Track quality 100.0 %
Test CRC AE34F4C0
Copy CRC AE34F4C0
Accurately ripped (confidence 1) [CDEF60E0] (AR v2)
Copy OK
Track 9
Filename D:\Temp\Доницетти - La Fille du Regiment - Lily Pons, Raoul Jobin, Irra Petina - Gennaro Papi;\La Fille du Regiment CD2\09. Mais vous mes braves amis.wav
Peak level 55.3 %
Extraction speed 2.6 X
Track quality 100.0 %
Test CRC FE5E6722
Copy CRC FE5E6722
Accurately ripped (confidence 1) [59E4F2C3] (AR v2)
Copy OK
Track 10
Filename D:\Temp\Доницетти - La Fille du Regiment - Lily Pons, Raoul Jobin, Irra Petina - Gennaro Papi;\La Fille du Regiment CD2\10. Tous les trois reunis.wav
Peak level 66.8 %
Extraction speed 2.4 X
Track quality 99.8 %
Test CRC 10A52CAC
Copy CRC 10A52CAC
Accurately ripped (confidence 1) [701FD0CA] (AR v2)
Copy OK
Track 11
Filename D:\Temp\Доницетти - La Fille du Regiment - Lily Pons, Raoul Jobin, Irra Petina - Gennaro Papi;\La Fille du Regiment CD2\11. Qu'est-ce que je vois un officier.wav
Peak level 62.3 %
Extraction speed 3.9 X
Track quality 100.0 %
Test CRC 0AF2C366
Copy CRC 0AF2C366
Accurately ripped (confidence 1) [F3992E5E] (AR v2)
Copy OK
Track 12
Filename D:\Temp\Доницетти - La Fille du Regiment - Lily Pons, Raoul Jobin, Irra Petina - Gennaro Papi;\La Fille du Regiment CD2\12. Waltz.wav
Peak level 60.4 %
Extraction speed 3.6 X
Track quality 100.0 %
Test CRC E50EA255
Copy CRC E50EA255
Accurately ripped (confidence 1) [3D5C79B5] (AR v2)
Copy OK
Track 13
Filename D:\Temp\Доницетти - La Fille du Regiment - Lily Pons, Raoul Jobin, Irra Petina - Gennaro Papi;\La Fille du Regiment CD2\13. Au secours de notre fille.wav
Peak level 86.2 %
Extraction speed 3.8 X
Track quality 100.0 %
Test CRC B558CEC3
Copy CRC B558CEC3
Accurately ripped (confidence 1) [4D71D9EA] (AR v2)
Copy OK
Track 14
Filename D:\Temp\Доницетти - La Fille du Regiment - Lily Pons, Raoul Jobin, Irra Petina - Gennaro Papi;\La Fille du Regiment CD2\14. Quand le destin, au milieu de la guerre.wav
Peak level 71.5 %
Extraction speed 3.9 X
Track quality 100.0 %
Test CRC CE2FCA57
Copy CRC CE2FCA57
Accurately ripped (confidence 1) [A55BF991] (AR v2)
Copy OK
Track 15
Filename D:\Temp\Доницетти - La Fille du Regiment - Lily Pons, Raoul Jobin, Irra Petina - Gennaro Papi;\La Fille du Regiment CD2\15. Salut a la France!.wav
Peak level 84.3 %
Extraction speed 2.5 X
Track quality 99.8 %
Test CRC F216E573
Copy CRC F216E573
Accurately ripped (confidence 1) [36E4F22F] (AR v2)
Copy OK
All tracks accurately ripped
No errors occurred
End of status report
==== Log checksum FC7261B33350FC63440670478EC1D6FF6FA96098DEE2C683DBE55CC882F24916 ====

Содержание индексной карты (.CUE)

La Fille du Regiment CD1.cue

REM DISCID 100E2413
REM COMMENT "ExactAudioCopy v1.0b3"
PERFORMER "Lily Pons, Raoul Jobin, Irra Petina,"
TITLE "La Fille du Regiment CD1"
FILE "01. Overture.wav" WAVE
TRACK 01 AUDIO
TITLE "Overture"
PERFORMER "Lily Pons, Raoul Jobin, Irra Petina,"
INDEX 01 00:00:00
FILE "02. Act I- L'ennemi s'avance . . . Sainte Madone!.wav" WAVE
TRACK 02 AUDIO
TITLE "Act I: L'ennemi s'avance . . . Sainte Madone!"
PERFORMER "Lily Pons, Raoul Jobin, Irra Petina,"
INDEX 01 00:00:00
FILE "03. Allons, madame la marquise.wav" WAVE
TRACK 03 AUDIO
TITLE "Allons, madame la marquise"
PERFORMER "Lily Pons, Raoul Jobin, Irra Petina,"
INDEX 01 00:00:00
FILE "04. Les Francais quittent la montagne - Allons, plus d'alarmes!.wav" WAVE
TRACK 04 AUDIO
TITLE "Les Francais quittent la montagne - Allons, plus d'alarmes!"
PERFORMER "Lily Pons, Raoul Jobin, Irra Petina,"
INDEX 01 00:00:00
FILE "05. Mes enfants, par pitie soutenez-moi!.wav" WAVE
TRACK 05 AUDIO
TITLE "Mes enfants, par pitie soutenez-moi!"
PERFORMER "Lily Pons, Raoul Jobin, Irra Petina,"
INDEX 01 00:00:00
FILE "06. Sacre nom d'une pipe!.wav" WAVE
TRACK 06 AUDIO
TITLE "Sacre nom d'une pipe!"
PERFORMER "Lily Pons, Raoul Jobin, Irra Petina,"
INDEX 01 00:00:00
FILE "07. Au bruit de la guerre.wav" WAVE
TRACK 07 AUDIO
TITLE "Au bruit de la guerre"
PERFORMER "Lily Pons, Raoul Jobin, Irra Petina,"
INDEX 01 00:00:00
FILE "08. J'ai plaisir de te voir, sans que personne ne nous entende.wav" WAVE
TRACK 08 AUDIO
TITLE "J'ai plaisir de te voir, sans que personne ne nous entende"
PERFORMER "Lily Pons, Raoul Jobin, Irra Petina,"
INDEX 01 00:00:00
FILE "09. Allons, allons, march', march' . . . C'est un traitre, qui, peut-etre.wav" WAVE
TRACK 09 AUDIO
TITLE "Allons, allons, march', march' . . . C'est un traitre, qui, peut-etre"
PERFORMER "Lily Pons, Raoul Jobin, Irra Petina,"
INDEX 01 00:00:00
FILE "10. Chacun le sait, chacun le dit.wav" WAVE
TRACK 10 AUDIO
TITLE "Chacun le sait, chacun le dit"
PERFORMER "Lily Pons, Raoul Jobin, Irra Petina,"
INDEX 01 00:00:00
FILE "11. C'est l'instant de l'appel!.wav" WAVE
TRACK 11 AUDIO
TITLE "C'est l'instant de l'appel!"
PERFORMER "Lily Pons, Raoul Jobin, Irra Petina,"
INDEX 01 00:00:00
FILE "12. Act II- Ils l'ont emmene brutalement.wav" WAVE
TRACK 12 AUDIO
TITLE "Act II: Ils l'ont emmene brutalement"
PERFORMER "Lily Pons, Raoul Jobin, Irra Petina,"
INDEX 01 00:00:00
FILE "13. Quoi! Vous m'aimez - Depuis l'instant ou.wav" WAVE
TRACK 13 AUDIO
TITLE "Quoi! Vous m'aimez? - Depuis l'instant ou"
PERFORMER "Lily Pons, Raoul Jobin, Irra Petina,"
INDEX 01 00:00:00
FILE "14. La Fille du Regiment Sacre nom d'un chien!.wav" WAVE
TRACK 14 AUDIO
TITLE "La Fille du Regiment Sacre nom d'un chien!"
PERFORMER "Lily Pons, Raoul Jobin, Irra Petina,"
INDEX 01 00:00:00
FILE "15. Rataplan, rataplan, rataplan!.wav" WAVE
TRACK 15 AUDIO
TITLE "Rataplan, rataplan, rataplan!"
PERFORMER "Lily Pons, Raoul Jobin, Irra Petina,"
INDEX 01 00:00:00
FILE "16. Sulpice! A gauche!.wav" WAVE
TRACK 16 AUDIO
TITLE "Sulpice! A gauche!"
PERFORMER "Lily Pons, Raoul Jobin, Irra Petina,"
INDEX 01 00:00:00
FILE "17. Ah! mes amis, quel jour de fete! - La camarade est amoureux!.wav" WAVE
TRACK 17 AUDIO
TITLE "Ah! mes amis, quel jour de fete! - La camarade est amoureux!"
PERFORMER "Lily Pons, Raoul Jobin, Irra Petina,"
INDEX 01 00:00:00
FILE "18. Je suis soldat . . . Il faut partir.wav" WAVE
TRACK 18 AUDIO
TITLE "Je suis soldat . . . Il faut partir"
PERFORMER "Lily Pons, Raoul Jobin, Irra Petina,"
INDEX 01 00:00:00
FILE "19. Ah! Si vous nous quittez . . . O douleur! O surprise! Elle quitte ces lieux!.wav" WAVE
TRACK 19 AUDIO
TITLE "Ah! Si vous nous quittez . . . O douleur! O surprise! Elle quitte ces lieux!"
PERFORMER "Lily Pons, Raoul Jobin, Irra Petina,"
INDEX 01 00:00:00

La Fille du Regiment CD2.cue

REM DISCID B208F40F
REM COMMENT "ExactAudioCopy v1.0b3"
PERFORMER "Lily Pons, Raoul Jobin, Irra Petina,"
TITLE "La Fille du Regiment CD2"
FILE "01. Act III- Entr'acte - Voici le contrat que le notaire envoie.wav" WAVE
TRACK 01 AUDIO
TITLE "Act III: Entr'acte - Voici le contrat que le notaire envoie"
PERFORMER "Lily Pons, Raoul Jobin, Irra Petina,"
INDEX 01 00:00:00
FILE "02. La romance perdue on l'a retrouvee.wav" WAVE
TRACK 02 AUDIO
TITLE "La romance perdue on l'a retrouvee"
PERFORMER "Lily Pons, Raoul Jobin, Irra Petina,"
INDEX 01 00:00:00
FILE "03. Le jour naissait dans le bocage . . . Le voila, le voila, le voila, morbleu!.wav" WAVE
TRACK 03 AUDIO
TITLE "Le jour naissait dans le bocage . . . Le voila, le voila, le voila, morbleu!"
PERFORMER "Lily Pons, Raoul Jobin, Irra Petina,"
INDEX 01 00:00:00
FILE "04. Continuons! - Je le veux bien!.wav" WAVE
TRACK 04 AUDIO
TITLE "Continuons! - Je le veux bien!"
PERFORMER "Lily Pons, Raoul Jobin, Irra Petina,"
INDEX 01 00:00:00
FILE "05. C'est bien vous grenadier!.wav" WAVE
TRACK 05 AUDIO
TITLE "C'est bien vous grenadier!"
PERFORMER "Lily Pons, Raoul Jobin, Irra Petina,"
INDEX 01 00:00:00
FILE "06. C'en est donc fait . . . Par le rang et par l'opulence.wav" WAVE
TRACK 06 AUDIO
TITLE "C'en est donc fait . . . Par le rang et par l'opulence"
PERFORMER "Lily Pons, Raoul Jobin, Irra Petina,"
INDEX 01 00:00:00
FILE "07. Pour ce contrat fatal . . . Salut a la France.wav" WAVE
TRACK 07 AUDIO
TITLE "Pour ce contrat fatal . . . Salut a la France"
PERFORMER "Lily Pons, Raoul Jobin, Irra Petina,"
INDEX 01 00:00:00
FILE "08. Toi par qui mon coeur rayonne (Interpolation from Lucie de Lammermoor).wav" WAVE
TRACK 08 AUDIO
TITLE "Toi par qui mon coeur rayonne (Interpolation from Lucie de Lammermoor)"
PERFORMER "Lily Pons, Raoul Jobin, Irra Petina,"
INDEX 01 00:00:00
FILE "09. Mais vous mes braves amis.wav" WAVE
TRACK 09 AUDIO
TITLE "Mais vous mes braves amis"
PERFORMER "Lily Pons, Raoul Jobin, Irra Petina,"
INDEX 01 00:00:00
FILE "10. Tous les trois reunis.wav" WAVE
TRACK 10 AUDIO
TITLE "Tous les trois reunis"
PERFORMER "Lily Pons, Raoul Jobin, Irra Petina,"
INDEX 01 00:00:00
FILE "11. Qu'est-ce que je vois un officier.wav" WAVE
TRACK 11 AUDIO
TITLE "Qu'est-ce que je vois un officier"
PERFORMER "Lily Pons, Raoul Jobin, Irra Petina,"
INDEX 01 00:00:00
FILE "12. Waltz.wav" WAVE
TRACK 12 AUDIO
TITLE "Waltz"
PERFORMER "Lily Pons, Raoul Jobin, Irra Petina,"
INDEX 01 00:00:00
FILE "13. Au secours de notre fille.wav" WAVE
TRACK 13 AUDIO
TITLE "Au secours de notre fille"
PERFORMER "Lily Pons, Raoul Jobin, Irra Petina,"
INDEX 01 00:00:00
FILE "14. Quand le destin, au milieu de la guerre.wav" WAVE
TRACK 14 AUDIO
TITLE "Quand le destin, au milieu de la guerre"
PERFORMER "Lily Pons, Raoul Jobin, Irra Petina,"
INDEX 01 00:00:00
FILE "15. Salut a la France!.wav" WAVE
TRACK 15 AUDIO
TITLE "Salut a la France!"
PERFORMER "Lily Pons, Raoul Jobin, Irra Petina,"
INDEX 01 00:00:00



Показать сообщения:    

Текущее время: 09-Дек 18:33

Часовой пояс: UTC + 3


Вы не можете начинать темы
Вы не можете отвечать на сообщения
Вы не можете редактировать свои сообщения
Вы не можете удалять свои сообщения
Вы не можете голосовать в опросах
Вы не можете прикреплять файлы к сообщениям
Вы не можете скачивать файлы