(Opera) Smetana - The Bartered Bride (highlights) (Drake, Robson, June, Stannard - Sadlers Wells Opera Orchestra, Lockhart) - 2003, APE (image+.cue) lossless


 

[Цитировать]

Smetana - The Bartered Bride (highlights)
Жанр: Opera
Страна-производитель диска: EU
Год издания диска: 2003
Издатель (лейбл): EMI
Номер по каталогу: 7243 5 85010 2 5
Дата записи: 1958-1962
Аудиокодек: APE
Тип рипа: image+.cue
Битрейт аудио: lossless
Продолжительность: 51'55
Источник: собственный рип
Наличие сканов в содержимом раздачи: да
Треклист:
1. Overture
2. Now's the time for fun and laughter
3. As I said before, old fellow
4. Polka
5. Somewhere not so far away
6. Just a moment
7. Think it over Marenka
8. Ah, cruel fate....Our dream of love, how fair it was
9. Have you repented and made up your mind?
Исполнители:
Smetana - The Bartered Bride (highlights)
English version by Joan Cross and Eric Crozler
Bryan Drake, baryton
Ann Robson, mezzo-soprano
Ava June, soprano
Eric Stannard, bass
Sheila Rex, mezzo-soprano
Kevin Miller , tenor
Donald Smith, tenor
John Holmes, bass
Overture - Pro Arte Orchestra, Sir Charles Mackerras
Sadlers Wells Opera Chorus
Sadlers Wells Opera Orchestra
James Lockhart

Лог создания рипа

Exact Audio Copy V1.0 beta 3 from 29. August 2011
EAC extraction logfile from 27. July 2014, 15:28
Smetana / The Bartered Bride (highlights), Lockhart
Used drive : TSSTcorpCDDVDW SE-208AB Adapter: 1 ID: 1
Read mode : SecureUtilize accurate stream : YesDefeat audio cache : YesMake use of C2 pointers : No
Read offset correction : 6Overread into Lead-In and Lead-Out : NoFill up missing offset samples with silence : YesDelete leading and trailing silent blocks : NoNull samples used in CRC calculations : YesUsed interface : Native Win32 interface for Win NT & 2000
Used output format : Monkey's Audio Lossless EncoderSelected bitrate : High Lossless CompressionQuality : HighAdd ID3 tag : NoCommand line compressor : C:\Program Files (x86)\Exact Audio Copy\MAC\MAC.exe
TOC of the extracted CD
Track | Start | Length | Start sector | End sector --------------------------------------------------------- 1 | 0:00.00 | 6:29.07 | 0 | 29181 2 | 6:29.07 | 6:21.43 | 29182 | 57799 3 | 12:50.50 | 5:07.50 | 57800 | 80874 4 | 17:58.25 | 4:29.15 | 80875 | 101064 5 | 22:27.40 | 5:59.00 | 101065 | 127989 6 | 28:26.40 | 7:30.60 | 127990 | 161799 7 | 35:57.25 | 3:13.17 | 161800 | 176291 8 | 39:10.42 | 5:43.50 | 176292 | 202066 9 | 44:54.17 | 7:00.65 | 202067 | 233631
Range status and errors
Selected range
Filename D:\EAC\Smetana - The Bartered Bride (highlights), Lockhart.wav
Peak level 94.3 % Extraction speed 1.9 X Range quality 100.0 % Test CRC DB6D0272 Copy CRC DB6D0272 Copy OK
No errors occurred
AccurateRip summary
Track 1 accurately ripped (confidence 2) [273D3750] (AR v1)Track 2 accurately ripped (confidence 2) [8E32041F] (AR v1)Track 3 accurately ripped (confidence 2) [93F60197] (AR v1)Track 4 accurately ripped (confidence 2) [E324E56A] (AR v1)Track 5 accurately ripped (confidence 2) [4FF6894A] (AR v1)Track 6 accurately ripped (confidence 2) [E66DE46A] (AR v1)Track 7 accurately ripped (confidence 2) [9FA5B948] (AR v1)Track 8 accurately ripped (confidence 2) [90E20030] (AR v1)Track 9 accurately ripped (confidence 2) [1AA27339] (AR v1)
All tracks accurately ripped
End of status report
---- CUETools DB Plugin V2.1.3
[CTDB TOCID: pe_RLff0Fx4lzZSM6f_vBZSnCiE-] disk not present in database, Submit result: pe_RLff0Fx4lzZSM6f_vBZSnCiE- has been uploaded
==== Log checksum E01D14AF153D5CB9BC4E9D8F8A24720F16DEA60D53CC8E34D40E9D1A233B3D3F ====

Содержание индексной карты (.CUE)

REM GENRE OperaREM DATE 1962REM DISCID 7D0C2B09REM COMMENT "ExactAudioCopy v1.0b3"CATALOG 0724358501025PERFORMER "Smetana"TITLE "The Bartered Bride (highlights), Lockhart"FILE "Smetana - The Bartered Bride (highlights), Lockhart.ape" WAVE TRACK 01 AUDIO TITLE "Overture" PERFORMER "Smetana" ISRC GBAYD0300407 INDEX 01 00:00:00 TRACK 02 AUDIO TITLE "Now's the time for fun and laughter" PERFORMER "Smetana" ISRC GBAYD0300410 INDEX 00 06:24:72 INDEX 01 06:29:07 TRACK 03 AUDIO TITLE "As I said before, old fellow " PERFORMER "Smetana" ISRC GBAYD0300411 INDEX 01 12:50:50 TRACK 04 AUDIO TITLE "Polka" PERFORMER "Smetana" ISRC GBAYD0300412 INDEX 01 17:58:25 TRACK 05 AUDIO TITLE "Somewhere not so far away" PERFORMER "Smetana" ISRC GBAYD0300414 INDEX 00 22:23:67 INDEX 01 22:27:40 TRACK 06 AUDIO TITLE "Just a moment" PERFORMER "Smetana" ISRC GBAYD0300414 INDEX 01 28:26:40 TRACK 07 AUDIO TITLE "Think it over Marenka" PERFORMER "Smetana" ISRC GBAYD0300417 INDEX 00 35:53:00 INDEX 01 35:57:25 TRACK 08 AUDIO TITLE "Ah, cruel fate....Our dream of love, how fair it was" PERFORMER "Smetana" ISRC GBAYD0300417 INDEX 01 39:10:42 TRACK 09 AUDIO TITLE "Have you repented and made up your mind?" PERFORMER "Smetana" ISRC GBAYD0300419 INDEX 01 44:54:17



Показать сообщения:    

Текущее время: 05-Дек 23:37

Часовой пояс: UTC + 3


Вы не можете начинать темы
Вы не можете отвечать на сообщения
Вы не можете редактировать свои сообщения
Вы не можете удалять свои сообщения
Вы не можете голосовать в опросах
Вы не можете прикреплять файлы к сообщениям
Вы не можете скачивать файлы