(Classical) Сергей Рахманинов (Rachmaninov, Rachmaninoff) - Монна Ванна (Акт I); Романсы - Душина, Автономов, Иванчей, Арутюнян, Головушкин, Хор и оркестр студентов Московской Консерватории, Soile Isokoski, Владимир Ашкенази (Ashkenazy) - 2014, FLAC


 

[Цитировать]

Сергей Рахманинов - Монна Ванна (Акт I); Романсы - Душина, Автономов, Иванчей, Арутюнян, Головушкин, Хор и оркестр студентов Московской Консерватории, Soile Isokoski, Владимир Ашкенази (Ashkenazy)
Жанр: Classical
Страна-производитель диска: Finland
Год издания диска: 2014
Издатель (лейбл): Ondine
Номер по каталогу: ODE 1249-2
Дата записи: 2009, 2013
Аудиокодек: FLAC
Тип рипа: image+.cue
Битрейт аудио: lossless
Продолжительность: 57:18
Источник: собственный рип
Наличие сканов в содержимом раздачи: да
Треклист:
Сергей Рахманинов (1873-1943)
[1]-[4] Монна Ванна
Неоконченная опера
Акт I
Монна Ванна Евгения Душина сопрано
Гвидо Колонна Владимир Автономов баритон
Марко Колонна Дмитрий Иванчей тенор
Борсо Эдуард Арутюнян тенор
Торелло Михаил Головушкин бас
Хор и оркестр студентов Московской Консерватории
Владимир Ашкенази
дирижер
Романсы
[5] У моего окна
[6] Ночь печальна
[7] Сирень
[8] Крысолов
[9] Вокализ
[10] Здесь хорошо
[11] Сон
Soile Isokoski soprano
Vladimir Ashkenazy piano
Исполнители:
Евгения Душина сопрано
Владимир Автономов баритон
Дмитрий Иванчей тенор
Эдуард Арутюнян тенор
Михаил Головушкин бас
Хор и оркестр студентов Московской Консерватории
Soile Isokoski soprano
Владимир Ашкенази дирижер, фортепиано

Лог создания рипа

Exact Audio Copy V1.0 beta 3 from 29. August 2011
EAC extraction logfile from 8. November 2014, 2:13
/ Rachmaninov - Monna Vanna; Songs
Used drive : HL-DT-STDVDRAM GU70N Adapter: 0 ID: 0
Read mode : SecureUtilize accurate stream : YesDefeat audio cache : YesMake use of C2 pointers : No
Read offset correction : 48Overread into Lead-In and Lead-Out : NoFill up missing offset samples with silence : YesDelete leading and trailing silent blocks : NoNull samples used in CRC calculations : YesUsed interface : Native Win32 interface for Win NT & 2000
Used output format : User Defined EncoderSelected bitrate : 128 kBit/sQuality : HighAdd ID3 tag : NoCommand line compressor : C:\Program Files (x86)\Exact Audio Copy\Flac\flac.exeAdditional command line options : -V -8 -T "Date=%year%" -T "Genre=%genre%" %source%
TOC of the extracted CD
Track | Start | Length | Start sector | End sector --------------------------------------------------------- 1 | 0:00.00 | 1:20.68 | 0 | 6067 2 | 1:20.68 | 4:49.69 | 6068 | 27811 3 | 6:10.62 | 14:37.51 | 27812 | 93637 4 | 20:48.38 | 17:28.09 | 93638 | 172246 5 | 38:16.47 | 2:03.34 | 172247 | 181505 6 | 40:20.06 | 2:10.47 | 181506 | 191302 7 | 42:30.53 | 1:37.74 | 191303 | 198651 8 | 44:08.52 | 2:29.06 | 198652 | 209832 9 | 46:37.58 | 5:45.00 | 209833 | 235707 10 | 52:22.58 | 1:51.64 | 235708 | 244096 11 | 54:14.47 | 3:01.33 | 244097 | 257704
Range status and errors
Selected range
Filename C:\temp\Rachmaninov - Monna Vanna; Songs\Rachmaninov - Monna Vanna; Songs.wav
Peak level 91.3 % Extraction speed 5.2 X Range quality 100.0 % Test CRC AE007154 Copy CRC AE007154 Copy OK
No errors occurred
AccurateRip summary
Track 1 not present in databaseTrack 2 not present in databaseTrack 3 not present in databaseTrack 4 not present in databaseTrack 5 not present in databaseTrack 6 not present in databaseTrack 7 not present in databaseTrack 8 not present in databaseTrack 9 not present in databaseTrack 10 not present in databaseTrack 11 not present in database
None of the tracks are present in the AccurateRip database
End of status report
==== Log checksum 0FE4D291534A7D052E45BE396AB0388F6E87CD71043624D23FF079D2A419CC0B ====



Показать сообщения:    

Текущее время: 04-Дек 09:06

Часовой пояс: UTC + 3


Вы не можете начинать темы
Вы не можете отвечать на сообщения
Вы не можете редактировать свои сообщения
Вы не можете удалять свои сообщения
Вы не можете голосовать в опросах
Вы не можете прикреплять файлы к сообщениям
Вы не можете скачивать файлы