(Opera) Anna Moffo, Franco Ferrara - A Verdi Collaboration - 2013, APE (image+.cue) lossless


 

[Цитировать]

Anna Moffo, Franco Ferrara - A Verdi Collaboration - 2013, APE (image+.cue) lossless
Жанр: Opera
Страна-производитель диска: EU
Год издания диска: 2013
Издатель (лейбл): RCA Red Seal
Номер по каталогу: 88765443652
Дата записи: 1962
Аудиокодек: APE
Тип рипа: image+.cue
Битрейт аудио: lossless
Продолжительность: 50:02
Источник: собственный рип
Наличие сканов в содержимом раздачи: нет
Треклист:
01 Merce, dilette amiche (I Vespri siciliani)
02 Ernani, involami (Ernani)
03 O patria mia (Aida)
04 D'amor sull'ali rosee (Il trovatore)
05 Oh, ben s'addice questo torbido cielo (Giovanna d'Arco)
06 Salce! Salce! ... Ave Maria (Otello)
07 Morro, ma prima in grazia (Un ballo in maschera)
08 Come in quest'ora bruna (Simone Boccanegra)
Исполнители:
Anna Moffo, soprano
Franco Ferrara, conductor
RCA Italiana Orchestra

Лог создания рипа

Exact Audio Copy V1.0 beta 3 from 29. August 2011
EAC extraction logfile from 25. January 2015, 17:33
Anna Moffo - Franco Ferrara, RCA Italiana Orchestra / A Verdi Collaboration
Used drive : TS8XDVDRTranscend Adapter: 2 ID: 1
Read mode : SecureUtilize accurate stream : YesDefeat audio cache : YesMake use of C2 pointers : No
Read offset correction : 6Overread into Lead-In and Lead-Out : NoFill up missing offset samples with silence : YesDelete leading and trailing silent blocks : NoNull samples used in CRC calculations : YesUsed interface : Native Win32 interface for Win NT & 2000
Used output format : Monkey's Audio Lossless EncoderSelected bitrate : Normal Lossless CompressionQuality : HighAdd ID3 tag : YesCommand line compressor : C:\Program Files (x86)\Monkey's Audio\MAC.exeAdditional command line options : %source% %dest% -c3000
TOC of the extracted CD
Track | Start | Length | Start sector | End sector --------------------------------------------------------- 1 | 0:00.00 | 2:18.70 | 0 | 10419 2 | 2:18.70 | 6:36.60 | 10420 | 40179 3 | 8:55.55 | 6:38.10 | 40180 | 70039 4 | 15:33.65 | 5:31.43 | 70040 | 94907 5 | 21:05.33 | 4:22.10 | 94908 | 114567 6 | 25:27.43 | 15:15.34 | 114568 | 183226 7 | 40:43.02 | 4:34.62 | 183227 | 203838 8 | 45:17.64 | 4:42.13 | 203839 | 225001
Range status and errors
Selected range
Filename C:\Users\Alex\Music\Anna Moffo - A Verdi Collaboration (1962)\CDImage.wav
Peak level 99.0 % Extraction speed 1.6 X Range quality 100.0 % Test CRC 7FE00C84 Copy CRC 7FE00C84 Copy OK
No errors occurred
AccurateRip summary
Track 1 accurately ripped (confidence 1) [F4B4BDA2] (AR v2)Track 2 accurately ripped (confidence 1) [A9FA9AE5] (AR v2)Track 3 accurately ripped (confidence 1) [576B0A04] (AR v2)Track 4 accurately ripped (confidence 1) [536715DC] (AR v2)Track 5 accurately ripped (confidence 1) [DB0C6E3C] (AR v2)Track 6 accurately ripped (confidence 1) [21620860] (AR v2)Track 7 accurately ripped (confidence 1) [ACEAB97F] (AR v2)Track 8 accurately ripped (confidence 1) [F41D0D7A] (AR v2)
All tracks accurately ripped
End of status report
==== Log checksum 713289D3AB521035E6806D31B5F777964302B494575ECED6C496484F0DCC2C0C ====

Содержание индексной карты (.CUE)

REM GENRE OperaREM DATE 1962REM DISCID 6A0BB808REM COMMENT "ExactAudioCopy v1.0b3"PERFORMER "Anna Moffo - Franco Ferrara, RCA Italiana Orchestra"TITLE "A Verdi Collaboration"FILE "CDImage.ape" WAVE TRACK 01 AUDIO TITLE "Merce, dilette amiche (I Vespri siciliani)" PERFORMER "Anna Moffo - Franco Ferrara, RCA Italiana Orchestra" INDEX 01 00:00:00 TRACK 02 AUDIO TITLE "Ernani, involami (Ernani)" PERFORMER "Anna Moffo - Franco Ferrara, RCA Italiana Orchestra" INDEX 00 02:15:60 INDEX 01 02:18:70 TRACK 03 AUDIO TITLE "O patria mia (Aida)" PERFORMER "Anna Moffo - Franco Ferrara, RCA Italiana Orchestra" INDEX 00 08:52:31 INDEX 01 08:55:55 TRACK 04 AUDIO TITLE "D'amor sull'ali rosee (Il trovatore)" PERFORMER "Anna Moffo - Franco Ferrara, RCA Italiana Orchestra" INDEX 00 15:31:22 INDEX 01 15:33:65 TRACK 05 AUDIO TITLE "Oh, ben s'addice questo torbido cielo (Giovanna d'Arco)" PERFORMER "Anna Moffo - Franco Ferrara, RCA Italiana Orchestra" INDEX 00 21:03:28 INDEX 01 21:05:33 TRACK 06 AUDIO TITLE "Salce! Salce! ... Ave Maria (Otello)" PERFORMER "Anna Moffo - Franco Ferrara, RCA Italiana Orchestra" INDEX 00 25:24:11 INDEX 01 25:27:43 TRACK 07 AUDIO TITLE "Morro, ma prima in grazia (Un ballo in maschera)" PERFORMER "Anna Moffo - Franco Ferrara, RCA Italiana Orchestra" INDEX 00 40:40:09 INDEX 01 40:43:02 TRACK 08 AUDIO TITLE "Come in quest'ora bruna (Simone Boccanegra)" PERFORMER "Anna Moffo - Franco Ferrara, RCA Italiana Orchestra" INDEX 00 45:14:74 INDEX 01 45:17:64



Показать сообщения:    

Текущее время: 03-Дек 14:37

Часовой пояс: UTC + 3


Вы не можете начинать темы
Вы не можете отвечать на сообщения
Вы не можете редактировать свои сообщения
Вы не можете удалять свои сообщения
Вы не можете голосовать в опросах
Вы не можете прикреплять файлы к сообщениям
Вы не можете скачивать файлы