(Opera) Richard Wagner - Rienzi (Di Stefano, Kabaivanska, Piva, Cecchele, Puglisi, Orchestra and Chorus of the Teatro alla Scala, Hermann Scherchen) - 2006, FLAC (image+.cue), lossless


 

[Цитировать]

Richard Wagner - Rienzi - Scherchen
Жанр: Opera
Страна-производитель диска: EC
Год издания диска: 2006
Издатель (лейбл): Golden Melodram
Номер по каталогу: GM 6.0019
Дата записи: 04.06.1964 live
Аудиокодек: FLAC
Тип рипа: image+.cue
Битрейт аудио: lossless
Продолжительность: 64.29 + 65.23
Источник: собственный рип
Наличие сканов в содержимом раздачи: да

CD1:Треклист:

01. Sinfonia
02. Scena Rienzi, Adriano, Colonna, Orsini, Raimondo, Baroncelli, Cecco, Coro
03. Terzetto Rienzi, Irene, Adriano
04. Aria di Rienzi, Coro
05. Aria di Rienzi, Messo di Pace
06. Marcia e Scena Rienzi, Baroncelli, Tutti
07. Scena Rienzi, Tutti
08. Duetto Rienzi, Irene
09. Coro
Total 64.29

Лог создания рипа:

Exact Audio Copy V1.0 beta 3 from 29. August 2011
Отчёт EAC об извлечении, выполненном 14. февраля 2015, 11:27
Richard Wagner / Rienzi - CD1
Дисковод: Optiarc DVD RW AD-7260S Adapter: 0 ID: 1
Режим чтения : Достоверность
Использование точного потока : Да
Отключение кэша аудио : Да
Использование указателей C2 : Нет
Коррекция смещения при чтении : 48
Способность читать области Lead-in и Lead-out : Нет
Заполнение пропущенных сэмплов тишиной : Да
Удаление блоков с тишиной в начале и конце : Нет
При вычислениях CRC использовались нулевые сэмплы : Да
Интерфейс : Встроенный Win32-интерфейс для Win NT/2000
Выходной формат : Пользовательский кодировщик
Выбранный битрейт : 896 kBit/s
Качество : Высокий
Добавление ID3-тега : Нет
Утилита сжатия : C:\Program Files\FLAC Frontend\tools\flac.exe
Дополнительные параметры : -V -8 -T "Date=%year%" -T "Genre=%genre%" %source%
TOC извлечённого CD
Трек | Старт | Длительность | Начальный сектор | Конечный сектор
---------------------------------------------------------------------
1 | 0:00.00 | 13:05.52 | 0 | 58926
2 | 13:05.52 | 8:44.70 | 58927 | 98296
3 | 21:50.47 | 7:02.23 | 98297 | 129969
4 | 28:52.70 | 5:57.50 | 129970 | 156794
5 | 34:50.45 | 8:41.56 | 156795 | 195925
6 | 43:32.26 | 12:00.10 | 195926 | 249935
7 | 55:32.36 | 4:35.47 | 249936 | 270607
8 | 60:08.08 | 3:20.56 | 270608 | 285663
9 | 63:28.64 | 0:59.61 | 285664 | 290149
Характеристики диапазона извлечения и сообщения об ошибках
Выбранный диапазон
Имя файла N:\Wagner - Rienzi - Scherchen\CD1\Richard Wagner - Rienzi - CD1.wav
Пиковый уровень 76.1 %
Скорость извлечения 4.0 X
Качество диапазона 100.0 %
CRC теста 276DF7CC
CRC копии 276DF7CC
Копирование... OK
Ошибок не произошло
AccurateRip: сводка
Трек 1 : извлечено точно (доверие 1) [B84D6B09] (AR v2)
Трек 2 : извлечено точно (доверие 1) [AA3D696D] (AR v2)
Трек 3 : извлечено точно (доверие 1) [6F9EC44E] (AR v2)
Трек 4 : извлечено точно (доверие 1) [09A88443] (AR v2)
Трек 5 : извлечено точно (доверие 1) [BBD8AF86] (AR v2)
Трек 6 : извлечено точно (доверие 1) [005EF49E] (AR v2)
Трек 7 : извлечено точно (доверие 1) [B8AE2D20] (AR v2)
Трек 8 : извлечено точно (доверие 1) [E5AAFE93] (AR v2)
Трек 9 : извлечено точно (доверие 1) [80FB32D4] (AR v2)
Все треки извлечены точно
Конец отчёта
==== Контрольная сумма отчёта 308476619CA496817EAAC68CA5C5D03E06F6ED9F24D8BCADB731ECFC7056F271 ====

CD2:Треклист:

01. Scena Baroncelli, Tutti
02. Aria di Adriano
03. Scena Rienzi, Tutti
04. Scena Rienzi, Tutti
05. Scena Baroncelli, Tutti
06. Preghiera di Rienzi
07. Finale
Bonus tracks:
Verdi - La Forza del Dstino (excepts)
08. La vita e inferno all'infelice
09. Solenne in quest'ora
10. Invano, Alvaro
Total 65.23

Лог создания рипа:

Exact Audio Copy V1.0 beta 3 from 29. August 2011
Отчёт EAC об извлечении, выполненном 14. февраля 2015, 13:10
Richard Wagner / Rienzi - CD2
Дисковод: Optiarc DVD RW AD-7260S Adapter: 0 ID: 1
Режим чтения : Достоверность
Использование точного потока : Да
Отключение кэша аудио : Да
Использование указателей C2 : Нет
Коррекция смещения при чтении : 48
Способность читать области Lead-in и Lead-out : Нет
Заполнение пропущенных сэмплов тишиной : Да
Удаление блоков с тишиной в начале и конце : Нет
При вычислениях CRC использовались нулевые сэмплы : Да
Интерфейс : Встроенный Win32-интерфейс для Win NT/2000
Выходной формат : Пользовательский кодировщик
Выбранный битрейт : 896 kBit/s
Качество : Высокий
Добавление ID3-тега : Нет
Утилита сжатия : C:\Program Files\FLAC Frontend\tools\flac.exe
Дополнительные параметры : -V -8 -T "Date=%year%" -T "Genre=%genre%" %source%
TOC извлечённого CD
Трек | Старт | Длительность | Начальный сектор | Конечный сектор
---------------------------------------------------------------------
1 | 0:00.00 | 3:02.55 | 0 | 13704
2 | 3:02.55 | 4:36.00 | 13705 | 34404
3 | 7:38.55 | 8:02.00 | 34405 | 70554
4 | 15:40.55 | 3:27.13 | 70555 | 86092
5 | 19:07.68 | 8:37.59 | 86093 | 124926
6 | 27:45.52 | 8:17.67 | 124927 | 162268
7 | 36:03.44 | 9:56.07 | 162269 | 206975
8 | 45:59.51 | 6:00.12 | 206976 | 233987
9 | 51:59.63 | 3:57.42 | 233988 | 251804
10 | 55:57.30 | 9:25.64 | 251805 | 294243
Характеристики диапазона извлечения и сообщения об ошибках
Выбранный диапазон
Имя файла N:\Wagner - Rienzi - Scherchen\CD2\Richard Wagner - Rienzi - CD2.wav
Пиковый уровень 61.6 %
Скорость извлечения 4.0 X
Качество диапазона 99.9 %
CRC теста EC105DFC
CRC копии EC105DFC
Копирование... OK
Ошибок не произошло
AccurateRip: сводка
Трек 1 : извлечено точно (доверие 1) [CA54FBB6] (AR v2)
Трек 2 : извлечено точно (доверие 1) [9A88A890] (AR v2)
Трек 3 : извлечено точно (доверие 1) [A9A23109] (AR v2)
Трек 4 : извлечено точно (доверие 1) [CF020BAD] (AR v2)
Трек 5 : извлечено точно (доверие 1) [583335B1] (AR v2)
Трек 6 : извлечено точно (доверие 1) [A84CEF6C] (AR v2)
Трек 7 : извлечено точно (доверие 1) [A7D4A211] (AR v2)
Трек 8 : извлечено точно (доверие 1) [D4998B56] (AR v2)
Трек 9 : извлечено точно (доверие 1) [C57B880D] (AR v2)
Трек 10 : извлечено точно (доверие 1) [50098077] (AR v2)
Все треки извлечены точно
Конец отчёта
==== Контрольная сумма отчёта 354914E80D408822911A51939125BA6FE1A4E11A5CC48F1D5F3275155653A164 ====

Исполнители:

Rienzi - Guiseppe di Stefano
Irene - Raina Kabaivanska
Stefano Colonna - Franco Piva
Adriano - Gianfranco Ceccele
Paolo Orsini - Lino Puglisi
Il Cardinale Raimondo - Guiseppe Modesti
Baroncelli - Piero da Palma
Cecco del Vecchio - Alfredo Giacommotti
Un Messo di Pace - Luciana Piccolo
Orchestra and Chorus of the Teatro alla Scala
Hermann Scherchen



Показать сообщения:    

Текущее время: 05-Дек 15:34

Часовой пояс: UTC + 3


Вы не можете начинать темы
Вы не можете отвечать на сообщения
Вы не можете редактировать свои сообщения
Вы не можете удалять свои сообщения
Вы не можете голосовать в опросах
Вы не можете прикреплять файлы к сообщениям
Вы не можете скачивать файлы