(Opera) Глинка - Руслан и Людмила / Glinka - Ruslan and Lyudmila (Фирсова, Нелепп, Петров, Лемешев, Кричевня - Большого театра, Кондрашин) - 2006, APE (image+.cue) lossless


 

[Цитировать]

Mikhael Iwanowitsch Glinka - Ruslan and Lyudmila
Жанр: Opera
Страна-производитель диска: Germany
Год издания диска: 2006
Издатель (лейбл): Cantus Classics
Номер по каталогу: 5.00759
Дата записи: 1956
Аудиокодек: APE
Тип рипа: image+.cue
Битрейт аудио: lossless
Продолжительность: 79'13+76'59
Источник: собственный рип
Наличие сканов в содержимом раздачи: да
Треклист:

CD1

1. Delo dovno minuvsikh dnei
2. Est'pustynnyi kroj
3. Grusfno rnne, roditel'dorogoi
4. Chodo rodimye
5. Chto sluehilos?
6. Dobro pozholovot, moi syn
7. Blogodaryu tebyo, moi divnyi pokrovite
8. Yo ves'drozhu
9. Bleek us ehos torzhestvo moego
10. 0 pole. pole
11. Doi, Pe-un, bulotnyi meeh
12. Kto zdes'bluzdoet
13. lozhitsyo v pole mrok
14. Kokie slodostnye zvuki

CD2

1. I zhar, i znoi smenilo ten
2. 0 moi Rotmir
3. Vityazi! Kovornoyo Naina
4. Vdoli ot milogo
5. Akh ty dolyo dolushko
6. Pogibnet, nezhdonnyij prishlets
7. Pobedo, pobedo, lyudmilo
8. Ono mne zhiznm, ono mne rodost
9. Voyo tikhol
10. Akh ty svet, ljudmilo
11. Kogo nam bogi shiyut
12. Slovo velikim bogom
Исполнители:
Mikhael Iwanowitsch Glinka (1804-1857) - Ruslan y Lyudmila
Ivan Petrov (bass) Ruslan
Vera Firsova (soprano) Lyudmila
Vladimir Gavryushov (bass) Svetozar
Yekaterina Verbizkaya (contralto) Ratmir
Alexei Krivtchenya (bass) Farlaf
Nina Pokrovskaya (soprano) Gorislava
Georgi Nelepp (tenor) Finn
Elena Korneeva (mezzo) Naina
Sergei Lemeshev (tenor) Bayan
Chorus and Orchestra of the Bolshoi Theatre, Moscow
Kirill Kondrashin

Лог создания рипа

CD1

Exact Audio Copy V1.0 beta 3 from 29. August 2011
EAC extraction logfile from 26. January 2015, 12:13
Glinka / Ruslan and Lyudmila, Kondrashin CD1
Used drive : TSSTcorpCDDVDW SE-208AB Adapter: 1 ID: 0
Read mode : Secure
Utilize accurate stream : Yes
Defeat audio cache : Yes
Make use of C2 pointers : No
Read offset correction : 6
Overread into Lead-In and Lead-Out : No
Fill up missing offset samples with silence : Yes
Delete leading and trailing silent blocks : No
Null samples used in CRC calculations : Yes
Used interface : Native Win32 interface for Win NT & 2000
Used output format : Monkey's Audio Lossless Encoder
Selected bitrate : High Lossless Compression
Quality : High
Add ID3 tag : Yes
Command line compressor : C:\Program Files (x86)\Exact Audio Copy\MAC\MAC.exe
TOC of the extracted CD
Track | Start | Length | Start sector | End sector
---------------------------------------------------------
1 | 0:00.00 | 7:12.62 | 0 | 32461
2 | 7:12.62 | 7:28.51 | 32462 | 66112
3 | 14:41.38 | 8:00.27 | 66113 | 102139
4 | 22:41.65 | 7:04.18 | 102140 | 133957
5 | 29:46.08 | 7:46.57 | 133958 | 168964
6 | 37:32.65 | 8:40.72 | 168965 | 208036
7 | 46:13.62 | 2:09.11 | 208037 | 217722
8 | 48:22.73 | 3:59.19 | 217723 | 235666
9 | 52:22.17 | 4:17.44 | 235667 | 254985
10 | 56:39.61 | 5:35.56 | 254986 | 280166
11 | 62:15.42 | 3:52.56 | 280167 | 297622
12 | 66:08.23 | 5:46.30 | 297623 | 323602
13 | 71:54.53 | 1:31.58 | 323603 | 330485
14 | 73:26.36 | 5:47.06 | 330486 | 356516
Range status and errors
Selected range
Filename D:\EAC\Glinka - Ruslan and Lyudmila, Kondrashin CD1.wav
Peak level 100.0 %
Extraction speed 5.2 X
Range quality 99.9 %
Test CRC 667F0B9F
Copy CRC 667F0B9F
Copy OK
No errors occurred
AccurateRip summary
Track 1 accurately ripped (confidence 1) [163233FB] (AR v1)
Track 2 accurately ripped (confidence 1) [A4202DD6] (AR v1)
Track 3 accurately ripped (confidence 1) [BA97730B] (AR v1)
Track 4 accurately ripped (confidence 1) [A5C63E10] (AR v1)
Track 5 accurately ripped (confidence 1) [5BA586FD] (AR v1)
Track 6 accurately ripped (confidence 1) [741A093A] (AR v1)
Track 7 accurately ripped (confidence 1) [E8080954] (AR v1)
Track 8 accurately ripped (confidence 1) [7FA06ED8] (AR v1)
Track 9 accurately ripped (confidence 1) [649DBBC2] (AR v1)
Track 10 accurately ripped (confidence 1) [07E36E51] (AR v1)
Track 11 accurately ripped (confidence 1) [BD646C09] (AR v1)
Track 12 accurately ripped (confidence 1) [C709B0B6] (AR v1)
Track 13 accurately ripped (confidence 1) [786035DC] (AR v1)
Track 14 accurately ripped (confidence 1) [5270E048] (AR v1)
All tracks accurately ripped
End of status report
---- CUETools DB Plugin V2.1.3
[CTDB TOCID: 68VhgMcwz_CRuGq_h41472Fdl.A-] disk not present in database, Submit result: 68VhgMcwz_CRuGq_h41472Fdl.A- has been uploaded
==== Log checksum B15CA02B740861FBF5EACD11934CE79EFC167688E74AC878DB6F95DA8DE5B531 ====

CD2

Exact Audio Copy V1.0 beta 3 from 29. August 2011
EAC extraction logfile from 26. January 2015, 12:26
Glinka / Ruslan and Lyudmila, Kondrashin CD2
Used drive : TS8XDVDSTRANSCEND Adapter: 1 ID: 1
Read mode : Secure
Utilize accurate stream : Yes
Defeat audio cache : Yes
Make use of C2 pointers : No
Read offset correction : 6
Overread into Lead-In and Lead-Out : No
Fill up missing offset samples with silence : Yes
Delete leading and trailing silent blocks : No
Null samples used in CRC calculations : Yes
Used interface : Native Win32 interface for Win NT & 2000
Used output format : Monkey's Audio Lossless Encoder
Selected bitrate : High Lossless Compression
Quality : High
Add ID3 tag : Yes
Command line compressor : C:\Program Files (x86)\Exact Audio Copy\MAC\MAC.exe
TOC of the extracted CD
Track | Start | Length | Start sector | End sector
---------------------------------------------------------
1 | 0:00.00 | 12:14.09 | 0 | 55058
2 | 12:14.09 | 6:59.45 | 55059 | 86528
3 | 19:13.54 | 4:05.03 | 86529 | 104906
4 | 23:18.57 | 5:02.35 | 104907 | 127591
5 | 28:21.17 | 7:47.60 | 127592 | 162676
6 | 36:09.02 | 2:51.69 | 162677 | 175570
7 | 39:00.71 | 7:18.45 | 175571 | 208465
8 | 46:19.41 | 6:46.33 | 208466 | 238948
9 | 53:05.74 | 8:28.19 | 238949 | 277067
10 | 61:34.18 | 5:15.45 | 277068 | 300737
11 | 66:49.63 | 3:53.28 | 300738 | 318240
12 | 70:43.16 | 6:15.59 | 318241 | 346424
Range status and errors
Selected range
Filename D:\EAC\Glinka - Ruslan and Lyudmila, Kondrashin CD2.wav
Peak level 100.0 %
Extraction speed 3.5 X
Range quality 100.0 %
Test CRC AD3C9F7A
Copy CRC AD3C9F7A
Copy OK
No errors occurred
AccurateRip summary
Track 1 accurately ripped (confidence 1) [CECD3553] (AR v1)
Track 2 accurately ripped (confidence 1) [DFD61FA3] (AR v1)
Track 3 accurately ripped (confidence 1) [D0E1D11D] (AR v1)
Track 4 accurately ripped (confidence 1) [F4040E4E] (AR v1)
Track 5 accurately ripped (confidence 1) [BF7A7B03] (AR v1)
Track 6 accurately ripped (confidence 1) [442B8364] (AR v1)
Track 7 accurately ripped (confidence 1) [1B54D829] (AR v1)
Track 8 accurately ripped (confidence 1) [8ADB40BE] (AR v1)
Track 9 accurately ripped (confidence 1) [46E3B7EF] (AR v1)
Track 10 accurately ripped (confidence 1) [C8A178A9] (AR v1)
Track 11 accurately ripped (confidence 1) [DB90ADF7] (AR v1)
Track 12 accurately ripped (confidence 1) [103D331B] (AR v1)
All tracks accurately ripped
End of status report
---- CUETools DB Plugin V2.1.3
[CTDB TOCID: aya8xpH_H32YuCYMnHVlue2EJAY-] disk not present in database, Submit result: unrecognized or virtual drive
==== Log checksum 9925F6086625E07D2A9968BF2089B743C98CD9B36F233DE55AF53B874DBD792A ====

Содержание индексной карты (.CUE)

CD1

REM GENRE Opera
REM DATE 1956
REM DISCID CF12910E
REM COMMENT "ExactAudioCopy v1.0b3"
PERFORMER "Glinka"
TITLE "Ruslan and Lyudmila, Kondrashin CD1"
FILE "Glinka - Ruslan and Lyudmila, Kondrashin CD1.ape" WAVE
TRACK 01 AUDIO
TITLE "Delo dovno minuvsikh dnei"
PERFORMER "Glinka"
ISRC 000000000000
INDEX 01 00:00:00
TRACK 02 AUDIO
TITLE "Est'pustynnyi kroj"
PERFORMER "Glinka"
ISRC 000000000000
INDEX 01 07:12:62
TRACK 03 AUDIO
TITLE "Grusfno rnne, roditel'dorogoi"
PERFORMER "Glinka"
ISRC 000000000000
INDEX 01 14:41:38
TRACK 04 AUDIO
TITLE "Chodo rodimye"
PERFORMER "Glinka"
ISRC 000000000000
INDEX 01 22:41:65
TRACK 05 AUDIO
TITLE "Chto sluehilos?"
PERFORMER "Glinka"
ISRC 000000000000
INDEX 01 29:46:08
TRACK 06 AUDIO
TITLE "Dobro pozholovot, moi syn"
PERFORMER "Glinka"
ISRC 000000000000
INDEX 01 37:32:65
TRACK 07 AUDIO
TITLE "Blogodaryu tebyo, moi divnyi pokrovite"
PERFORMER "Glinka"
ISRC 000000000000
INDEX 01 46:13:62
TRACK 08 AUDIO
TITLE "Yo ves'drozhu"
PERFORMER "Glinka"
ISRC 000000000000
INDEX 01 48:22:73
TRACK 09 AUDIO
TITLE "Bleek us ehos torzhestvo moego"
PERFORMER "Glinka"
ISRC 000000000000
INDEX 01 52:22:17
TRACK 10 AUDIO
TITLE "0 pole. pole"
PERFORMER "Glinka"
ISRC 000000000000
INDEX 01 56:39:61
TRACK 11 AUDIO
TITLE "Doi, Pe-un, bulotnyi meeh"
PERFORMER "Glinka"
ISRC 000000000000
INDEX 01 62:15:42
TRACK 12 AUDIO
TITLE "Kto zdes'bluzdoet"
PERFORMER "Glinka"
ISRC 000000000000
INDEX 01 66:08:23
TRACK 13 AUDIO
TITLE "lozhitsyo v pole mrok"
PERFORMER "Glinka"
ISRC 000000000000
INDEX 01 71:54:53
TRACK 14 AUDIO
TITLE "Kokie slodostnye zvuki"
PERFORMER "Glinka"
ISRC 000000000000
INDEX 01 73:26:36

CD2

REM GENRE Opera
REM DATE 1956
REM DISCID 96120B0C
REM COMMENT "ExactAudioCopy v1.0b3"
PERFORMER "Glinka"
TITLE "Ruslan and Lyudmila, Kondrashin CD2"
FILE "Glinka - Ruslan and Lyudmila, Kondrashin CD2.ape" WAVE
TRACK 01 AUDIO
TITLE "I zhar, i znoi smenilo ten"
PERFORMER "Glinka"
ISRC 000000000000
INDEX 01 00:00:00
TRACK 02 AUDIO
TITLE "0 moi Rotmir"
PERFORMER "Glinka"
ISRC 000000000000
INDEX 01 12:14:09
TRACK 03 AUDIO
TITLE "Vityazi! Kovornoyo Naina"
PERFORMER "Glinka"
ISRC 000000000000
INDEX 01 19:13:54
TRACK 04 AUDIO
TITLE "Vdoli ot milogo"
PERFORMER "Glinka"
ISRC 000000000000
INDEX 01 23:18:57
TRACK 05 AUDIO
TITLE "Akh ty dolyo dolushko"
PERFORMER "Glinka"
ISRC 000000000000
INDEX 01 28:21:17
TRACK 06 AUDIO
TITLE "Pogibnet, nezhdonnyij prishlets"
PERFORMER "Glinka"
ISRC 000000000000
INDEX 01 36:09:02
TRACK 07 AUDIO
TITLE "Pobedo, pobedo, lyudmilo"
PERFORMER "Glinka"
ISRC 000000000000
INDEX 01 39:00:71
TRACK 08 AUDIO
TITLE "Ono mne zhiznm, ono mne rodost"
PERFORMER "Glinka"
ISRC 000000000000
INDEX 01 46:19:41
TRACK 09 AUDIO
TITLE "Voyo tikhol"
PERFORMER "Glinka"
ISRC 000000000000
INDEX 01 53:05:74
TRACK 10 AUDIO
TITLE "Akh ty svet, ljudmilo"
PERFORMER "Glinka"
ISRC 000000000000
INDEX 01 61:34:18
TRACK 11 AUDIO
TITLE "Kogo nam bogi shiyut"
PERFORMER "Glinka"
ISRC 000000000000
INDEX 01 66:49:63
TRACK 12 AUDIO
TITLE "Slovo velikim bogom"
PERFORMER "Glinka"
ISRC 000000000000
INDEX 01 70:43:16
Доп. информация:
There is a sense of privileged listening involved here.
Not because of singers of the calibre of Nelepp, but because of the man on the podium, Kirill Kindrashin, a conductor whose career was cruelly cut short just as he made it ‘big time’ in the West.
Ludmila is sung by Vera Firsova, light of voice but very expressive.
She sounds young, which is a definite plus point.
She avoids – albeit narrowly on occasion – sounding like a Russian Cenerentola!
Firsova can sing this repertoire magnificently, as evinced by her Act 1 Cavatina.
She languishes magnificently (for a quarter of an hour) at the opening of Act 4, and never loses our interest.
Her Ruslan is Ivan Petrov, a great singer as his Act 2 aria proves beyond reasonable doubt.
His voice is that of a dark Russian bass that can convey oceans of sadness, and does.
By the way, the overture’s lyrical melody comes from the later parts of this aria.
Georgi Nelepp’s tenor voice is well-known to collectors.
He is, to mention but one famous recording, Grigory in Golovanov’s Boris Godunov.
His high and clear tenor voice (as Finn) makes Finn’s Ballad (Act 2) a thing of wonder.
The amazing Yekaterina Verbizkaya takes the part of Ratmir.
Verbizkaya is a strong contralto, whose sense of line is always true and who shapes contours expressively.
Her romance in Act 5 provides one of the opera’s highlights.
The part of Farlaf, of course, includes the famous ‘Farlaf’s Rondo’ .
Chaliapin territory it may well be, but Krivchenya nevertheless provides a highlight of the set. His focused voice and sheer presence are a delight.
The Rondo is fast but great fun, and diction is not compromised for a split second.
Nina Pokrovskaya is a strong Gorislava, her voice notable for its cutting yet expressive quality.
Kondrashin’s dramatic grasp is complete.
Some of the purely orchestral moments are memorable, be it the lilting dances (a great oboe solo) or the fairy-tale tinkly March of Chernomor, or the quasi-oriental dances; easy to see where Rimsky got it from!



Показать сообщения:    

Текущее время: 04-Дек 09:04

Часовой пояс: UTC + 3


Вы не можете начинать темы
Вы не можете отвечать на сообщения
Вы не можете редактировать свои сообщения
Вы не можете удалять свои сообщения
Вы не можете голосовать в опросах
Вы не можете прикреплять файлы к сообщениям
Вы не можете скачивать файлы