(Opera) Richard Wagner - Tristan und Isolde (Deaton, Pierson, Jones, Malis, Herschenfeld, Bulgarian Festival Orchestra and Chorus, Glen Cortese) - 2004, FLAC (image+.cue), lossless


 

[Цитировать]

Richard Wagner - Tristan und Isolde - Cortese
Жанр: Opera
Страна-производитель диска: USA
Год издания диска: 2004
Издатель (лейбл): Titanic Records
Номер по каталогу: Ti-261
Дата записи: 08.02.2004 live
Аудиокодек: FLAC
Тип рипа: image+.cue
Битрейт аудио: lossless
Продолжительность: 64.34 + 61.47 + 31.49 + 75.11
Источник: собственный рип
Наличие сканов в содержимом раздачи: да

CD1:Треклист:

Act I
01. Vorspiel
02. Westwarts schweift der Blick
03. Frisch weht der Wind der Heimat zu
04. Weh, ach wehe! Dies zu dulden!
05. Auf! Auf! Ihr Frauen! Frisch und froh!
06. Herr Tristan trete nah'!
07. Begehrt, Herrin was ihr wunscht
Total 64.34

Лог создания рипа:

Exact Audio Copy V1.0 beta 3 from 29. August 2011
Отчёт EAC об извлечении, выполненном 3. февраля 2015, 0:59
Richard Wagner / Tristan und Isolde - CD1
Дисковод: Optiarc DVD RW AD-7260S Adapter: 0 ID: 1
Режим чтения : Достоверность
Использование точного потока : Да
Отключение кэша аудио : Да
Использование указателей C2 : Нет
Коррекция смещения при чтении : 48
Способность читать области Lead-in и Lead-out : Нет
Заполнение пропущенных сэмплов тишиной : Да
Удаление блоков с тишиной в начале и конце : Нет
При вычислениях CRC использовались нулевые сэмплы : Да
Интерфейс : Встроенный Win32-интерфейс для Win NT/2000
Выходной формат : Пользовательский кодировщик
Выбранный битрейт : 896 kBit/s
Качество : Высокий
Добавление ID3-тега : Нет
Утилита сжатия : C:\Program Files\FLAC Frontend\tools\flac.exe
Дополнительные параметры : -V -8 -T "Date=%year%" -T "Genre=%genre%" %source%
TOC извлечённого CD
Трек | Старт | Длительность | Начальный сектор | Конечный сектор
---------------------------------------------------------------------
1 | 0:00.00 | 11:11.21 | 0 | 50345
2 | 11:11.21 | 6:09.41 | 50346 | 78061
3 | 17:20.62 | 9:59.16 | 78062 | 123002
4 | 27:20.03 | 19:55.43 | 123003 | 212670
5 | 47:15.46 | 7:26.43 | 212671 | 246163
6 | 54:42.14 | 1:51.42 | 246164 | 254530
7 | 56:33.56 | 7:59.71 | 254531 | 290526
Характеристики диапазона извлечения и сообщения об ошибках
Выбранный диапазон
Имя файла N:\Wagner - Tristan und Isolde - Cortese\CD1\Richard Wagner - Tristan und Isolde - CD1.wav
Пиковый уровень 95.5 %
Скорость извлечения 4.2 X
Качество диапазона 100.0 %
CRC теста 1B23285D
CRC копии 1B23285D
Копирование... OK
Ошибок не произошло
AccurateRip: сводка
Трек 1 отсутствует в базе данных
Трек 2 отсутствует в базе данных
Трек 3 отсутствует в базе данных
Трек 4 отсутствует в базе данных
Трек 5 отсутствует в базе данных
Трек 6 отсутствует в базе данных
Трек 7 отсутствует в базе данных
Ни одного трека нет в базе AccurateRip
Конец отчёта
==== Контрольная сумма отчёта EBF42F5F0FABB501125C50598A51F90C7B17C4602B872E625CA0D3324824E6B1 ====

CD2:Треклист:

Act I (cont.)
01. War Morold dir so wert
02. Du horst den Ruf?
03. Tristan! Isolde!
Act II
04. Einleitung
05. Horst du sie noch?
06. Isolde! Geliebte!
07. Wie lange fern!
08. In deiner Hand den Sussen Tod
09. O sink hernieder, Nacht der Liebe
10. Einsam wachend in der Nacht
11. Lausch', Geliebter!
Total 61.47

Лог создания рипа:

Exact Audio Copy V1.0 beta 3 from 29. August 2011
Отчёт EAC об извлечении, выполненном 3. февраля 2015, 17:44
Richard Wagner / Tristan und Isolde - CD2
Дисковод: Optiarc DVD RW AD-7260S Adapter: 0 ID: 1
Режим чтения : Достоверность
Использование точного потока : Да
Отключение кэша аудио : Да
Использование указателей C2 : Нет
Коррекция смещения при чтении : 48
Способность читать области Lead-in и Lead-out : Нет
Заполнение пропущенных сэмплов тишиной : Да
Удаление блоков с тишиной в начале и конце : Нет
При вычислениях CRC использовались нулевые сэмплы : Да
Интерфейс : Встроенный Win32-интерфейс для Win NT/2000
Выходной формат : Пользовательский кодировщик
Выбранный битрейт : 896 kBit/s
Качество : Высокий
Добавление ID3-тега : Нет
Утилита сжатия : C:\Program Files\FLAC Frontend\tools\flac.exe
Дополнительные параметры : -V -8 -T "Date=%year%" -T "Genre=%genre%" %source%
TOC извлечённого CD
Трек | Старт | Длительность | Начальный сектор | Конечный сектор
---------------------------------------------------------------------
1 | 0:00.00 | 5:11.06 | 0 | 23330
2 | 5:11.06 | 7:06.24 | 23331 | 55304
3 | 12:17.30 | 4:55.73 | 55305 | 77502
4 | 17:13.28 | 2:51.15 | 77503 | 90342
5 | 20:04.43 | 13:33.23 | 90343 | 151340
6 | 33:37.66 | 2:26.08 | 151341 | 162298
7 | 36:03.74 | 8:07.51 | 162299 | 198874
8 | 44:11.50 | 6:03.73 | 198875 | 226172
9 | 50:15.48 | 4:40.21 | 226173 | 247193
10 | 54:55.69 | 2:38.35 | 247194 | 259078
11 | 57:34.29 | 4:12.39 | 259079 | 278017
Характеристики диапазона извлечения и сообщения об ошибках
Выбранный диапазон
Имя файла N:\Wagner - Tristan und Isolde - Cortese\CD2\Richard Wagner - Tristan und Isolde - CD2.wav
Пиковый уровень 96.0 %
Скорость извлечения 4.2 X
Качество диапазона 100.0 %
CRC теста F4C48A3C
CRC копии F4C48A3C
Копирование... OK
Ошибок не произошло
AccurateRip: сводка
Трек 1 отсутствует в базе данных
Трек 2 отсутствует в базе данных
Трек 3 отсутствует в базе данных
Трек 4 отсутствует в базе данных
Трек 5 отсутствует в базе данных
Трек 6 отсутствует в базе данных
Трек 7 отсутствует в базе данных
Трек 8 отсутствует в базе данных
Трек 9 отсутствует в базе данных
Трек 10 отсутствует в базе данных
Трек 11 отсутствует в базе данных
Ни одного трека нет в базе AccurateRip
Конец отчёта
==== Контрольная сумма отчёта FF49E6226F1F416C14BD2C7FB7C606A4EDA0C4D099B63EDDAE36086FF9BFD78E ====

CD3:Треклист:

Act II (cont.)
01. Doch unsre Liebe, heisst sie nicht Tristan und Isolde?
02. So starben wir, um ungetrennt
03. Rette dich, Tristan!
04. Tatest du's wirklich
05. O Konig, das kann ich dir nicht sagen
Total 31.49

Лог создания рипа:

Exact Audio Copy V1.0 beta 3 from 29. August 2011
Отчёт EAC об извлечении, выполненном 3. февраля 2015, 1:30
Richard Wagner / Tristan und Isolde - CD3
Дисковод: Optiarc DVD RW AD-7260S Adapter: 0 ID: 1
Режим чтения : Достоверность
Использование точного потока : Да
Отключение кэша аудио : Да
Использование указателей C2 : Нет
Коррекция смещения при чтении : 48
Способность читать области Lead-in и Lead-out : Нет
Заполнение пропущенных сэмплов тишиной : Да
Удаление блоков с тишиной в начале и конце : Нет
При вычислениях CRC использовались нулевые сэмплы : Да
Интерфейс : Встроенный Win32-интерфейс для Win NT/2000
Выходной формат : Пользовательский кодировщик
Выбранный битрейт : 896 kBit/s
Качество : Высокий
Добавление ID3-тега : Нет
Утилита сжатия : C:\Program Files\FLAC Frontend\tools\flac.exe
Дополнительные параметры : -V -8 -T "Date=%year%" -T "Genre=%genre%" %source%
TOC извлечённого CD
Трек | Старт | Длительность | Начальный сектор | Конечный сектор
---------------------------------------------------------------------
1 | 0:00.00 | 2:19.41 | 0 | 10465
2 | 2:19.41 | 7:54.14 | 10466 | 46029
3 | 10:13.55 | 1:59.31 | 46030 | 54985
4 | 12:13.11 | 11:47.11 | 54986 | 108021
5 | 24:00.22 | 7:49.09 | 108022 | 143205
Характеристики диапазона извлечения и сообщения об ошибках
Выбранный диапазон
Имя файла N:\Wagner - Tristan und Isolde - Cortese\CD3\Richard Wagner - Tristan und Isolde - CD3.wav
Пиковый уровень 95.6 %
Скорость извлечения 3.5 X
Качество диапазона 100.0 %
CRC теста 031989FA
CRC копии 031989FA
Копирование... OK
Ошибок не произошло
AccurateRip: сводка
Трек 1 отсутствует в базе данных
Трек 2 отсутствует в базе данных
Трек 3 отсутствует в базе данных
Трек 4 отсутствует в базе данных
Трек 5 отсутствует в базе данных
Ни одного трека нет в базе AccurateRip
Конец отчёта
==== Контрольная сумма отчёта 1B3845719F6DA1BBC2C25E4C40A75918B9E5F138182FA49BDE81DF4C550DEA0B ====

CD4:Треклист:

Act III
01. (Massig langsam)
02. (Man hort einen Hirtenreigen)
03. Kurwenal! He! Sag', Kurwenal!
04. Hei nun! Wie du kamst?
05. Noch losch das Licht nicht aus
06. Noch ist kein Schiff zu sehn!
07. Bist du nun tot? Lebst du noch?
08. O diese Sonne! Ha dieser Tag!
09. Ich bin's, ich bin's suBester Freund!
10. Kurwenal! Hor Ein zweites Schiff
11. Mild und liese wie er lachelt
Total 75.11

Лог создания рипа:

Exact Audio Copy V1.0 beta 3 from 29. August 2011
Отчёт EAC об извлечении, выполненном 3. февраля 2015, 16:59
Richard Wagner / Tristan und Isolde - CD4
Дисковод: Optiarc DVD RW AD-7260S Adapter: 0 ID: 1
Режим чтения : Достоверность
Использование точного потока : Да
Отключение кэша аудио : Да
Использование указателей C2 : Нет
Коррекция смещения при чтении : 48
Способность читать области Lead-in и Lead-out : Нет
Заполнение пропущенных сэмплов тишиной : Да
Удаление блоков с тишиной в начале и конце : Нет
При вычислениях CRC использовались нулевые сэмплы : Да
Интерфейс : Встроенный Win32-интерфейс для Win NT/2000
Выходной формат : Пользовательский кодировщик
Выбранный битрейт : 896 kBit/s
Качество : Высокий
Добавление ID3-тега : Нет
Утилита сжатия : C:\Program Files\FLAC Frontend\tools\flac.exe
Дополнительные параметры : -V -8 -T "Date=%year%" -T "Genre=%genre%" %source%
TOC извлечённого CD
Трек | Старт | Длительность | Начальный сектор | Конечный сектор
---------------------------------------------------------------------
1 | 0:00.00 | 3:59.07 | 0 | 17931
2 | 3:59.07 | 3:00.64 | 17932 | 31495
3 | 6:59.71 | 8:18.68 | 31496 | 68913
4 | 15:18.64 | 9:25.37 | 68914 | 111325
5 | 24:44.26 | 5:44.56 | 111326 | 137181
6 | 30:29.07 | 12:17.40 | 137182 | 192496
7 | 42:46.47 | 9:31.68 | 192497 | 235389
8 | 52:18.40 | 2:59.20 | 235390 | 248834
9 | 55:17.60 | 5:59.13 | 248835 | 275772
10 | 61:16.73 | 7:33.63 | 275773 | 309810
11 | 68:50.61 | 6:20.26 | 309811 | 338336
Характеристики диапазона извлечения и сообщения об ошибках
Выбранный диапазон
Имя файла N:\Wagner - Tristan und Isolde - Cortese\CD4\Richard Wagner - Tristan und Isolde - CD4.wav
Пиковый уровень 93.4 %
Скорость извлечения 4.4 X
Качество диапазона 100.0 %
CRC теста A91E0C3C
CRC копии A91E0C3C
Копирование... OK
Ошибок не произошло
AccurateRip: сводка
Трек 1 отсутствует в базе данных
Трек 2 отсутствует в базе данных
Трек 3 отсутствует в базе данных
Трек 4 отсутствует в базе данных
Трек 5 отсутствует в базе данных
Трек 6 отсутствует в базе данных
Трек 7 отсутствует в базе данных
Трек 8 отсутствует в базе данных
Трек 9 отсутствует в базе данных
Трек 10 отсутствует в базе данных
Трек 11 отсутствует в базе данных
Ни одного трека нет в базе AccurateRip
Конец отчёта
==== Контрольная сумма отчёта A9B786B4D47C843F158A5F4696D50B140F0B852D9BFECEF3F14C2AE33A3E39A7 ====

Исполнители:

Tristan - Marс Deaton
Isolde - Susan Pearson
Brangane - Gwendolyn Jones
Kurwenal - Davia Malis
Konig Marke - Ethan Herschenfeld
Bulgarian Festival Orchestra and Chorus
Glen Cortese



Показать сообщения:    

Текущее время: 04-Дек 00:51

Часовой пояс: UTC + 3


Вы не можете начинать темы
Вы не можете отвечать на сообщения
Вы не можете редактировать свои сообщения
Вы не можете удалять свои сообщения
Вы не можете голосовать в опросах
Вы не можете прикреплять файлы к сообщениям
Вы не можете скачивать файлы