(Opera) Ruggero Leoncavallo - Chatterton (Granados, Signorini, Frederici, de Frate, Santoro - La Scala Theater Orchestra, Leoncavallo) - 2007, APE (image+.cue) lossless


 

[Цитировать]

Ruggero Leoncavallo - Chatterton
Жанр: Opera
Страна-производитель диска: Germany
Год издания диска: 2007
Издатель (лейбл): Cantus Classics
Номер по каталогу: 5.01001
Дата записи: 1908
Аудиокодек: APE
Тип рипа: image+.cue
Битрейт аудио: lossless
Продолжительность: 31'26+54'49
Источник: собственный рип
Наличие сканов в содержимом раздачи: да
Треклист:

CD1

1. Act 1. Charley! Holger!
2. Act 1. Lord Klifford qui desidera
3. Act 1. Uh! Lorso si allontana
4. Act 1. Che hai? Scrissi una lettera
5. Act 1. Vedeste Mistress Clark?
6. Act 1. Signori, vi presento
7. Act 1. Dacche sei giunto
8. Act 1. John, dite che ci apprestino
9. Act 1. Gli amici suoi perche
10. Act 1. Ne pieghi del sudario

CD2

1. Act 2. Preludio
2. Act 2. A Dio sia gloria
3. Act 2. Stanco spossao arresta il triste pellegrin
4. Act 2. Tu solo a me rimani
5. Act 2. Son certo chei dorme
6. Act 2. La, la, presso a quel tavolo
7. Act 2. Che hai? Tom di, che hai?
8. Act 2. Un angiol sei!
9. Act 2. Skirner! Qui! Voi stesso!
10. Act 2. E finita, mio Dio!
11. Act 2. Che parli mai!
12. Act 3. Ah! Mistress!
13. Act 3. Di lacrime
14. Act 3. E un pane chi chiedeva a costui?
15. Act 3. Sui vanni suoi la morte
16. Act 3. E perche mai? Ah! Patria infame
Исполнители:
Ruggero Leoncavallo - Chatterton
Dramma Lirico in 3 Acts
Libretto: By the composer freely adapted from the life of the English poet Thomas Chatterton
Thomas Chatterton - Francisco Granados
Thomas chatterton - Francesco Signorini
John Clark - Francesco Frederici
Jenny Clark - Ines de Frate
Piccolo Henry - Annita Santoro
Giorgio - Giuseppe Quinzi-Tapergi
Lord Klifford - Francesco Cigada
Skirner - Gaetano Pini-Corsi
Orchestra e Coro del Teatro alla Scala di Milano
Ruggero Leoncavallo, 1908

Лог создания рипа

CD1

Exact Audio Copy V1.0 beta 3 from 29. August 2011
EAC extraction logfile from 23. August 2014, 12:31
Leoncavallo / Chatterton, Leoncavallo CD1
Used drive : TS8XDVDSTRANSCEND Adapter: 1 ID: 1
Read mode : Secure
Utilize accurate stream : Yes
Defeat audio cache : Yes
Make use of C2 pointers : No
Read offset correction : 6
Overread into Lead-In and Lead-Out : No
Fill up missing offset samples with silence : Yes
Delete leading and trailing silent blocks : No
Null samples used in CRC calculations : Yes
Used interface : Native Win32 interface for Win NT & 2000
Used output format : Monkey's Audio Lossless Encoder
Selected bitrate : High Lossless Compression
Quality : High
Add ID3 tag : No
Command line compressor : C:\Program Files (x86)\Exact Audio Copy\MAC\MAC.exe
TOC of the extracted CD
Track | Start | Length | Start sector | End sector
---------------------------------------------------------
1 | 0:00.00 | 2:09.06 | 0 | 9680
2 | 2:09.06 | 2:06.40 | 9681 | 19170
3 | 4:15.46 | 2:47.47 | 19171 | 31742
4 | 7:03.18 | 2:59.39 | 31743 | 45206
5 | 10:02.57 | 3:21.56 | 45207 | 60337
6 | 13:24.38 | 3:29.63 | 60338 | 76075
7 | 16:54.26 | 4:12.22 | 76076 | 94997
8 | 21:06.48 | 3:21.08 | 94998 | 110080
9 | 24:27.56 | 3:17.34 | 110081 | 124889
10 | 27:45.15 | 3:41.35 | 124890 | 141499
Range status and errors
Selected range
Filename D:\EAC\Leoncavallo - Chatterton, Leoncavallo CD1.wav
Peak level 84.9 %
Extraction speed 1.7 X
Range quality 100.0 %
Test CRC 90EC62BA
Copy CRC 90EC62BA
Copy OK
No errors occurred
AccurateRip summary
Track 1 accurately ripped (confidence 1) [299EABD5] (AR v1)
Track 2 accurately ripped (confidence 2) [E2E243C6] (AR v1)
Track 3 accurately ripped (confidence 2) [20A209A0] (AR v1)
Track 4 accurately ripped (confidence 2) [4B7BD0FA] (AR v1)
Track 5 accurately ripped (confidence 2) [F4A659D8] (AR v1)
Track 6 accurately ripped (confidence 2) [A51B2688] (AR v1)
Track 7 accurately ripped (confidence 2) [6348BC7E] (AR v1)
Track 8 accurately ripped (confidence 2) [3822C3DB] (AR v1)
Track 9 accurately ripped (confidence 2) [F3835D3D] (AR v1)
Track 10 accurately ripped (confidence 2) [AA314E2F] (AR v1)
All tracks accurately ripped
End of status report
---- CUETools DB Plugin V2.1.3
[CTDB TOCID: Q8tSg0IXtM_DRsepplcHTfsOPio-] disk not present in database, Submit result: unrecognized or virtual drive
==== Log checksum 3140168C4A83AA2DBCB5E9FB3E02F2AF6A485C61089F8D5F3186AD3CAF6A1419 ====

CD2

Exact Audio Copy V1.0 beta 3 from 29. August 2011
EAC extraction logfile from 23. August 2014, 12:30
Leoncavallo / Chatterton, Leoncavallo CD2
Used drive : TSSTcorpCDDVDW SE-208AB Adapter: 1 ID: 0
Read mode : Secure
Utilize accurate stream : Yes
Defeat audio cache : Yes
Make use of C2 pointers : No
Read offset correction : 6
Overread into Lead-In and Lead-Out : No
Fill up missing offset samples with silence : Yes
Delete leading and trailing silent blocks : No
Null samples used in CRC calculations : Yes
Used interface : Native Win32 interface for Win NT & 2000
Used output format : Monkey's Audio Lossless Encoder
Selected bitrate : High Lossless Compression
Quality : High
Add ID3 tag : No
Command line compressor : C:\Program Files (x86)\Exact Audio Copy\MAC\MAC.exe
TOC of the extracted CD
Track | Start | Length | Start sector | End sector
---------------------------------------------------------
1 | 0:00.00 | 2:55.45 | 0 | 13169
2 | 2:55.45 | 3:48.56 | 13170 | 30325
3 | 6:44.26 | 3:43.73 | 30326 | 47123
4 | 10:28.24 | 2:30.06 | 47124 | 58379
5 | 12:58.30 | 3:04.19 | 58380 | 72198
6 | 16:02.49 | 3:18.11 | 72199 | 87059
7 | 19:20.60 | 3:36.06 | 87060 | 103265
8 | 22:56.66 | 3:47.13 | 103266 | 120303
9 | 26:44.04 | 3:12.06 | 120304 | 134709
10 | 29:56.10 | 3:15.18 | 134710 | 149352
11 | 33:11.28 | 3:16.35 | 149353 | 164087
12 | 36:27.63 | 3:14.13 | 164088 | 178650
13 | 39:42.01 | 4:24.04 | 178651 | 198454
14 | 44:06.05 | 3:19.19 | 198455 | 213398
15 | 47:25.24 | 3:44.20 | 213399 | 230218
16 | 51:09.44 | 3:40.25 | 230219 | 246743
Range status and errors
Selected range
Filename D:\EAC\Leoncavallo - Chatterton, Leoncavallo CD2.wav
Peak level 97.0 %
Extraction speed 4.8 X
Range quality 99.9 %
Test CRC 6A420CF5
Copy CRC 6A420CF5
Copy OK
No errors occurred
AccurateRip summary
Track 1 accurately ripped (confidence 2) [D6CCAC36] (AR v1)
Track 2 accurately ripped (confidence 2) [6BD8C0CA] (AR v1)
Track 3 accurately ripped (confidence 2) [2B607D8A] (AR v1)
Track 4 accurately ripped (confidence 2) [EFE4A5F3] (AR v1)
Track 5 accurately ripped (confidence 2) [B13278FB] (AR v1)
Track 6 accurately ripped (confidence 2) [C26C0CA5] (AR v1)
Track 7 accurately ripped (confidence 2) [E07DB3AE] (AR v1)
Track 8 accurately ripped (confidence 2) [757EDFC6] (AR v1)
Track 9 accurately ripped (confidence 2) [C0C1EC06] (AR v1)
Track 10 accurately ripped (confidence 2) [09C53E76] (AR v1)
Track 11 accurately ripped (confidence 2) [F6C3C84F] (AR v1)
Track 12 accurately ripped (confidence 2) [7A9CB944] (AR v1)
Track 13 accurately ripped (confidence 2) [F694F258] (AR v1)
Track 14 accurately ripped (confidence 2) [F569D8F2] (AR v1)
Track 15 accurately ripped (confidence 2) [05C3ECDB] (AR v1)
Track 16 accurately ripped (confidence 2) [71932302] (AR v1)
All tracks accurately ripped
End of status report
---- CUETools DB Plugin V2.1.3
[CTDB TOCID: yimo_9GIjDKb.0UePXWdD0Kcgg4-] disk not present in database, Submit result: yimo_9GIjDKb.0UePXWdD0Kcgg4- has been uploaded
==== Log checksum EEBECFC7E7115331135AA8DA491D8EDD43B23AC7D71E3EC05B9091CA4AC518BD ====

Содержание индексной карты (.CUE)

CD1

REM GENRE Opera
REM DATE 1908
REM DISCID 79075E0A
REM COMMENT "ExactAudioCopy v1.0b3"
PERFORMER "Leoncavallo "
TITLE "Chatterton, Leoncavallo CD1 "
FILE "Leoncavallo - Chatterton, Leoncavallo CD1.ape" WAVE
TRACK 01 AUDIO
TITLE "Act 1. Charley! Holger!"
PERFORMER "Leoncavallo "
ISRC 000000000000
INDEX 01 00:00:00
TRACK 02 AUDIO
TITLE "Act 1. Lord Klifford qui desidera"
PERFORMER "Leoncavallo "
ISRC 000000000000
INDEX 01 02:09:06
TRACK 03 AUDIO
TITLE "Act 1. Uh! Lorso si allontana"
PERFORMER "Leoncavallo "
ISRC 000000000000
INDEX 01 04:15:46
TRACK 04 AUDIO
TITLE "Act 1. Che hai? Scrissi una lettera"
PERFORMER "Leoncavallo "
ISRC 000000000000
INDEX 01 07:03:18
TRACK 05 AUDIO
TITLE "Act 1. Vedeste Mistress Clark?"
PERFORMER "Leoncavallo "
ISRC 000000000000
INDEX 01 10:02:57
TRACK 06 AUDIO
TITLE "Act 1. Signori, vi presento"
PERFORMER "Leoncavallo "
ISRC 000000000000
INDEX 01 13:24:38
TRACK 07 AUDIO
TITLE "Act 1. Dacche sei giunto"
PERFORMER "Leoncavallo "
ISRC 000000000000
INDEX 01 16:54:26
TRACK 08 AUDIO
TITLE "Act 1. John, dite che ci apprestino"
PERFORMER "Leoncavallo "
ISRC 000000000000
INDEX 01 21:06:48
TRACK 09 AUDIO
TITLE "Act 1. Gli amici suoi perche"
PERFORMER "Leoncavallo "
ISRC 000000000000
INDEX 01 24:27:56
TRACK 10 AUDIO
TITLE "Act 1. Ne pieghi del sudario"
PERFORMER "Leoncavallo "
ISRC 000000000000
INDEX 01 27:45:15

CD2

REM GENRE Opera
REM DATE 1908
REM DISCID F80CD910
REM COMMENT "ExactAudioCopy v1.0b3"
PERFORMER "Leoncavallo "
TITLE "Chatterton, Leoncavallo CD2 "
FILE "Leoncavallo - Chatterton, Leoncavallo CD2.ape" WAVE
TRACK 01 AUDIO
TITLE "Act 2. Preludio"
PERFORMER "Leoncavallo "
ISRC 000000000000
INDEX 01 00:00:00
TRACK 02 AUDIO
TITLE "Act 2. A Dio sia gloria"
PERFORMER "Leoncavallo "
ISRC 000000000000
INDEX 01 02:55:45
TRACK 03 AUDIO
TITLE "Act 2. Stanco spossao arresta il triste pellegrin"
PERFORMER "Leoncavallo "
ISRC 000000000000
INDEX 01 06:44:26
TRACK 04 AUDIO
TITLE "Act 2. Tu solo a me rimani"
PERFORMER "Leoncavallo "
ISRC 000000000000
INDEX 01 10:28:24
TRACK 05 AUDIO
TITLE "Act 2. Son certo chei dorme"
PERFORMER "Leoncavallo "
ISRC 000000000000
INDEX 01 12:58:30
TRACK 06 AUDIO
TITLE "Act 2. La, la, presso a quel tavolo"
PERFORMER "Leoncavallo "
ISRC 000000000000
INDEX 01 16:02:49
TRACK 07 AUDIO
TITLE "Act 2. Che hai? Tom di, che hai?"
PERFORMER "Leoncavallo "
ISRC 000000000000
INDEX 01 19:20:60
TRACK 08 AUDIO
TITLE "Act 2. Un angiol sei!"
PERFORMER "Leoncavallo "
ISRC 000000000000
INDEX 01 22:56:66
TRACK 09 AUDIO
TITLE "Act 2. Skirner! Qui! Voi stesso!"
PERFORMER "Leoncavallo "
ISRC 000000000000
INDEX 01 26:44:04
TRACK 10 AUDIO
TITLE "Act 2. E finita, mio Dio!"
PERFORMER "Leoncavallo "
ISRC 000000000000
INDEX 01 29:56:10
TRACK 11 AUDIO
TITLE "Act 2. Che parli mai!"
PERFORMER "Leoncavallo "
ISRC 000000000000
INDEX 01 33:11:28
TRACK 12 AUDIO
TITLE "Act 3. Ah! Mistress!"
PERFORMER "Leoncavallo "
ISRC 000000000000
INDEX 01 36:27:63
TRACK 13 AUDIO
TITLE "Act 3. Di lacrime"
PERFORMER "Leoncavallo "
ISRC 000000000000
INDEX 01 39:42:01
TRACK 14 AUDIO
TITLE "Act 3. E un pane chi chiedeva a costui?"
PERFORMER "Leoncavallo "
ISRC 000000000000
INDEX 01 44:06:05
TRACK 15 AUDIO
TITLE "Act 3. Sui vanni suoi la morte"
PERFORMER "Leoncavallo "
ISRC 000000000000
INDEX 01 47:25:24
TRACK 16 AUDIO
TITLE "Act 3. E perche mai? Ah! Patria infame"
PERFORMER "Leoncavallo "
ISRC 000000000000
INDEX 01 51:09:44
Доп. информация:
Chatterton is a dramma lirico or opera in three acts (four acts in its original 1876 version) by Ruggero Leoncavallo.
The libretto was written by the composer himself and is freely adapted from the life of the young English poet from Bristol, Thomas Chatterton (1752–1770).
Considered by the romantics as the perfect archetype of the accursed poet, Chatterton became famous for his brilliant pastiches of medieval poetry, which he attributed to an imaginary 15th-century monk whom he called Thomas Rowley.
At the age of 18, to escape his misery, he committed suicide in London by taking poison.
The plot of the opera is based on Alfred de Vigny's Chatterton (published in 1835)—a successful drama in three acts derived from the second of the trio of short stories contained in his philosophical novel Stello (1832).
Chatterton, composed in 1876, is the debut opera of a young Leoncavallo freshly graduated from the Naples conservatory.
However, the composer failed in his attempt to get his work performed because the promoter of the planned production disappeared with Leoncavallo's money shortly before the premiere.
Leoncavallo would have to wait until after the financial success of his best known opera, 1892's Pagliacci ( http://rutracker.org/forum/viewtopic.php?t=4814047 ), to see Chatterton produced.
The opera finally premiered on 10 March 1896, at the Teatro Drammatico Nazionale, Rome, in a revised version of the original four-act opera.
The work was not successful even after another revision which was completed in 1905.
Today, Chatterton is rarely performed.
Synopsis
Chatterton lives as a lodger in a wealthy home.
Unable to live by his writing, he has to look for a job to support himself.
Unfortunately, he can only get a job as a servant.
The other aspect of the situation is his thwarted and concealed love for Jenny Clark (Kitty Bell in Vigny's play), the wife of the industrialist who is his landlord.
Finally, faced with an impossible love and a menial job, a despairing Chatterton kills himself.
He is followed immediately in death by Jenny.



Показать сообщения:    

Текущее время: 05-Дек 05:30

Часовой пояс: UTC + 3


Вы не можете начинать темы
Вы не можете отвечать на сообщения
Вы не можете редактировать свои сообщения
Вы не можете удалять свои сообщения
Вы не можете голосовать в опросах
Вы не можете прикреплять файлы к сообщениям
Вы не можете скачивать файлы