(Opera) Модест Мусоргский - Борис Годунов, Хор и оркестр Большого театра СССР, Н. Голованов, А. Пирогов, Г. Нэлепп, М. Максакова, ... [3CD Set 1949 MONO](Austria 2001; Preiser Records 90483), FLAC (image+.cue) lossless


 

[Цитировать]

-Борис Годунов, Хор и оркестр Большого театра СССР, Н. Голованов, А. Пирогов, Г. Нэлепп, М. Максакова, ... / Boris Godunov, Chorus and Orchestra of the Bolshoi Theatre conducted by Nikolai Golovanov [3CD Set MONO]- Жанр: Opera
Страна-производитель диска: Austria
Год издания диска: 2001
Издатель (лейбл): Preiser Records
Номер по каталогу: 90483
Дата записи: 1949
Аудиокодек: FLAC
Тип рипа: image+.cue
Битрейт аудио: lossless
Продолжительность: 03:39:34
Источник: сеть
сайт-источник/ник/другое: drger
Наличие сканов в содержимом раздачи: да-Исполнители:
Komponist: Mussorgsky (Modest)
Композитор: Модест Мусоргский
Interpret: Bogdanov (Ilya), Chorus and Orchestra of the Bolshoi Theatre, Khanayev (Nikandr), Kozlovsky (Ivan), Krasovsky, Kruglikova (Elena), Lubentsov, Maksakova (Maria), Mikhailov (Maxim), Nelepp (Georgi), Peregudov (Alexander), Pirogov (Alexander), Sipaev, Turchina, Verbitskaya (Evgenia), Yakushenko, Zlatogorova (Bronislava)
Александр Пирогов (Борис Годунов), Елена Кругликова (Ксения, дочь Бориса), Бронислава Златогорова (Фёдор, сын Бориса), Евгения Вербицкая (Мамка Ксении), Никандр Ханаев (Князь Василий Иванович Шуйский), И. Богданов (Андрей Щелкалов), Георгий Нэлепп (Григорий Отрепьев, он же Самозванец), Максим Михайлов (Пимен), Иван Козловский (Юродивый), Мария Максакова (Марина Мнишек), Василий Лубенцов (Варлаам).
Хор и оркестр Государственного академического Большого театра.
Dirigent: Golovanov (Nicolai)
Дирижер: Николай Голованов-Доп. информация:
Preiser Records – Album_ Boris Godunov - Helmut Qualtinger, Kreisler, Akiko Nakajima, Karl Farkas, Ernst Waldbrunn, Hans Kann, Analog, Aufnahmen, Wien, Vienna, Musik

О главных исполнителях:

Борис Годунов – Александр Пирогов (1899-1964). Русский певец (бас). С 1919 работал в хоре Передвижного театра Реввоенсовета Республики. В 1922-1924 в «Свободной опере» (бывш. Театра С.Зимина), где дебютировал в партии Графа де Сен-Бри в опере «Гугеноты» Мейербера. В 1924- 54 солист Большого Театра.
Григорий Отрепьев (он же Самозванец) - Георгий Нэлепп (1904-1957). Русский певец (тенор). С1929 выступал в Ленинградском теаре оперы и балета, где дебютировал в партии Ленского. В 1944-57 солист Большого театра.
Марина Мнишек – Мария Максакова (1902-1974). Русская певица (меццо-сопрано). Дебютировала в 1919 в Астрахани в партии Ольги в «Евгении Онегине». В 1923-53 солистка Большого театра (в 1925-27 выступала в Ленинградском театре оперы балета).
Пимен – Максим Михайлов (1893-1971). Русский певец (бас). Выступал в церковном хоре. С 1930 пел на радио. В 1932-56 солист Большого театра.
Варлаам – Василий Лубенцов (1886-1975). Русский певец (бас). Пел в Итальянской опере в Одессе, выступал в Киеве. В 1923-51 солист Большого театра, где дебютировал в партии Кончака.
Шуйский Василий Иванович – Никандр Ханаев (1890-1974). Русский певец (тенор). В 1925 поступил в оперную студию при Большом театре. Солист Большого театра в 1926-54. Одной из первых крупных работ в театре стала партия Германа, выдающимся исполнителем которой он считается.
Дирижер – Николай Голованов (1891-1953). Русский дирижер. В 1919-53 (с перерывами) работал в Большом театре. С 1948 главный дирижер. Среди важнейших постановок Голованова «Борис Годунов» (1948), «Садко» (1949), «Хованщина» (1950). Осуществил 1-ю постановку на русской сцене оперы Мусоргского «Сорочинская ярмарка» в редакции Ю.Сахновского (1925).
«Борис Годунов» Мусоргского
Опера «Борис Годунов» – выдающееся творение русского художественного гения. Ее роль в истории мирового оперного искусства нельзя переоценить. Мусоргский счастливо соединил здесь национальный дух и стиль с важнейшими тенденциями мирового (точнее, европейского) художественного процесса и даже предвосхитил некоторые из них. Только в таком сочетании произведение искусства становится великим.
Композитор в этом сочинении шел по магистральному пути развития оперы, связанному с поисками новых принципов вокального языка, основанного на синтезе мелодии и речевой интонации (речитативе). При этом ему удалось извлечь из глубин народного русского мелоса некие архаические фундаментальные качества, не впадая в поверхностное цитатничество и «народничество». Если говорить о художественно-эстетических принципах произведения, то и на этом уровне Мусоргский смог соединить оригинальность замысла с сущностными и вполне традиционными для оперного жанра моментами – контрастом народного и личностного начал, органическим взаимопроникновением в логике развития музыкального-сценического действия исторической масштабности и крупноплановой психологической образности. Прежде всего, все сказанное касается главного героя – царя Бориса.
Путь оперы к слушателю был тернист, как и подобает произведению новаторскому. В этом смысле поучительна история возникновения ее различных версий. Существует две авторские редакции 1869 и 1872. После завершения работы над оперой в ее первоначальном виде Мусоргский продолжил работу над произведением. Это было обусловлено рядом причин, как художественного толка, так и не имевших к искусству прямого отношения. Так, 1-я редакция была отвергнута Дирекцией императорских театров из-за отсутствия некоторых традиционных для оперного представления составляющих, в частности, значимого женского образа, необходимого для придания дополнительной личностной интриги действию. Тогда композитор досочинил т. н. «польские сцены» с участием Марины Мнишек и ввел в сюжет любовную коллизию. Однако были и более глубокие основания для переделки партитуры, на которые автора подвигли советы Стасова, Римского-Корсакова, принимавших горячее участие в его работе, а также историка В.Никольского, по рекомендации которого он изменил финал оперы. Теперь она завершалась не смертью Бориса, а новой сценой «Под Кромами». Был также добавлен исключительно важный монолог Бориса в Царском тереме и исключена «Сцена у собора Василия Блаженного» с переносом знаменитого эпизода с Юродивым в финал оперы. В таком виде в 1874 состоялась долгожданная премьера в Мариинском Театре под управлением Э.Направника с И.Мельниковым в заглавной партии. Даже в переработанном виде оперу не хотели выпускать на императорскую сцену. Лишь настойчивые усилия известной русской певицы Платоновой помогли преодолеть все бюрократические препоны.
Премьера вызвала весьма разноречивые суждения. Консервативные круги встретили оперу сдержанно, не приняв тех новшеств, которые были заложены в гениальной музыке, а демократическая общественность восторженно. Однако даже в стане друзей Мусоргского не было единства относительно некоторых существенных черт произведения. Так, например, Римский-Корсаков, восторгаясь оперой в целом, отмечал существенные пробелы в ее оркестровке, колючесть некоторых гармоний, шероховатости вокального языка. Уже после смерти Мусоргского он задумал и осуществил «доработку» произведения с целью его большей, как сказали бы мы сейчас, «презентабельности». Он подверг изменениям и сокращениям некоторые сцены, сделал новую инструментовку, усилив роль и мощь оркестра и сгладив некоторые «острые углы» в гармониях и вокальных партиях. Так возникла наиболее популярная редакция Римского-Корсакова. Теперь, по прошествии времени, очевидно, что при этом были утрачены некоторые оригинальные особенности стиля Мусоргского. Однако, в тот исторический момент данная работа сыграла огромную роль в сценической судьбе этого шедевра русской музыки. Версия Римского-Корсакова впервые была исполнена в 1896 под управлением ее автора в Большом зале Петербургской консерватории (в заглавной партии Ф.Стравинский). В дальнейшем именно она надолго стала господствующей в исполнительской практике. Воистину, исторической можно назвать постановку оперы в этой редакции на сцене мамонтовской Московской частной русской оперы в 1898 (дирижер И.Труффи), где в заглавной партии выступил гениальный русский артист Федор Шаляпин, которому выпала миссия наиболее полно и глубоко воплотить на сцене образ царя Бориса. Для мировой славы Б.Г. определяющей стала парижская постановка 1908, осуществленная режиссером А. Саниным и дирижером Ф.Блуменфельдом в рамках Русских сезонов под руководством Сергея Дягилева, где роль царя Бориса вновь исполнил Шаляпин. Для этой постановки Римский-Корсаков сделал второй вариант своей редакции оперы.
Судьбу авторских версий сочинения во многом определила исследовательская работа музыковеда П.Ламма, который в 1927 на основе изучения творческого наследия Мусоргского создал т. н. сводную авторскую редакцию, сочетающую в себе оба первоначальных варианта оперы. И, наконец, в 1940 композитор Д.Шостакович предложил свой вариант оркестровки Б.Г.
За рубежом после парижского триумфа 1908 успех в других странах не заставил себя ждать. Уже в 1909 (1 января) оперу можно было услышать в Италии в Ла Скала с Шаляпиным, затем в Генуе с Э.Джиральдони. В том же году Б.Г. поставили в театре Колон в Буэнос-Айресе (заглавную партию вновь исполнял Джиральдони). В 1913 силами дягилевской труппы с участием Шаляпина опера была впервые исполнена в Лондоне, а также в Метрополитен под управлением Тосканини (американская премьера, в заглавной роли Адам Дидур) и в Бреслау (немецкая премьера).
Дальнейшая история сочинения полна триумфов и творческих открытий. Роль царя Бориса – необыкновенно трудная, но, в то же время благодарная, стала для многих выдающихся артистов знаковой в их репертуаре. Среди отечественных исполнителей можно отметить А.Мозжухина, А.Пирогова, М.Рейзена, И.Петрова, Б.Штоколова и др. Несмотря на большое национальное своеобразие и, можно сказать, харизматичность образа Бориса, многие зарубежные певцы тоже весьма успешно, а подчас и блестяще, справлялись с этой ролью. В этом ряду Джиральдони, Э.Пинца, Б.Христов, Д.Лондон, М.Чангалович, Н.Гяуров, М.Тальвела.
Среди значимых отечественных спектаклей ленинградские постановки 1928 (редакция Ламма, дирижер В.Дранишников, режиссер С.Радлов, в главной роли Рейзен) и 1959 (редакция Шостаковича, дирижер С.Ельцин, в роли Бориса – Штоколов) Спектакль 1927 в Большом театре (версия Римского-Корсакова с добавлением впервые исполненной сцены «У собора Василия Блаженного», дирижер А.Пазовский, режиссер В.Лосский); постановка режиссера Л.Баратова на сцене БТ в 1948 (редакция Римского-Корсакова, дирижер Голованов), до сих пор находящаяся в репертуаре театра. Многие другие театры страны также неоднократно обращались к этому произведению. Среди постановок последних лет спектакли МТ в 2002 (дирижер В.Гергиев, режиссер В.Крамер), БТ в 2007 (дирижер А.Ведерников, режиссер А.Сокуров).
Из зарубежных постановок отметим спектакли 1923 в Дрездене под управлением Ф.Буша (в этой постановке неоценимую помощь дирижеру оказал И.Добровейн) и 1926 в ГО (Мозжухин в роли Бориса). В послевоенные годы выделяются постановка П.Брука в Ковент-Гардене в 1948 (в 1949 в этой постановке дебютировал на лондонской сцене Христов), спектакль Гранд-Опера (1954), в котором блестяще выступил И.Петров, спектакль Зальцбургского фестиваля в 1965 (дирижер и режиссер Г.фон Караян, в заглавной партии Гяуров), постановки Метрополитен в 1974 (дирижер Т.Шипперс, режиссер А.Эвердинг, в роли Бориса – Тальвела), Венской Опере в 1976 (режиссер О.Шенк, в заглавной роли Гяуров), Ла Скала в 1979 (дирижер К.Аббадо, режиссер Ю.Любимов, в заглавной роли Гяуров). В 1983 в Ковент-Гардене свою версию предложил на суд публики выдающийся кинорежиссер А.Тарковский (дирижер Аббадо). Этот спектакль затем был перенесен в Мариинский театр (1990, дирижер Гергиев). В 1994 на Зальцбургском фестивале была осуществлена новая постановка оперы в режиссуре Г.Вернике, которую можно считать характерным примером постмодернистского прочтения шедевра Мусоргского. Надо также отметить, что большинство новейших постановщиков оперы обращаются к авторским редакциям.
По опере снято несколько фильмов. Среди них отечественная кинолента режиссера В.Строевой (1955, в заглавной роли А.Пирогов) и весьма спорная работа польского режиссера А.Жулавского (1989, в заглавной роли Р.Раймонди).
В музыке оперы немало замечательных по силе эстетического воздействия эпизодов. Особенно богата ими партия Бориса. В первую очередь это его монолог Скорбит душа (пролог), речитатив и ария Достиг я высшей власти (2 акт), совершенно исключительная по силе воздействия сцена «Ух, тяжело, дай дух переведу», обозначенная автором в партитуре как «Часы с курантами» (2 акт), и, наконец, сцена смерти Бориса (4 акт). Если в «русских» сценах доминирует суровый речитативно-мелодический аскетизм, перемежающийся народно-жанровыми эпизодами (например, песня Варлаама «Как во городе было во Казани» в сцене в корчме), то в т. н. «польском» акте Мусоргский весьма изобретательно меняет стилистику музыки, приближая ее к образцам западно-европейского Романтизма и демонстрируя свой мелодический дар (сцена у фонтана). Вся мощь таланта композитора проявляется также в монументальных хоровых народных сценах.
Данная запись представляет собой редакцию Римского-Корсакова с включением «Сцены у собора Василия Блаженного» в качестве 1-й картины 4-го акта. После нее следует Сцена в боярской думе и смерть Бориса. Завершается опера «Сценой под Кромами».
Евгений Цодоков
-Треклист:

CD 1

01. Prologue, Scene 1. The yard of the Novodevichy Convent [00:13:32]
02. Prologue, Scene 2. Square in the Kremlin [00:04:47]
03. Boris: 'My heart is heavy' [00:04:51]
04. Act 1, Scene 1. The cell in Chudov monastery [00:16:35]
05. Act 1, Scene 2. An inn at the frontier of Lithuania [00:05:09]
06. Varlaam: 'In the town of Kazan' [00:14:54]
07. Act 2. Tsar's appartments in the Kremlin [00:10:42]
08. Boris: 'I have attained the highest power' [00:06:34]

Лог создания рипа

Information ripping to [CUE Sheet Image], 'Track 1' to 'U:\muziek\Bruch - Violin Cto, Romance, String Quintet in A minor - Vadim Gluzman, Bergen PO, Litton\Mussorgsky\Boris Godunov\Mussorgsky - 01 - Track 1.IGNORE' Track 1: Ripped LBA 0 to 60935 (13:32) in 3:15. Filename: U:\muziek\Bruch - Violin Cto, Romance, String Quintet in A minor - Vadim Gluzman, Bergen PO, Litton\Mussorgsky\Boris Godunov\Mussorgsky - 01 - Track 1.IGNORE Secure [Pass 1 & 2, Ultra 1 to 1] CRC32: 2C44F525 AccurateRip CRC: C4F5A122 [DiscID: 008-0017d886-009f5b25-6e121408-1]
Information ripping to [CUE Sheet Image], 'Track 2' to 'U:\muziek\Bruch - Violin Cto, Romance, String Quintet in A minor - Vadim Gluzman, Bergen PO, Litton\Mussorgsky\Boris Godunov\Mussorgsky - 02 - Track 2.IGNORE' Track 2: Ripped LBA 60935 to 82462 (4:47) in 1:02. Filename: U:\muziek\Bruch - Violin Cto, Romance, String Quintet in A minor - Vadim Gluzman, Bergen PO, Litton\Mussorgsky\Boris Godunov\Mussorgsky - 02 - Track 2.IGNORE Secure [Pass 1 & 2, Ultra 1 to 1] CRC32: 57260DF7 AccurateRip CRC: 32874573 [DiscID: 008-0017d886-009f5b25-6e121408-2]
Information ripping to [CUE Sheet Image], 'Track 3' to 'U:\muziek\Bruch - Violin Cto, Romance, String Quintet in A minor - Vadim Gluzman, Bergen PO, Litton\Mussorgsky\Boris Godunov\Mussorgsky - 03 - Track 3.IGNORE' Track 3: Ripped LBA 82462 to 104292 (4:51) in 1:02. Filename: U:\muziek\Bruch - Violin Cto, Romance, String Quintet in A minor - Vadim Gluzman, Bergen PO, Litton\Mussorgsky\Boris Godunov\Mussorgsky - 03 - Track 3.IGNORE Secure [Pass 1 & 2, Ultra 1 to 1] CRC32: 8649F812 AccurateRip CRC: B1414D62 [DiscID: 008-0017d886-009f5b25-6e121408-3]
Information ripping to [CUE Sheet Image], 'Track 4' to 'U:\muziek\Bruch - Violin Cto, Romance, String Quintet in A minor - Vadim Gluzman, Bergen PO, Litton\Mussorgsky\Boris Godunov\Mussorgsky - 04 - Track 4.IGNORE' Track 4: Ripped LBA 104292 to 178947 (16:35) in 3:20. Filename: U:\muziek\Bruch - Violin Cto, Romance, String Quintet in A minor - Vadim Gluzman, Bergen PO, Litton\Mussorgsky\Boris Godunov\Mussorgsky - 04 - Track 4.IGNORE Secure [Pass 1 & 2, Ultra 1 to 1] CRC32: 14B40B0E AccurateRip CRC: E3833474 [DiscID: 008-0017d886-009f5b25-6e121408-4]
Information ripping to [CUE Sheet Image], 'Track 5' to 'U:\muziek\Bruch - Violin Cto, Romance, String Quintet in A minor - Vadim Gluzman, Bergen PO, Litton\Mussorgsky\Boris Godunov\Mussorgsky - 05 - Track 5.IGNORE' Track 5: Ripped LBA 178947 to 202187 (5:09) in 1:01. Filename: U:\muziek\Bruch - Violin Cto, Romance, String Quintet in A minor - Vadim Gluzman, Bergen PO, Litton\Mussorgsky\Boris Godunov\Mussorgsky - 05 - Track 5.IGNORE Secure [Pass 1 & 2, Ultra 1 to 1] CRC32: 7A7444DB AccurateRip CRC: 3A086EF3 [DiscID: 008-0017d886-009f5b25-6e121408-5]
Information ripping to [CUE Sheet Image], 'Track 6' to 'U:\muziek\Bruch - Violin Cto, Romance, String Quintet in A minor - Vadim Gluzman, Bergen PO, Litton\Mussorgsky\Boris Godunov\Mussorgsky - 06 - Track 6.IGNORE' Track 6: Ripped LBA 202187 to 269310 (14:54) in 2:50. Filename: U:\muziek\Bruch - Violin Cto, Romance, String Quintet in A minor - Vadim Gluzman, Bergen PO, Litton\Mussorgsky\Boris Godunov\Mussorgsky - 06 - Track 6.IGNORE Secure [Pass 1 & 2, Ultra 1 to 1] CRC32: D5FA2BBC AccurateRip CRC: 89ED5C57 [DiscID: 008-0017d886-009f5b25-6e121408-6]
Information ripping to [CUE Sheet Image], 'Track 7' to 'U:\muziek\Bruch - Violin Cto, Romance, String Quintet in A minor - Vadim Gluzman, Bergen PO, Litton\Mussorgsky\Boris Godunov\Mussorgsky - 07 - Track 7.IGNORE' Track 7: Ripped LBA 269310 to 317520 (10:42) in 1:59. Filename: U:\muziek\Bruch - Violin Cto, Romance, String Quintet in A minor - Vadim Gluzman, Bergen PO, Litton\Mussorgsky\Boris Godunov\Mussorgsky - 07 - Track 7.IGNORE Secure [Pass 1 & 2, Ultra 1 to 1] CRC32: 4C5B78FA AccurateRip CRC: 28549C52 [DiscID: 008-0017d886-009f5b25-6e121408-7]
Information ripping to [CUE Sheet Image], 'Track 8' to 'U:\muziek\Bruch - Violin Cto, Romance, String Quintet in A minor - Vadim Gluzman, Bergen PO, Litton\Mussorgsky\Boris Godunov\Mussorgsky - 08 - Track 8.IGNORE' Track 8: Ripped LBA 317520 to 347105 (6:34) in 1:13. Filename: U:\muziek\Bruch - Violin Cto, Romance, String Quintet in A minor - Vadim Gluzman, Bergen PO, Litton\Mussorgsky\Boris Godunov\Mussorgsky - 08 - Track 8.IGNORE Secure [Pass 1 & 2, Ultra 1 to 1] CRC32: DC3A468C AccurateRip CRC: DA466E0B [DiscID: 008-0017d886-009f5b25-6e121408-8]

Содержание индексной карты (.CUE)

REM GENRE OperaREM DATE 1949PERFORMER "Mussorgsky"TITLE "Boris Godunov [CD 1](Austria 2001; Preiser Records 90483 MONO)"FILE "Boris Godunov [CD 1](Austria 2001; Preiser Records 90483 MONO).flac" WAVE TRACK 01 AUDIO TITLE "Prologue, Scene 1. The yard of the Novodevichy Convent" INDEX 01 00:00:00 TRACK 02 AUDIO TITLE "Prologue, Scene 2. Square in the Kremlin" INDEX 01 13:32:35 TRACK 03 AUDIO TITLE "Boris: 'My heart is heavy'" INDEX 01 18:19:37 TRACK 04 AUDIO TITLE "Act 1, Scene 1. The cell in Chudov monastery" INDEX 01 23:10:42 TRACK 05 AUDIO TITLE "Act 1, Scene 2. An inn at the frontier of Lithuania" INDEX 01 39:45:72 TRACK 06 AUDIO TITLE "Varlaam: 'In the town of Kazan'" INDEX 01 44:55:62 TRACK 07 AUDIO TITLE "Act 2. Tsar's appartments in the Kremlin" INDEX 01 59:50:60 TRACK 08 AUDIO TITLE "Boris: 'I have attained the highest power'" INDEX 01 70:33:45

Лог проверки качества

-----------------------
DON'T MODIFY THIS FILE
-----------------------
PERFORMER: auCDtect Task Manager, ver. 1.6.0 RC1 build 1.6.0.1Copyright (c) 2008-2010 y-soft. All rights reservedhttp://y-soft.org
ANALYZER: auCDtect: CD records authenticity detector, version 0.8.2Copyright (c) 2004 Oleg Berngardt. All rights reserved.Copyright (c) 2004 Alexander Djourik. All rights reserved.
FILE: Boris Godunov [CD 1](Austria 2001; Preiser Records 90483 MONO).flac Size: 390343956 Hash: 9741556DB14D1ADA79E15AD00EEB5147 Accuracy: -m0 Conclusion: CDDA 100% Signature: 8193F99D1834E697BC8B1A2AE3632D652BF14C96

DR динамический диапазон

foobar2000 1.3.1 / Замер динамического диапазона (DR) 1.1.1Дата отчёта: 2015-01-21 20:54:39
--------------------------------------------------------------------------------Анализ: Mussorgsky / Boris Godunov [CD 1](Austria 2001; Preiser Records 90483 MONO)--------------------------------------------------------------------------------
DR Пики RMS Продолжительность трека--------------------------------------------------------------------------------DR13 -0.10 дБ -18.23 дБ 13:32 01-Prologue, Scene 1. The yard of the Novodevichy ConventDR13 -0.10 дБ -16.93 дБ 4:47 02-Prologue, Scene 2. Square in the KremlinDR13 -0.13 дБ -17.59 дБ 4:51 03-Boris: 'My heart is heavy'DR16 -0.40 дБ -22.02 дБ 16:35 04-Act 1, Scene 1. The cell in Chudov monasteryDR14 -0.86 дБ -20.13 дБ 5:10 05-Act 1, Scene 2. An inn at the frontier of LithuaniaDR15 0.00 дБ -19.21 дБ 14:55 06-Varlaam: 'In the town of Kazan'DR16 -0.10 дБ -21.39 дБ 10:43 07-Act 2. Tsar's appartments in the KremlinDR13 -0.10 дБ -19.02 дБ 6:34 08-Boris: 'I have attained the highest power'--------------------------------------------------------------------------------
Количество треков: 8Реальные значения DR: DR14
Частота: 44100 гцКаналов: 2Бит на сэмпл: 16Битрейт: 315 кбит/сКодек: FLAC================================================================================

Скриншот спектра частот, etc

CD 2

01. Shiusky: 'Most noble Lord and Tsar, thy servant' [00:09:02]
02. Boris: 'Ah, I'm suffocating' [00:04:01]
03. Act 3. Castle in Sandomir [00:06:23]
04. Marina: 'Dmitri! Tsarevitch' [00:11:11]
05. Act 4, Scene 1. At the Pokrovsky Cathedral [00:13:21]
06. Act 4, Scene 2. Granovitaya Palata in the Kremlin [00:04:51]
07. Boris: 'Go away, child!' [00:03:39]
08. Pimen: 'Once at eve' [00:06:11]
09. Boris: 'Farewell, my son' [00:05:27]
10. Boris: 'The bell! The passing bell!' [00:04:18]

Лог создания рипа

Information ripping to [CUE Sheet Image], 'Track 1' to 'U:\muziek\Mussorgsky - Boris Godunov - Golovanov\CD2\Unknown Artist\Unknown Artist - 01 - Track 1.IGNORE' Track 1: Ripped LBA 0 to 40652 (9:02) in 2:23. Filename: U:\muziek\Mussorgsky - Boris Godunov - Golovanov\CD2\Unknown Artist\Unknown Artist - 01 - Track 1.IGNORE Secure [Pass 1 & 2, Ultra 1 to 1] CRC32: 77BBF77A AccurateRip CRC: E6DC3C65 [DiscID: 010-001c1281-00de4599-87100b0a-1]
Information ripping to [CUE Sheet Image], 'Track 2' to 'U:\muziek\Mussorgsky - Boris Godunov - Golovanov\CD2\Unknown Artist\Unknown Artist - 02 - Track 2.IGNORE' Track 2: Ripped LBA 40652 to 58767 (4:01) in 0:57. Filename: U:\muziek\Mussorgsky - Boris Godunov - Golovanov\CD2\Unknown Artist\Unknown Artist - 02 - Track 2.IGNORE Secure [Pass 1 & 2, Ultra 1 to 1] CRC32: 44918028 AccurateRip CRC: 23BC099F [DiscID: 010-001c1281-00de4599-87100b0a-2]
Information ripping to [CUE Sheet Image], 'Track 3' to 'U:\muziek\Mussorgsky - Boris Godunov - Golovanov\CD2\Unknown Artist\Unknown Artist - 03 - Track 3.IGNORE' Track 3: Ripped LBA 58767 to 87497 (6:23) in 1:26. Filename: U:\muziek\Mussorgsky - Boris Godunov - Golovanov\CD2\Unknown Artist\Unknown Artist - 03 - Track 3.IGNORE Secure [Pass 1 & 2, Ultra 1 to 1] CRC32: 888478A4 AccurateRip CRC: F2498020 [DiscID: 010-001c1281-00de4599-87100b0a-3]
Information ripping to [CUE Sheet Image], 'Track 4' to 'U:\muziek\Mussorgsky - Boris Godunov - Golovanov\CD2\Unknown Artist\Unknown Artist - 04 - Track 4.IGNORE' Track 4: Ripped LBA 87497 to 137850 (11:11) in 2:23. Filename: U:\muziek\Mussorgsky - Boris Godunov - Golovanov\CD2\Unknown Artist\Unknown Artist - 04 - Track 4.IGNORE Secure [Pass 1 & 2, Ultra 1 to 1] CRC32: 4F537C34 AccurateRip CRC: E6AD30DB [DiscID: 010-001c1281-00de4599-87100b0a-4]
Information ripping to [CUE Sheet Image], 'Track 5' to 'U:\muziek\Mussorgsky - Boris Godunov - Golovanov\CD2\Unknown Artist\Unknown Artist - 05 - Track 5.IGNORE' Track 5: Ripped LBA 137850 to 197930 (13:21) in 2:42. Filename: U:\muziek\Mussorgsky - Boris Godunov - Golovanov\CD2\Unknown Artist\Unknown Artist - 05 - Track 5.IGNORE Secure [Pass 1 & 2, Ultra 1 to 1] CRC32: 5B96BE4A AccurateRip CRC: B70E79DE [DiscID: 010-001c1281-00de4599-87100b0a-5]
Information ripping to [CUE Sheet Image], 'Track 6' to 'U:\muziek\Mussorgsky - Boris Godunov - Golovanov\CD2\Unknown Artist\Unknown Artist - 06 - Track 6.IGNORE' Track 6: Ripped LBA 197930 to 219807 (4:51) in 0:59. Filename: U:\muziek\Mussorgsky - Boris Godunov - Golovanov\CD2\Unknown Artist\Unknown Artist - 06 - Track 6.IGNORE Secure [Pass 1 & 2, Ultra 1 to 1] CRC32: FDAD57C3 AccurateRip CRC: 20EB5033 [DiscID: 010-001c1281-00de4599-87100b0a-6]
Information ripping to [CUE Sheet Image], 'Track 7' to 'U:\muziek\Mussorgsky - Boris Godunov - Golovanov\CD2\Unknown Artist\Unknown Artist - 07 - Track 7.IGNORE' Track 7: Ripped LBA 219807 to 236302 (3:39) in 0:44. Filename: U:\muziek\Mussorgsky - Boris Godunov - Golovanov\CD2\Unknown Artist\Unknown Artist - 07 - Track 7.IGNORE Secure [Pass 1 & 2, Ultra 1 to 1] CRC32: 85CAD1A9 AccurateRip CRC: E0DC5F99 [DiscID: 010-001c1281-00de4599-87100b0a-7]
Information ripping to [CUE Sheet Image], 'Track 8' to 'U:\muziek\Mussorgsky - Boris Godunov - Golovanov\CD2\Unknown Artist\Unknown Artist - 08 - Track 8.IGNORE' Track 8: Ripped LBA 236302 to 264150 (6:11) in 1:13. Filename: U:\muziek\Mussorgsky - Boris Godunov - Golovanov\CD2\Unknown Artist\Unknown Artist - 08 - Track 8.IGNORE Secure [Pass 1 & 2, Ultra 1 to 1] CRC32: B7CBDC64 AccurateRip CRC: E90BB3C4 [DiscID: 010-001c1281-00de4599-87100b0a-8]
Information ripping to [CUE Sheet Image], 'Track 9' to 'U:\muziek\Mussorgsky - Boris Godunov - Golovanov\CD2\Unknown Artist\Unknown Artist - 09 - Track 9.IGNORE' Track 9: Ripped LBA 264150 to 288720 (5:27) in 1:04. Filename: U:\muziek\Mussorgsky - Boris Godunov - Golovanov\CD2\Unknown Artist\Unknown Artist - 09 - Track 9.IGNORE Secure [Pass 1 & 2, Ultra 1 to 1] CRC32: B67DA145 AccurateRip CRC: A94C2BB2 [DiscID: 010-001c1281-00de4599-87100b0a-9]
Information ripping to [CUE Sheet Image], 'Track 10' to 'U:\muziek\Mussorgsky - Boris Godunov - Golovanov\CD2\Unknown Artist\Unknown Artist - 10 - Track 10.IGNORE' Track 10: Ripped LBA 288720 to 308070 (4:18) in 0:50. Filename: U:\muziek\Mussorgsky - Boris Godunov - Golovanov\CD2\Unknown Artist\Unknown Artist - 10 - Track 10.IGNORE Secure [Pass 1 & 2, Ultra 1 to 1] CRC32: 5B574B5C AccurateRip CRC: 1721BE7F [DiscID: 010-001c1281-00de4599-87100b0a-10]

Содержание индексной карты (.CUE)

REM GENRE OperaREM DATE 1949PERFORMER "Mussorgsky"TITLE "Boris Godunov [CD 2](Austria 2001; Preiser Records 90483 MONO)"FILE "Boris Godunov [CD 2](Austria 2001; Preiser Records 90483 MONO).flac" WAVE TRACK 01 AUDIO TITLE "Shiusky: 'Most noble Lord and Tsar, thy servant'" INDEX 01 00:00:00 TRACK 02 AUDIO TITLE "Boris: 'Ah, I'm suffocating'" INDEX 01 09:02:02 TRACK 03 AUDIO TITLE "Act 3. Castle in Sandomir" INDEX 01 13:03:42 TRACK 04 AUDIO TITLE "Marina: 'Dmitri! Tsarevitch'" INDEX 01 19:26:47 TRACK 05 AUDIO TITLE "Act 4, Scene 1. At the Pokrovsky Cathedral" INDEX 01 30:38:00 TRACK 06 AUDIO TITLE "Act 4, Scene 2. Granovitaya Palata in the Kremlin" INDEX 01 43:59:05 TRACK 07 AUDIO TITLE "Boris: 'Go away, child!'" INDEX 01 48:50:57 TRACK 08 AUDIO TITLE "Pimen: 'Once at eve'" INDEX 01 52:30:52 TRACK 09 AUDIO TITLE "Boris: 'Farewell, my son'" INDEX 01 58:42:00 TRACK 10 AUDIO TITLE "Boris: 'The bell! The passing bell!'" INDEX 01 64:09:45

Лог проверки качества

-----------------------
DON'T MODIFY THIS FILE
-----------------------
PERFORMER: auCDtect Task Manager, ver. 1.6.0 RC1 build 1.6.0.1Copyright (c) 2008-2010 y-soft. All rights reservedhttp://y-soft.org
ANALYZER: auCDtect: CD records authenticity detector, version 0.8.2Copyright (c) 2004 Oleg Berngardt. All rights reserved.Copyright (c) 2004 Alexander Djourik. All rights reserved.
FILE: Boris Godunov [CD 2](Austria 2001; Preiser Records 90483 MONO).flac Size: 340646195 Hash: 0603B7B2D37CB09E0BC45A380136D018 Accuracy: -m0 Conclusion: CDDA 100% Signature: A5C22578363BF3AA1F7EC253A9A68338C46ECECB

DR динамический диапазон

foobar2000 1.3.1 / Замер динамического диапазона (DR) 1.1.1Дата отчёта: 2015-01-21 20:54:54
--------------------------------------------------------------------------------Анализ: Mussorgsky / Boris Godunov [CD 2](Austria 2001; Preiser Records 90483 MONO)--------------------------------------------------------------------------------
DR Пики RMS Продолжительность трека--------------------------------------------------------------------------------DR14 -0.10 дБ -19.28 дБ 9:02 01-Shiusky: 'Most noble Lord and Tsar, thy servant'DR13 -1.74 дБ -20.00 дБ 4:02 02-Boris: 'Ah, I'm suffocating'DR14 -0.10 дБ -18.28 дБ 6:23 03-Act 3. Castle in SandomirDR14 -0.10 дБ -18.07 дБ 11:11 04-Marina: 'Dmitri! Tsarevitch'DR13 -1.36 дБ -19.85 дБ 13:21 05-Act 4, Scene 1. At the Pokrovsky CathedralDR14 -1.28 дБ -20.94 дБ 4:52 06-Act 4, Scene 2. Granovitaya Palata in the KremlinDR17 -0.24 дБ -22.97 дБ 3:40 07-Boris: 'Go away, child!'DR17 -0.10 дБ -22.32 дБ 6:11 08-Pimen: 'Once at eve'DR16 -0.39 дБ -22.40 дБ 5:28 09-Boris: 'Farewell, my son'DR15 -0.73 дБ -22.14 дБ 4:18 10-Boris: 'The bell! The passing bell!'--------------------------------------------------------------------------------
Количество треков: 10Реальные значения DR: DR15
Частота: 44100 гцКаналов: 2Бит на сэмпл: 16Битрейт: 310 кбит/сКодек: FLAC================================================================================

Скриншот спектра частот, etc

CD 3

01. Act 4, Scene 3. A glade in the forest of Kromy [00:17:58]
02. (Mark Reizen) Prologue, Scene 2. Square in the Kremlin [00:04:41]
03. Boris: 'My heart is heavy' [00:04:55]
04. Boris: 'What's this?' [00:03:46]
05. Boris: 'I have attained the highest power' [00:06:21]
06. Shiusky: 'Most noble Lord and Tsar, thy servant' [00:08:29]
07. Boris: 'Ah, I'm suffocating' [00:03:53]
08. Act 4, Scene 2. Granovitaya Palata in the Kremlin [00:04:41]
09. Boris: 'Go away, child!' [00:03:32]
10. Pimen: 'Once at eve' [00:05:53]
11. Boris: 'Farewell, my son' [00:05:35]
12. Boris: 'The bell! The passing bell!' [00:04:09]

Лог создания рипа

Information ripping to [CUE Sheet Image], 'Track 1' to 'U:\muziek\Mussorgsky - Boris Godunov - Golovanov\CD3\Unknown Artist\Unknown Artist - 01 - Track 1.IGNORE' Track 1: Ripped LBA 0 to 80850 (17:58) in 4:16. Filename: U:\muziek\Mussorgsky - Boris Godunov - Golovanov\CD3\Unknown Artist\Unknown Artist - 01 - Track 1.IGNORE Secure [Pass 1 & 2, Ultra 1 to 1] CRC32: 64FA9F52 AccurateRip CRC: F38842BD [DiscID: 012-0026186d-0150c634-a611570c-1]
Information ripping to [CUE Sheet Image], 'Track 2' to 'U:\muziek\Mussorgsky - Boris Godunov - Golovanov\CD3\Unknown Artist\Unknown Artist - 02 - Track 2.IGNORE' Track 2: Ripped LBA 80850 to 101982 (4:41) in 1:01. Filename: U:\muziek\Mussorgsky - Boris Godunov - Golovanov\CD3\Unknown Artist\Unknown Artist - 02 - Track 2.IGNORE Secure [Pass 1 & 2, Ultra 1 to 1] CRC32: 0C4A1AA4 AccurateRip CRC: 334668C1 [DiscID: 012-0026186d-0150c634-a611570c-2]
Information ripping to [CUE Sheet Image], 'Track 3' to 'U:\muziek\Mussorgsky - Boris Godunov - Golovanov\CD3\Unknown Artist\Unknown Artist - 03 - Track 3.IGNORE' Track 3: Ripped LBA 101982 to 124177 (4:55) in 1:02. Filename: U:\muziek\Mussorgsky - Boris Godunov - Golovanov\CD3\Unknown Artist\Unknown Artist - 03 - Track 3.IGNORE Secure [Pass 1 & 2, Ultra 1 to 1] CRC32: BB79BAFA AccurateRip CRC: 22F47924 [DiscID: 012-0026186d-0150c634-a611570c-3]
Information ripping to [CUE Sheet Image], 'Track 4' to 'U:\muziek\Mussorgsky - Boris Godunov - Golovanov\CD3\Unknown Artist\Unknown Artist - 04 - Track 4.IGNORE' Track 4: Ripped LBA 124177 to 141130 (3:46) in 0:47. Filename: U:\muziek\Mussorgsky - Boris Godunov - Golovanov\CD3\Unknown Artist\Unknown Artist - 04 - Track 4.IGNORE Secure [Pass 1 & 2, Ultra 1 to 1] CRC32: 5DD3735D AccurateRip CRC: E80110E2 [DiscID: 012-0026186d-0150c634-a611570c-4]
Information ripping to [CUE Sheet Image], 'Track 5' to 'U:\muziek\Mussorgsky - Boris Godunov - Golovanov\CD3\Unknown Artist\Unknown Artist - 05 - Track 5.IGNORE' Track 5: Ripped LBA 141130 to 169722 (6:21) in 1:17. Filename: U:\muziek\Mussorgsky - Boris Godunov - Golovanov\CD3\Unknown Artist\Unknown Artist - 05 - Track 5.IGNORE Secure [Pass 1 & 2, Ultra 1 to 1] CRC32: 8C245F4F AccurateRip CRC: E958032F [DiscID: 012-0026186d-0150c634-a611570c-5]
Information ripping to [CUE Sheet Image], 'Track 6' to 'U:\muziek\Mussorgsky - Boris Godunov - Golovanov\CD3\Unknown Artist\Unknown Artist - 06 - Track 6.IGNORE' Track 6: Ripped LBA 169722 to 207952 (8:29) in 1:40. Filename: U:\muziek\Mussorgsky - Boris Godunov - Golovanov\CD3\Unknown Artist\Unknown Artist - 06 - Track 6.IGNORE Secure [Pass 1 & 2, Ultra 1 to 1] CRC32: D10C4187 AccurateRip CRC: 238C9C5F [DiscID: 012-0026186d-0150c634-a611570c-6]
Information ripping to [CUE Sheet Image], 'Track 7' to 'U:\muziek\Mussorgsky - Boris Godunov - Golovanov\CD3\Unknown Artist\Unknown Artist - 07 - Track 7.IGNORE' Track 7: Ripped LBA 207952 to 225472 (3:53) in 0:46. Filename: U:\muziek\Mussorgsky - Boris Godunov - Golovanov\CD3\Unknown Artist\Unknown Artist - 07 - Track 7.IGNORE Secure [Pass 1 & 2, Ultra 1 to 1] CRC32: 955BB9F4 AccurateRip CRC: E3712427 [DiscID: 012-0026186d-0150c634-a611570c-7]
Information ripping to [CUE Sheet Image], 'Track 8' to 'U:\muziek\Mussorgsky - Boris Godunov - Golovanov\CD3\Unknown Artist\Unknown Artist - 08 - Track 8.IGNORE' Track 8: Ripped LBA 225472 to 246602 (4:41) in 0:55. Filename: U:\muziek\Mussorgsky - Boris Godunov - Golovanov\CD3\Unknown Artist\Unknown Artist - 08 - Track 8.IGNORE Secure [Pass 1 & 2, Ultra 1 to 1] CRC32: 97E4F18E AccurateRip CRC: 5BBAC9AD [DiscID: 012-0026186d-0150c634-a611570c-8]
Information ripping to [CUE Sheet Image], 'Track 9' to 'U:\muziek\Mussorgsky - Boris Godunov - Golovanov\CD3\Unknown Artist\Unknown Artist - 09 - Track 9.IGNORE' Track 9: Ripped LBA 246602 to 262532 (3:32) in 0:41. Filename: U:\muziek\Mussorgsky - Boris Godunov - Golovanov\CD3\Unknown Artist\Unknown Artist - 09 - Track 9.IGNORE Secure [Pass 1 & 2, Ultra 1 to 1] CRC32: 19B3D2CC AccurateRip CRC: DF0E6A87 [DiscID: 012-0026186d-0150c634-a611570c-9]
Information ripping to [CUE Sheet Image], 'Track 10' to 'U:\muziek\Mussorgsky - Boris Godunov - Golovanov\CD3\Unknown Artist\Unknown Artist - 10 - Track 10.IGNORE' Track 10: Ripped LBA 262532 to 289040 (5:53) in 1:07. Filename: U:\muziek\Mussorgsky - Boris Godunov - Golovanov\CD3\Unknown Artist\Unknown Artist - 10 - Track 10.IGNORE Secure [Pass 1 & 2, Ultra 1 to 1] CRC32: 54831235 AccurateRip CRC: 501F9400 [DiscID: 012-0026186d-0150c634-a611570c-10]
Information ripping to [CUE Sheet Image], 'Track 11' to 'U:\muziek\Mussorgsky - Boris Godunov - Golovanov\CD3\Unknown Artist\Unknown Artist - 11 - Track 11.IGNORE' Track 11: Ripped LBA 289040 to 314225 (5:35) in 1:03. Filename: U:\muziek\Mussorgsky - Boris Godunov - Golovanov\CD3\Unknown Artist\Unknown Artist - 11 - Track 11.IGNORE Secure [Pass 1 & 2, Ultra 1 to 1] CRC32: 35370874 AccurateRip CRC: 5E1B4D2A [DiscID: 012-0026186d-0150c634-a611570c-11]
Information ripping to [CUE Sheet Image], 'Track 12' to 'U:\muziek\Mussorgsky - Boris Godunov - Golovanov\CD3\Unknown Artist\Unknown Artist - 12 - Track 12.IGNORE' Track 12: Ripped LBA 314225 to 332937 (4:09) in 0:47. Filename: U:\muziek\Mussorgsky - Boris Godunov - Golovanov\CD3\Unknown Artist\Unknown Artist - 12 - Track 12.IGNORE Secure [Pass 1 & 2, Ultra 1 to 1] CRC32: 6BD6568E AccurateRip CRC: 25D3A9DB [DiscID: 012-0026186d-0150c634-a611570c-12]

Содержание индексной карты (.CUE)

REM GENRE OperaREM DATE 1949PERFORMER "Mussorgsky"TITLE "Boris Godunov [CD 3](Austria 2001; Preiser Records 90483 MONO)"FILE "Boris Godunov [CD 3](Austria 2001; Preiser Records 90483 MONO).flac" WAVE TRACK 01 AUDIO TITLE "Act 4, Scene 3. A glade in the forest of Kromy" INDEX 01 00:00:00 TRACK 02 AUDIO TITLE "(Mark Reizen) Prologue, Scene 2. Square in the Kremlin " INDEX 01 17:58:00 TRACK 03 AUDIO TITLE "Boris: 'My heart is heavy'" INDEX 01 22:39:57 TRACK 04 AUDIO TITLE "Boris: 'What's this?'" INDEX 01 27:35:52 TRACK 05 AUDIO TITLE "Boris: 'I have attained the highest power'" INDEX 01 31:21:55 TRACK 06 AUDIO TITLE "Shiusky: 'Most noble Lord and Tsar, thy servant'" INDEX 01 37:42:72 TRACK 07 AUDIO TITLE "Boris: 'Ah, I'm suffocating'" INDEX 01 46:12:52 TRACK 08 AUDIO TITLE "Act 4, Scene 2. Granovitaya Palata in the Kremlin" INDEX 01 50:06:22 TRACK 09 AUDIO TITLE "Boris: 'Go away, child!'" INDEX 01 54:48:02 TRACK 10 AUDIO TITLE "Pimen: 'Once at eve'" INDEX 01 58:20:32 TRACK 11 AUDIO TITLE "Boris: 'Farewell, my son'" INDEX 01 64:13:65 TRACK 12 AUDIO TITLE "Boris: 'The bell! The passing bell!'" INDEX 01 69:49:50

Лог проверки качества

-----------------------
DON'T MODIFY THIS FILE
-----------------------
PERFORMER: auCDtect Task Manager, ver. 1.6.0 RC1 build 1.6.0.1Copyright (c) 2008-2010 y-soft. All rights reservedhttp://y-soft.org
ANALYZER: auCDtect: CD records authenticity detector, version 0.8.2Copyright (c) 2004 Oleg Berngardt. All rights reserved.Copyright (c) 2004 Alexander Djourik. All rights reserved.
FILE: Boris Godunov [CD 3](Austria 2001; Preiser Records 90483 MONO).flac Size: 362074400 Hash: 7EBA196A8D960F7A733DC33E6E0F403C Accuracy: -m0 Conclusion: CDDA 100% Signature: 01DAFDFD94887372681320D010A9D80F082574DD

DR динамический диапазон

foobar2000 1.3.1 / Замер динамического диапазона (DR) 1.1.1Дата отчёта: 2015-01-21 20:55:10
--------------------------------------------------------------------------------Анализ: Mussorgsky / Boris Godunov [CD 3](Austria 2001; Preiser Records 90483 MONO)--------------------------------------------------------------------------------
DR Пики RMS Продолжительность трека--------------------------------------------------------------------------------DR14 0.00 дБ -18.71 дБ 17:58 01-Act 4, Scene 3. A glade in the forest of KromyDR10 -2.50 дБ -16.19 дБ 4:42 02-(Mark Reizen) Prologue, Scene 2. Square in the KremlinDR12 -1.00 дБ -16.83 дБ 4:56 03-Boris: 'My heart is heavy'DR12 -3.33 дБ -20.91 дБ 3:46 04-Boris: 'What's this?'DR13 -2.90 дБ -20.60 дБ 6:21 05-Boris: 'I have attained the highest power'DR13 -2.60 дБ -20.46 дБ 8:30 06-Shiusky: 'Most noble Lord and Tsar, thy servant'DR12 -3.02 дБ -20.63 дБ 3:54 07-Boris: 'Ah, I'm suffocating'DR11 -0.97 дБ -16.67 дБ 4:42 08-Act 4, Scene 2. Granovitaya Palata in the KremlinDR12 -2.84 дБ -19.35 дБ 3:32 09-Boris: 'Go away, child!'DR13 -2.85 дБ -21.02 дБ 5:53 10-Pimen: 'Once at eve'DR12 -2.90 дБ -19.91 дБ 5:36 11-Boris: 'Farewell, my son'DR11 -3.60 дБ -20.43 дБ 4:09 12-Boris: 'The bell! The passing bell!'--------------------------------------------------------------------------------
Количество треков: 12Реальные значения DR: DR12
Частота: 44100 гцКаналов: 2Бит на сэмпл: 16Битрейт: 307 кбит/сКодек: FLAC================================================================================

Скриншот спектра частот, etc

-



Показать сообщения:    

Текущее время: 06-Дек 22:53

Часовой пояс: UTC + 3


Вы не можете начинать темы
Вы не можете отвечать на сообщения
Вы не можете редактировать свои сообщения
Вы не можете удалять свои сообщения
Вы не можете голосовать в опросах
Вы не можете прикреплять файлы к сообщениям
Вы не можете скачивать файлы