(Classical) Henry Purcell. Dido and Aeneas [Catherine Bott, Emma Kirkby, John Mark Ainsley, Christopher Hogwood] / Генри Перселл. Дидона и Эней. [Кэтрин Ботт, Эмма Киркби, Джон Марк Эйнсли, Кристофер Хогвуд] - 1994, FLAC (image+.cue) lossless


 

[Цитировать]

Henry Purcell. Dido and Aeneas / Генри Перселл. Дидона и Эней
Жанр: Classical
Год издания диска: 1994
Аудиокодек: FLAC
Тип рипа: image+.cue
Битрейт аудио: lossless
Продолжительность: 52:32
Источник: собственный рип
Наличие сканов в содержимом раздачи: нет
Треклист:
1.Overture
ACT ONE
2.Shake The Cloud From Off Your Brow
3.Ah! Belinda, I Am Prest With Torment
4.When Monarchs Unite
5.Whence Could So Much Virtue Spring?
6.Fear No Danger Dance
7.See, Your Royal Guest Appears
8.Cupid Only Throws The Dart
9.If Not For Mine
10.Pursue Thy Conquest, Love
11.A Dance Gittars Chacony
12.To The Hills And The Vales
13.The Triumphing Dance
ACT TWO
14.Prelude For The Witches Wayward Sisters
15.Harm's Our Delight
16.The Queen Of Carthage, Whom We Hate
17.In Our Deep Vaulted Cell
18.Echo Dance Of Furies
19.Ritornelle Thanks To These Lonesome Vales
20.Gitter Ground A Dance
21.Oft She Visits Ritornelle
22.Behold, Upon My Bending Spear
23.Haste, Haste To Town
24.Stay, Prince
25.Ritornelle
ACT THREE
26.Prelude Come Away, Fellow Sailors
27.The Sailors' Dance
28.See The Flags And Streamers Curling
29.Destruction's Our Delight
30.The Witches' Dance
31.Your Counsel All Is Urg'd In Vain
32.Great Minds Against Themselves Conspire
33.Thy Hand Belinda When I Am Laid In Earth
34.With Drooping Wings
Исполнители:
Dido - Catherine Bott
Belinda - Emma Kirkby
Aeneas - John Mark Ainsley
Second woman - Julianne Baird
Sorceress - David Thomas
First witch - Elisabeth Friday
Second witch - Sara Stowe
First sailor - Daniel Lochman
Spirit - Michael Chance
The Academy of ancient music
Christopher Hogwood

Лог создания рипа

X Lossless Decoder version 20141129 (148.1)
XLD extraction logfile from 2015-01-20 15:21:35 +0300
Catherine Bott, Emma Kirkby, Etc.; Christopher Hogwood: Academy Of Ancient Music & Chorus / Purcell: Dido & Aeneas
Used drive : TSSTcorp CDDVDW SE-S084C (revision TS01)Media type : Pressed CD
Ripper mode : CDParanoia III 10.2Disable audio cache : OK for the drive with a cache less than 2750KiBMake use of C2 pointers : NORead offset correction : 6Max retry count : 20Gap status : Analyzed, Appended
TOC of the extracted CD Track | Start | Length | Start sector | End sector --------------------------------------------------------- 1 | 00:00:67 | 02:04:13 | 67 | 9379 2 | 02:05:05 | 01:02:30 | 9380 | 14059 3 | 03:07:35 | 04:13:22 | 14060 | 33056 4 | 07:20:57 | 00:17:10 | 33057 | 34341 5 | 07:37:67 | 01:31:25 | 34342 | 41191 6 | 09:09:17 | 02:07:45 | 41192 | 50761 7 | 11:16:62 | 00:46:40 | 50762 | 54251 8 | 12:03:27 | 00:34:60 | 54252 | 56861 9 | 12:38:12 | 00:22:10 | 56862 | 58521 10 | 13:00:22 | 00:50:58 | 58522 | 62329 11 | 13:51:05 | 00:20:17 | 62330 | 63846 12 | 14:11:22 | 01:10:20 | 63847 | 69116 13 | 15:21:42 | 01:12:13 | 69117 | 74529 14 | 16:33:55 | 01:26:72 | 74530 | 81051 15 | 18:00:52 | 00:13:73 | 81052 | 82099 16 | 18:14:50 | 02:41:27 | 82100 | 94201 17 | 20:56:02 | 01:11:53 | 94202 | 99579 18 | 22:07:55 | 01:04:40 | 99580 | 104419 19 | 23:12:20 | 03:12:65 | 104420 | 118884 20 | 26:25:10 | 00:29:02 | 118885 | 121061 21 | 26:54:12 | 01:35:65 | 121062 | 128251 22 | 28:30:02 | 00:31:48 | 128252 | 130624 23 | 29:01:50 | 00:44:62 | 130625 | 133986 24 | 29:46:37 | 02:45:25 | 133987 | 146386 25 | 32:31:62 | 00:54:08 | 146387 | 150444 26 | 33:25:70 | 01:36:05 | 150445 | 157649 27 | 35:02:00 | 00:48:02 | 157650 | 161251 28 | 35:50:02 | 01:26:35 | 161252 | 167736 29 | 37:16:37 | 00:34:30 | 167737 | 170316 30 | 37:50:67 | 01:35:50 | 170317 | 177491 31 | 39:26:42 | 03:41:33 | 177492 | 194099 32 | 43:08:00 | 00:58:37 | 194100 | 198486 33 | 44:06:37 | 04:06:18 | 198487 | 216954 34 | 48:12:55 | 04:20:67 | 216955 | 236521
List of alternate offset correction values # | Absolute | Relative | Confidence ------------------------------------------ 1 | -641 | -647 | 152 2 | 687 | 681 | 33 3 | 30 | 24 | 4 4 | -743 | -749 | 2
AccurateRip Summary (DiscID: 00385d05-053eb660-010c5122) Track 01 : OK (v1+v2, confidence 152/195, with different offset) Track 02 : OK (v1+v2, confidence 148/191, with different offset) Track 03 : OK (v1+v2, confidence 150/193, with different offset) Track 04 : OK (v1+v2, confidence 151/194, with different offset) Track 05 : OK (v1+v2, confidence 151/194, with different offset) Track 06 : OK (v1+v2, confidence 150/193, with different offset) Track 07 : OK (v1+v2, confidence 151/194, with different offset) Track 08 : OK (v1+v2, confidence 150/193, with different offset) Track 09 : OK (v1+v2, confidence 151/194, with different offset) Track 10 : OK (v1+v2, confidence 151/194, with different offset) Track 11 : OK (v1+v2, confidence 149/192, with different offset) Track 12 : OK (v1+v2, confidence 149/192, with different offset) Track 13 : OK (v1+v2, confidence 150/193, with different offset) Track 14 : OK (v1+v2, confidence 150/193, with different offset) Track 15 : OK (v1+v2, confidence 151/194, with different offset) Track 16 : OK (v1+v2, confidence 151/194, with different offset) Track 17 : OK (v1+v2, confidence 150/192, with different offset) Track 18 : OK (v1+v2, confidence 150/191, with different offset) Track 19 : OK (v1+v2, confidence 149/192, with different offset) Track 20 : OK (v1+v2, confidence 150/193, with different offset) Track 21 : OK (v1+v2, confidence 149/192, with different offset) Track 22 : OK (v1+v2, confidence 150/193, with different offset) Track 23 : OK (v1+v2, confidence 150/193, with different offset) Track 24 : OK (v1+v2, confidence 148/191, with different offset) Track 25 : OK (v1+v2, confidence 150/192, with different offset) Track 26 : OK (v1+v2, confidence 150/193, with different offset) Track 27 : OK (v1+v2, confidence 150/193, with different offset) Track 28 : OK (v1+v2, confidence 150/193, with different offset) Track 29 : OK (v1+v2, confidence 150/193, with different offset) Track 30 : OK (v1+v2, confidence 150/193, with different offset) Track 31 : OK (v1+v2, confidence 150/192, with different offset) Track 32 : OK (v1+v2, confidence 149/192, with different offset) Track 33 : OK (v1+v2, confidence 150/190, with different offset) Track 34 : OK (v1+v2, confidence 150/193, with different offset) ->All tracks accurately ripped.
All Tracks Filename : /Users/alcofribasnasier/Music/Export/Purcell: Dido & Aeneas.flac CRC32 hash (test run) : 2B0CD7DB CRC32 hash : 2B0CD7DB CRC32 hash (skip zero) : F98CA8CF Statistics Read error : 0 Skipped (treated as error) : 0 Edge jitter error (maybe fixed) : 0 Atom jitter error (maybe fixed) : 0 Drift error (maybe fixed) : 0 Dropped bytes error (maybe fixed) : 0 Duplicated bytes error (maybe fixed) : 0 Inconsistency in error sectors : 0
Track 01 Pre-gap length : 00:02:67
CRC32 hash (test run) : D9CF7A87 CRC32 hash : D9CF7A87 CRC32 hash (skip zero) : 553640FA AccurateRip v1 signature : F0F80804 (3C93D41E w/correction) AccurateRip v2 signature : D29A35B5 (829FB5CF w/correction) ->Accurately ripped with different offset (v1+v2, confidence 25+127/195, offset -647) Statistics Read error : 0 Skipped (treated as error) : 0 Edge jitter error (maybe fixed) : 0 Atom jitter error (maybe fixed) : 0 Drift error (maybe fixed) : 0 Dropped bytes error (maybe fixed) : 0 Duplicated bytes error (maybe fixed) : 0 Inconsistency in error sectors : 0
Track 02
CRC32 hash (test run) : 6D63AC94 CRC32 hash : 6D63AC94 CRC32 hash (skip zero) : 29A3D265 AccurateRip v1 signature : B3CB28E1 (31E846BA w/correction) AccurateRip v2 signature : F61A0446 (A027D57A w/correction) ->Accurately ripped with different offset (v1+v2, confidence 23+125/191, offset -647) Statistics Read error : 0 Skipped (treated as error) : 0 Edge jitter error (maybe fixed) : 0 Atom jitter error (maybe fixed) : 0 Drift error (maybe fixed) : 0 Dropped bytes error (maybe fixed) : 0 Duplicated bytes error (maybe fixed) : 0 Inconsistency in error sectors : 0
Track 03
CRC32 hash (test run) : 82928637 CRC32 hash : 82928637 CRC32 hash (skip zero) : 47C52E71 AccurateRip v1 signature : 5C21417A (3AF2B9AA w/correction) AccurateRip v2 signature : B7122D8F (D00C4D13 w/correction) ->Accurately ripped with different offset (v1+v2, confidence 24+126/193, offset -647) Statistics Read error : 0 Skipped (treated as error) : 0 Edge jitter error (maybe fixed) : 0 Atom jitter error (maybe fixed) : 0 Drift error (maybe fixed) : 0 Dropped bytes error (maybe fixed) : 0 Duplicated bytes error (maybe fixed) : 0 Inconsistency in error sectors : 0
Track 04
CRC32 hash (test run) : 44FEEA3E CRC32 hash : 44FEEA3E CRC32 hash (skip zero) : 05654906 AccurateRip v1 signature : B32E1693 (C4F26070 w/correction) AccurateRip v2 signature : CF1859ED (E011D95E w/correction) ->Accurately ripped with different offset (v1+v2, confidence 24+127/194, offset -647) Statistics Read error : 0 Skipped (treated as error) : 0 Edge jitter error (maybe fixed) : 0 Atom jitter error (maybe fixed) : 0 Drift error (maybe fixed) : 0 Dropped bytes error (maybe fixed) : 0 Duplicated bytes error (maybe fixed) : 0 Inconsistency in error sectors : 0
Track 05
CRC32 hash (test run) : 0018671C CRC32 hash : 0018671C CRC32 hash (skip zero) : 1B5A7958 AccurateRip v1 signature : 848AEF99 (C00A0F12 w/correction) AccurateRip v2 signature : 848FB4F1 (DB666CFF w/correction) ->Accurately ripped with different offset (v1+v2, confidence 24+127/194, offset -647) Statistics Read error : 0 Skipped (treated as error) : 0 Edge jitter error (maybe fixed) : 0 Atom jitter error (maybe fixed) : 0 Drift error (maybe fixed) : 0 Dropped bytes error (maybe fixed) : 0 Duplicated bytes error (maybe fixed) : 0 Inconsistency in error sectors : 0
Track 06
CRC32 hash (test run) : 9AAD646A CRC32 hash : 9AAD646A CRC32 hash (skip zero) : EDED7ACD AccurateRip v1 signature : 62DB362F (67034F27 w/correction) AccurateRip v2 signature : CA3A2DEE (3775173B w/correction) ->Accurately ripped with different offset (v1+v2, confidence 24+126/193, offset -647) Statistics Read error : 0 Skipped (treated as error) : 0 Edge jitter error (maybe fixed) : 0 Atom jitter error (maybe fixed) : 0 Drift error (maybe fixed) : 0 Dropped bytes error (maybe fixed) : 0 Duplicated bytes error (maybe fixed) : 0 Inconsistency in error sectors : 0
Track 07
CRC32 hash (test run) : 501A3EDD CRC32 hash : 501A3EDD CRC32 hash (skip zero) : FE6535D4 AccurateRip v1 signature : F8957B73 (B10142DC w/correction) AccurateRip v2 signature : A9680463 (8003061D w/correction) ->Accurately ripped with different offset (v1+v2, confidence 24+127/194, offset -647) Statistics Read error : 0 Skipped (treated as error) : 0 Edge jitter error (maybe fixed) : 0 Atom jitter error (maybe fixed) : 0 Drift error (maybe fixed) : 0 Dropped bytes error (maybe fixed) : 0 Duplicated bytes error (maybe fixed) : 0 Inconsistency in error sectors : 0
Track 08
CRC32 hash (test run) : 8D0927F6 CRC32 hash : 8D0927F6 CRC32 hash (skip zero) : F5A7A4F9 AccurateRip v1 signature : CDB23F4F (D1238552 w/correction) AccurateRip v2 signature : A4A5D4AF (AC067742 w/correction) ->Accurately ripped with different offset (v1+v2, confidence 24+126/193, offset -647) Statistics Read error : 0 Skipped (treated as error) : 0 Edge jitter error (maybe fixed) : 0 Atom jitter error (maybe fixed) : 0 Drift error (maybe fixed) : 0 Dropped bytes error (maybe fixed) : 0 Duplicated bytes error (maybe fixed) : 0 Inconsistency in error sectors : 0
Track 09
CRC32 hash (test run) : 2A02590C CRC32 hash : 2A02590C CRC32 hash (skip zero) : DB72858C AccurateRip v1 signature : 5FD769CB (817314C4 w/correction) AccurateRip v2 signature : E6FBF5FC (06EF43CA w/correction) ->Accurately ripped with different offset (v1+v2, confidence 24+127/194, offset -647) Statistics Read error : 0 Skipped (treated as error) : 0 Edge jitter error (maybe fixed) : 0 Atom jitter error (maybe fixed) : 0 Drift error (maybe fixed) : 0 Dropped bytes error (maybe fixed) : 0 Duplicated bytes error (maybe fixed) : 0 Inconsistency in error sectors : 0
Track 10
CRC32 hash (test run) : B283F691 CRC32 hash : B283F691 CRC32 hash (skip zero) : 5067BB91 AccurateRip v1 signature : BD90CAAF (0A5C7DEE w/correction) AccurateRip v2 signature : 41AE0EA7 (A94B145A w/correction) ->Accurately ripped with different offset (v1+v2, confidence 24+127/194, offset -647) Statistics Read error : 0 Skipped (treated as error) : 0 Edge jitter error (maybe fixed) : 0 Atom jitter error (maybe fixed) : 0 Drift error (maybe fixed) : 0 Dropped bytes error (maybe fixed) : 0 Duplicated bytes error (maybe fixed) : 0 Inconsistency in error sectors : 0
Track 11
CRC32 hash (test run) : 23518FC2 CRC32 hash : 23518FC2 CRC32 hash (skip zero) : 5FD596A2 AccurateRip v1 signature : D98A3F6E (7F10B292 w/correction) AccurateRip v2 signature : 6BCAC499 (16221D1A w/correction) ->Accurately ripped with different offset (v1+v2, confidence 23+126/192, offset -647) Statistics Read error : 0 Skipped (treated as error) : 0 Edge jitter error (maybe fixed) : 0 Atom jitter error (maybe fixed) : 0 Drift error (maybe fixed) : 0 Dropped bytes error (maybe fixed) : 0 Duplicated bytes error (maybe fixed) : 0 Inconsistency in error sectors : 0
Track 12
CRC32 hash (test run) : F16FE4D5 CRC32 hash : F16FE4D5 CRC32 hash (skip zero) : 1165125F AccurateRip v1 signature : A243B2DC (A541739D w/correction) AccurateRip v2 signature : 05091D08 (0F6EFC37 w/correction) ->Accurately ripped with different offset (v1+v2, confidence 24+125/192, offset -647) Statistics Read error : 0 Skipped (treated as error) : 0 Edge jitter error (maybe fixed) : 0 Atom jitter error (maybe fixed) : 0 Drift error (maybe fixed) : 0 Dropped bytes error (maybe fixed) : 0 Duplicated bytes error (maybe fixed) : 0 Inconsistency in error sectors : 0
Track 13
CRC32 hash (test run) : 0EAE6791 CRC32 hash : 0EAE6791 CRC32 hash (skip zero) : 04DBC3EE AccurateRip v1 signature : F57B2936 (40F306BE w/correction) AccurateRip v2 signature : 2678D1BF (83EF42B1 w/correction) ->Accurately ripped with different offset (v1+v2, confidence 24+126/193, offset -647) Statistics Read error : 0 Skipped (treated as error) : 0 Edge jitter error (maybe fixed) : 0 Atom jitter error (maybe fixed) : 0 Drift error (maybe fixed) : 0 Dropped bytes error (maybe fixed) : 0 Duplicated bytes error (maybe fixed) : 0 Inconsistency in error sectors : 0
Track 14
CRC32 hash (test run) : 2BF2BF44 CRC32 hash : 2BF2BF44 CRC32 hash (skip zero) : A6F1D81A AccurateRip v1 signature : C6576D82 (09D9FCCB w/correction) AccurateRip v2 signature : 4638310B (CC3E77F1 w/correction) ->Accurately ripped with different offset (v1+v2, confidence 23+127/193, offset -647) Statistics Read error : 0 Skipped (treated as error) : 0 Edge jitter error (maybe fixed) : 0 Atom jitter error (maybe fixed) : 0 Drift error (maybe fixed) : 0 Dropped bytes error (maybe fixed) : 0 Duplicated bytes error (maybe fixed) : 0 Inconsistency in error sectors : 0
Track 15
CRC32 hash (test run) : 2F0AA748 CRC32 hash : 2F0AA748 CRC32 hash (skip zero) : 073F31BE AccurateRip v1 signature : 9FE8F8D3 (5002A37C w/correction) AccurateRip v2 signature : 6B56D838 (19F170F7 w/correction) ->Accurately ripped with different offset (v1+v2, confidence 24+127/194, offset -647) Statistics Read error : 0 Skipped (treated as error) : 0 Edge jitter error (maybe fixed) : 0 Atom jitter error (maybe fixed) : 0 Drift error (maybe fixed) : 0 Dropped bytes error (maybe fixed) : 0 Duplicated bytes error (maybe fixed) : 0 Inconsistency in error sectors : 0
Track 16
CRC32 hash (test run) : 3E6A4E5F CRC32 hash : 3E6A4E5F CRC32 hash (skip zero) : 9907A477 AccurateRip v1 signature : 182F1410 (0AC5D8CA w/correction) AccurateRip v2 signature : A913C7DC (D8D798AC w/correction) ->Accurately ripped with different offset (v1+v2, confidence 24+127/194, offset -647) Statistics Read error : 0 Skipped (treated as error) : 0 Edge jitter error (maybe fixed) : 0 Atom jitter error (maybe fixed) : 0 Drift error (maybe fixed) : 0 Dropped bytes error (maybe fixed) : 0 Duplicated bytes error (maybe fixed) : 0 Inconsistency in error sectors : 0
Track 17
CRC32 hash (test run) : B8E500EA CRC32 hash : B8E500EA CRC32 hash (skip zero) : 973136D2 AccurateRip v1 signature : CD8B807D (2ABF1EE6 w/correction) AccurateRip v2 signature : 8342EF88 (C4C14124 w/correction) ->Accurately ripped with different offset (v1+v2, confidence 24+126/192, offset -647) Statistics Read error : 0 Skipped (treated as error) : 0 Edge jitter error (maybe fixed) : 0 Atom jitter error (maybe fixed) : 0 Drift error (maybe fixed) : 0 Dropped bytes error (maybe fixed) : 0 Duplicated bytes error (maybe fixed) : 0 Inconsistency in error sectors : 0
Track 18
CRC32 hash (test run) : 3A8E2B5E CRC32 hash : 3A8E2B5E CRC32 hash (skip zero) : 18C8A8D5 AccurateRip v1 signature : 751AE6B2 (54B6D67F w/correction) AccurateRip v2 signature : 00DFA7E9 (CC1D2622 w/correction) ->Accurately ripped with different offset (v1+v2, confidence 24+126/191, offset -647) Statistics Read error : 0 Skipped (treated as error) : 0 Edge jitter error (maybe fixed) : 0 Atom jitter error (maybe fixed) : 0 Drift error (maybe fixed) : 0 Dropped bytes error (maybe fixed) : 0 Duplicated bytes error (maybe fixed) : 0 Inconsistency in error sectors : 0
Track 19 Pre-gap length : 00:01:00
CRC32 hash (test run) : 0D6ED8E5 CRC32 hash : 0D6ED8E5 CRC32 hash (skip zero) : 35D5446D AccurateRip v1 signature : F33AC9FC (2D993B5B w/correction) AccurateRip v2 signature : 29EE10A5 (B829F5D0 w/correction) ->Accurately ripped with different offset (v1+v2, confidence 24+125/192, offset -647) Statistics Read error : 0 Skipped (treated as error) : 0 Edge jitter error (maybe fixed) : 0 Atom jitter error (maybe fixed) : 0 Drift error (maybe fixed) : 0 Dropped bytes error (maybe fixed) : 0 Duplicated bytes error (maybe fixed) : 0 Inconsistency in error sectors : 0
Track 20
CRC32 hash (test run) : 8CA22EA3 CRC32 hash : 8CA22EA3 CRC32 hash (skip zero) : 7B486A19 AccurateRip v1 signature : 6CA892C3 (41C87E39 w/correction) AccurateRip v2 signature : 4EFA2D51 (245AF393 w/correction) ->Accurately ripped with different offset (v1+v2, confidence 24+126/193, offset -647) Statistics Read error : 0 Skipped (treated as error) : 0 Edge jitter error (maybe fixed) : 0 Atom jitter error (maybe fixed) : 0 Drift error (maybe fixed) : 0 Dropped bytes error (maybe fixed) : 0 Duplicated bytes error (maybe fixed) : 0 Inconsistency in error sectors : 0
Track 21
CRC32 hash (test run) : AC9E7A77 CRC32 hash : AC9E7A77 CRC32 hash (skip zero) : 3F8E40E3 AccurateRip v1 signature : E10E7F95 (71071BE5 w/correction) AccurateRip v2 signature : FEF6F153 (95DE1C50 w/correction) ->Accurately ripped with different offset (v1+v2, confidence 24+125/192, offset -647) Statistics Read error : 0 Skipped (treated as error) : 0 Edge jitter error (maybe fixed) : 0 Atom jitter error (maybe fixed) : 0 Drift error (maybe fixed) : 0 Dropped bytes error (maybe fixed) : 0 Duplicated bytes error (maybe fixed) : 0 Inconsistency in error sectors : 0
Track 22
CRC32 hash (test run) : 2EE6C9AE CRC32 hash : 2EE6C9AE CRC32 hash (skip zero) : A2B3ECF0 AccurateRip v1 signature : 6EEF7E3B (A4C0F9AE w/correction) AccurateRip v2 signature : 01D8494E (2B918831 w/correction) ->Accurately ripped with different offset (v1+v2, confidence 24+126/193, offset -647) Statistics Read error : 0 Skipped (treated as error) : 0 Edge jitter error (maybe fixed) : 0 Atom jitter error (maybe fixed) : 0 Drift error (maybe fixed) : 0 Dropped bytes error (maybe fixed) : 0 Duplicated bytes error (maybe fixed) : 0 Inconsistency in error sectors : 0
Track 23
CRC32 hash (test run) : F237D0A8 CRC32 hash : F237D0A8 CRC32 hash (skip zero) : D4B12F2A AccurateRip v1 signature : 23DA6092 (344E34C8 w/correction) AccurateRip v2 signature : 80086AC8 (8AF3DBDB w/correction) ->Accurately ripped with different offset (v1+v2, confidence 24+126/193, offset -647) Statistics Read error : 0 Skipped (treated as error) : 0 Edge jitter error (maybe fixed) : 0 Atom jitter error (maybe fixed) : 0 Drift error (maybe fixed) : 0 Dropped bytes error (maybe fixed) : 0 Duplicated bytes error (maybe fixed) : 0 Inconsistency in error sectors : 0
Track 24
CRC32 hash (test run) : 0C2D020F CRC32 hash : 0C2D020F CRC32 hash (skip zero) : 68729C4A AccurateRip v1 signature : E3A291A8 (AA69B5F9 w/correction) AccurateRip v2 signature : 1E5CE7D1 (6B2005FF w/correction) ->Accurately ripped with different offset (v1+v2, confidence 23+125/191, offset -647) Statistics Read error : 0 Skipped (treated as error) : 0 Edge jitter error (maybe fixed) : 0 Atom jitter error (maybe fixed) : 0 Drift error (maybe fixed) : 0 Dropped bytes error (maybe fixed) : 0 Duplicated bytes error (maybe fixed) : 0 Inconsistency in error sectors : 0
Track 25
CRC32 hash (test run) : 80D12E2B CRC32 hash : 80D12E2B CRC32 hash (skip zero) : 9B76D5BD AccurateRip v1 signature : 16C3A25D (9CACD981 w/correction) AccurateRip v2 signature : 1084D11A (BC96D0DD w/correction) ->Accurately ripped with different offset (v1+v2, confidence 24+126/192, offset -647) Statistics Read error : 0 Skipped (treated as error) : 0 Edge jitter error (maybe fixed) : 0 Atom jitter error (maybe fixed) : 0 Drift error (maybe fixed) : 0 Dropped bytes error (maybe fixed) : 0 Duplicated bytes error (maybe fixed) : 0 Inconsistency in error sectors : 0
Track 26 Pre-gap length : 00:05:13
CRC32 hash (test run) : A463559E CRC32 hash : A463559E CRC32 hash (skip zero) : F66FDE4A AccurateRip v1 signature : 62E2F3D0 (EC97DC8D w/correction) AccurateRip v2 signature : 3E803923 (D5C82C4C w/correction) ->Accurately ripped with different offset (v1+v2, confidence 24+126/193, offset -647) Statistics Read error : 0 Skipped (treated as error) : 0 Edge jitter error (maybe fixed) : 0 Atom jitter error (maybe fixed) : 0 Drift error (maybe fixed) : 0 Dropped bytes error (maybe fixed) : 0 Duplicated bytes error (maybe fixed) : 0 Inconsistency in error sectors : 0
Track 27
CRC32 hash (test run) : 973D9490 CRC32 hash : 973D9490 CRC32 hash (skip zero) : 1691B574 AccurateRip v1 signature : 80462DA6 (3F74D0A4 w/correction) AccurateRip v2 signature : A233B4DF (7994A73A w/correction) ->Accurately ripped with different offset (v1+v2, confidence 24+126/193, offset -647) Statistics Read error : 0 Skipped (treated as error) : 0 Edge jitter error (maybe fixed) : 0 Atom jitter error (maybe fixed) : 0 Drift error (maybe fixed) : 0 Dropped bytes error (maybe fixed) : 0 Duplicated bytes error (maybe fixed) : 0 Inconsistency in error sectors : 0
Track 28
CRC32 hash (test run) : DEFCBC64 CRC32 hash : DEFCBC64 CRC32 hash (skip zero) : C4D69F7E AccurateRip v1 signature : FBD80031 (4F5539A5 w/correction) AccurateRip v2 signature : E19356F0 (5687B252 w/correction) ->Accurately ripped with different offset (v1+v2, confidence 24+126/193, offset -647) Statistics Read error : 0 Skipped (treated as error) : 0 Edge jitter error (maybe fixed) : 0 Atom jitter error (maybe fixed) : 0 Drift error (maybe fixed) : 0 Dropped bytes error (maybe fixed) : 0 Duplicated bytes error (maybe fixed) : 0 Inconsistency in error sectors : 0
Track 29
CRC32 hash (test run) : EC086DEE CRC32 hash : EC086DEE CRC32 hash (skip zero) : ACB7CBA4 AccurateRip v1 signature : F504E500 (9FEDBCC7 w/correction) AccurateRip v2 signature : C39ABE0B (61D537BB w/correction) ->Accurately ripped with different offset (v1+v2, confidence 24+126/193, offset -647) Statistics Read error : 0 Skipped (treated as error) : 0 Edge jitter error (maybe fixed) : 0 Atom jitter error (maybe fixed) : 0 Drift error (maybe fixed) : 0 Dropped bytes error (maybe fixed) : 0 Duplicated bytes error (maybe fixed) : 0 Inconsistency in error sectors : 0
Track 30
CRC32 hash (test run) : F4089C14 CRC32 hash : F4089C14 CRC32 hash (skip zero) : 530C1BEF AccurateRip v1 signature : 40EA9815 (810C4878 w/correction) AccurateRip v2 signature : A7638055 (FF187CE9 w/correction) ->Accurately ripped with different offset (v1+v2, confidence 24+126/193, offset -647) Statistics Read error : 0 Skipped (treated as error) : 0 Edge jitter error (maybe fixed) : 0 Atom jitter error (maybe fixed) : 0 Drift error (maybe fixed) : 0 Dropped bytes error (maybe fixed) : 0 Duplicated bytes error (maybe fixed) : 0 Inconsistency in error sectors : 0
Track 31
CRC32 hash (test run) : 8FE73D26 CRC32 hash : 8FE73D26 CRC32 hash (skip zero) : A5E4627C AccurateRip v1 signature : C286B9FC (26B717FF w/correction) AccurateRip v2 signature : 2DA5BC9B (539278B3 w/correction) ->Accurately ripped with different offset (v1+v2, confidence 24+126/192, offset -647) Statistics Read error : 0 Skipped (treated as error) : 0 Edge jitter error (maybe fixed) : 0 Atom jitter error (maybe fixed) : 0 Drift error (maybe fixed) : 0 Dropped bytes error (maybe fixed) : 0 Duplicated bytes error (maybe fixed) : 0 Inconsistency in error sectors : 0
Track 32
CRC32 hash (test run) : E01FBB0D CRC32 hash : E01FBB0D CRC32 hash (skip zero) : 35F8A650 AccurateRip v1 signature : 6714E720 (5418CB06 w/correction) AccurateRip v2 signature : 729BBA1C (6BAB18E6 w/correction) ->Accurately ripped with different offset (v1+v2, confidence 24+125/192, offset -647) Statistics Read error : 0 Skipped (treated as error) : 0 Edge jitter error (maybe fixed) : 0 Atom jitter error (maybe fixed) : 0 Drift error (maybe fixed) : 0 Dropped bytes error (maybe fixed) : 0 Duplicated bytes error (maybe fixed) : 0 Inconsistency in error sectors : 0
Track 33
CRC32 hash (test run) : DE66E59B CRC32 hash : DE66E59B CRC32 hash (skip zero) : 96A37C24 AccurateRip v1 signature : 3CF43A85 (264093B5 w/correction) AccurateRip v2 signature : 9057B6FE (60B6DEE8 w/correction) ->Accurately ripped with different offset (v1+v2, confidence 24+126/190, offset -647) Statistics Read error : 0 Skipped (treated as error) : 0 Edge jitter error (maybe fixed) : 0 Atom jitter error (maybe fixed) : 0 Drift error (maybe fixed) : 0 Dropped bytes error (maybe fixed) : 0 Duplicated bytes error (maybe fixed) : 0 Inconsistency in error sectors : 0
Track 34
CRC32 hash (test run) : CEEE5EC1 CRC32 hash : CEEE5EC1 CRC32 hash (skip zero) : A9255A50 AccurateRip v1 signature : 97655027 (32E78D65 w/correction) AccurateRip v2 signature : 9D651604 (FE8BD454 w/correction) ->Accurately ripped with different offset (v1+v2, confidence 24+126/193, offset -647) Statistics Read error : 0 Skipped (treated as error) : 0 Edge jitter error (maybe fixed) : 0 Atom jitter error (maybe fixed) : 0 Drift error (maybe fixed) : 0 Dropped bytes error (maybe fixed) : 0 Duplicated bytes error (maybe fixed) : 0 Inconsistency in error sectors : 0
No errors occurred
End of status report



Показать сообщения:    

Текущее время: 10-Дек 19:39

Часовой пояс: UTC + 3


Вы не можете начинать темы
Вы не можете отвечать на сообщения
Вы не можете редактировать свои сообщения
Вы не можете удалять свои сообщения
Вы не можете голосовать в опросах
Вы не можете прикреплять файлы к сообщениям
Вы не можете скачивать файлы