(Opera) Joan Sutherland - The Art of Prima Donna (Arne, Handel, Bellini, Gounod, Verdi, Meyerbeer, Delibes, Rossini) - 2000, APE (image+.cue) lossless


 

[Цитировать]

(Opera) Joan Sutherland - The Art of Prima Donna (Arne, Handel, Bellini, Gounod, Verdi, Meyerbeer, Delibes, Rossini) - 2000, APE (image+.cue) lossless
Жанр: Opera
Страна-производитель диска: Germany
Год издания диска: 2000
Издатель (лейбл): Decca
Номер по каталогу: 467 115-2
Дата записи: 1960
Аудиокодек: APE
Тип рипа: image+.cue
Битрейт аудио: lossless
Продолжительность: 52:38 + 55:54
Источник: собственный рип
Наличие сканов в содержимом раздачи: да
Исполнители:
Joan Sutherland
Francesco Molinari-Pradelli (conductor)
Orchestra and Chorus of the Royal Opera House, Coven Garden
вместо: http://rutracker.org/forum/viewtopic.php?t=2445884

Треклист

CD1

1. The soldier tir'd of war's alarms (Arne: Artaxerxes)
2. Let the bright seraphim (Handel: Samson)
3. Sediziose voci ... Casta Diva ... Ah! bello a me ritorna (Bellini: Norma)
4. Son vergin vezzosa (Bellini: I Puritani)
5. Bel raggio lusinghier (Rossini: Semiramide)
6. O rendetemi la speme...Qui la voce...Vien, diletto (Bellini: I Puritani)
7. Care compagne, e voi, tenere amici (Bellini: La Sonnambula)
8. O Dieu! que de bijoux... Ah! je ris de me voir (Gounod: Faust)

CD2

1. Ah, je veux vivre (Gounod: Romio et Juliette)
2. Mia madre aveva una povera ancella... piangea cantando (Verdi: Otello)
3. Martern aller Arten (Mozart: Die Entfuhrung aus dem Serail)
4. E strano! ... Ah, fors'e lui ... Sempre libera (Verdi: La traviata)
5. A vos jeux, mes amis, permettez-moi (Thomas: Hamlet)
6. Ou va la jeune Indoue (Delibes: Lakme)
7. O beau pays de la Touraine (Meyerbeer: Les Huguenots)
8. Gualtier Malde ... Caro nome (Verdi: Rigoletto)

Лог создания рипа

CD1

Exact Audio Copy V1.0 beta 3 from 29. August 2011
EAC extraction logfile from 5. December 2014, 11:22
Joan Sutherland - Francesco Molinari-Pradelli - Orchestra and Chorus of the Royal Opera House, Covent Garden / The Art of the Prima Donna - CD1
Used drive : TS8XDVDRTranscend Adapter: 2 ID: 1
Read mode : Secure
Utilize accurate stream : Yes
Defeat audio cache : Yes
Make use of C2 pointers : No
Read offset correction : 6
Overread into Lead-In and Lead-Out : No
Fill up missing offset samples with silence : Yes
Delete leading and trailing silent blocks : No
Null samples used in CRC calculations : Yes
Used interface : Native Win32 interface for Win NT & 2000
Used output format : Monkey's Audio Lossless Encoder
Selected bitrate : Normal Lossless Compression
Quality : High
Add ID3 tag : Yes
Command line compressor : C:\Program Files (x86)\Monkey's Audio\MAC.exe
Additional command line options : %source% %dest% -c3000
TOC of the extracted CD
Track | Start | Length | Start sector | End sector
---------------------------------------------------------
1 | 0:00.00 | 4:07.00 | 0 | 18524
2 | 4:07.00 | 5:57.00 | 18525 | 45299
3 | 10:04.00 | 12:47.00 | 45300 | 102824
4 | 22:51.00 | 3:06.00 | 102825 | 116774
5 | 25:57.00 | 6:41.00 | 116775 | 146849
6 | 32:38.00 | 7:02.00 | 146850 | 178499
7 | 39:40.00 | 8:25.00 | 178500 | 216374
8 | 48:05.00 | 4:41.00 | 216375 | 237449
Range status and errors
Selected range
Filename C:\Users\Alex\Music\Joan Sutherland - The Art of the Prima Donna (1960)\CD1.wav
Peak level 99.9 %
Extraction speed 1.6 X
Range quality 100.0 %
Test CRC 25CFEC16
Copy CRC 25CFEC16
Copy OK
No errors occurred
AccurateRip summary
Track 1 accurately ripped (confidence 16) [AF792616] (AR v2)
Track 2 accurately ripped (confidence 16) [56D8E652] (AR v2)
Track 3 accurately ripped (confidence 16) [1DCD4783] (AR v2)
Track 4 accurately ripped (confidence 16) [79820CA2] (AR v2)
Track 5 accurately ripped (confidence 16) [BB29C691] (AR v2)
Track 6 accurately ripped (confidence 16) [948B2BAA] (AR v2)
Track 7 accurately ripped (confidence 16) [991E6BFD] (AR v2)
Track 8 accurately ripped (confidence 16) [23410C05] (AR v2)
All tracks accurately ripped
End of status report
==== Log checksum E0B197EE268158F9DC923995E7D4F70333D81CC817877BCCDF4C1C07CA28AF88 ====

CD2

Exact Audio Copy V1.0 beta 3 from 29. August 2011
EAC extraction logfile from 5. December 2014, 13:19
Joan Sutherland - Francesco Molinari-Pradelli - Orchestra and Chorus of the Royal Opera House, Covent Garden / The Art of the Prima Donna - CD2
Used drive : TS8XDVDRTranscend Adapter: 2 ID: 1
Read mode : Secure
Utilize accurate stream : Yes
Defeat audio cache : Yes
Make use of C2 pointers : No
Read offset correction : 6
Overread into Lead-In and Lead-Out : No
Fill up missing offset samples with silence : Yes
Delete leading and trailing silent blocks : No
Null samples used in CRC calculations : Yes
Used interface : Native Win32 interface for Win NT & 2000
Used output format : Monkey's Audio Lossless Encoder
Selected bitrate : Normal Lossless Compression
Quality : High
Add ID3 tag : Yes
Command line compressor : C:\Program Files (x86)\Monkey's Audio\MAC.exe
Additional command line options : %source% %dest% -c3000
TOC of the extracted CD
Track | Start | Length | Start sector | End sector
---------------------------------------------------------
1 | 0:00.00 | 3:32.00 | 0 | 15899
2 | 3:32.00 | 8:05.00 | 15900 | 52274
3 | 11:37.00 | 8:43.00 | 52275 | 91499
4 | 20:20.00 | 6:45.00 | 91500 | 121874
5 | 27:05.00 | 8:51.00 | 121875 | 161699
6 | 35:56.00 | 7:52.00 | 161700 | 197099
7 | 43:48.00 | 5:45.00 | 197100 | 222974
8 | 49:33.00 | 6:18.60 | 222975 | 251384
Range status and errors
Selected range
Filename C:\Users\Alex\Music\Joan Sutherland - The Art of the Prima Donna (1960)\CD2.wav
Peak level 99.6 %
Extraction speed 1.7 X
Range quality 100.0 %
Test CRC F7A10F8D
Copy CRC F7A10F8D
Copy OK
No errors occurred
AccurateRip summary
Track 1 accurately ripped (confidence 20) [1EEE3A37] (AR v2)
Track 2 accurately ripped (confidence 20) [E481058C] (AR v2)
Track 3 accurately ripped (confidence 20) [E6EDDE87] (AR v2)
Track 4 accurately ripped (confidence 20) [15C01059] (AR v2)
Track 5 accurately ripped (confidence 20) [295EACA5] (AR v2)
Track 6 accurately ripped (confidence 20) [4B66A595] (AR v2)
Track 7 accurately ripped (confidence 20) [24800731] (AR v2)
Track 8 accurately ripped (confidence 20) [D958EB88] (AR v2)
All tracks accurately ripped
End of status report
==== Log checksum E8A4B5F7B319F0F69A2119F126095CF554192D3B48C310A16A233489C84198B6 ====

Содержание индексной карты (.CUE)CD1

REM GENRE OperaREM DATE 1960REM DISCID 770C5E08REM COMMENT "ExactAudioCopy v1.0b3"PERFORMER "Joan Sutherland - Francesco Molinari-Pradelli - Orchestra and Chorus of the Royal Opera House, Covent Garden"TITLE "The Art of the Prima Donna - CD1"FILE "CD1.ape" WAVE TRACK 01 AUDIO TITLE "Arne: Artaxerxes: The soldier tir'd" PERFORMER "Joan Sutherland - Francesco Molinari-Pradelli - Orchestra and Chorus of the Royal Opera House, Covent Garden" INDEX 01 00:00:00 TRACK 02 AUDIO TITLE "Handel: Samson: Let the bright Seraphim" PERFORMER "Joan Sutherland - Francesco Molinari-Pradelli - Orchestra and Chorus of the Royal Opera House, Covent Garden" INDEX 01 04:07:00 TRACK 03 AUDIO TITLE "Bellini: Norma: Sediziose voci ... Casta diva...Ah! bello a me ritorna" PERFORMER "Joan Sutherland - Francesco Molinari-Pradelli - Orchestra and Chorus of the Royal Opera House, Covent Garden" INDEX 01 10:04:00 TRACK 04 AUDIO TITLE "Bellini: I puritani: Son vergin vezzosa (Polonaise)" PERFORMER "Joan Sutherland - Francesco Molinari-Pradelli - Orchestra and Chorus of the Royal Opera House, Covent Garden" INDEX 01 22:51:00 TRACK 05 AUDIO TITLE "Rossini: Semiramide: Bel raggio lusinghier" PERFORMER "Joan Sutherland - Francesco Molinari-Pradelli - Orchestra and Chorus of the Royal Opera House, Covent Garden" INDEX 01 25:57:00 TRACK 06 AUDIO TITLE "Bellini: I puritani: O rendetemi la speme... Qui la voce... Vien, diletto" PERFORMER "Joan Sutherland - Francesco Molinari-Pradelli - Orchestra and Chorus of the Royal Opera House, Covent Garden" INDEX 01 32:38:00 TRACK 07 AUDIO TITLE "Bellini: La sonnambula: Care compagne... Come per me sereno... Sovra il sen" PERFORMER "Joan Sutherland - Francesco Molinari-Pradelli - Orchestra and Chorus of the Royal Opera House, Covent Garden" INDEX 01 39:40:00 TRACK 08 AUDIO TITLE "Gounod: Faust: O Dieu! que de bijoux... Ah! je ris de me voir" PERFORMER "Joan Sutherland - Francesco Molinari-Pradelli - Orchestra and Chorus of the Royal Opera House, Covent Garden" INDEX 01 48:05:00

CD2

REM GENRE OperaREM DATE 1960REM DISCID 6A0D1708REM COMMENT "ExactAudioCopy v1.0b3"PERFORMER "Joan Sutherland - Francesco Molinari-Pradelli - Orchestra and Chorus of the R..."TITLE "The Art of the Prima Donna - CD2"FILE "CD2.ape" WAVE TRACK 01 AUDIO TITLE "Gounod: Romeo et Juliette: Ah! Je veux vivre" PERFORMER "Joan Sutherland - Francesco Molinari-Pradelli - Orchestra and Chorus of the R..." INDEX 01 00:00:00 TRACK 02 AUDIO TITLE "Verdi: Otello: Mia madre aveva una povera ancella... Piangia cantando" PERFORMER "Joan Sutherland - Francesco Molinari-Pradelli - Orchestra and Chorus of the R..." INDEX 01 03:32:00 TRACK 03 AUDIO TITLE "Mozart: Die Entfuhrung aus dem Serail: Martern aller Arten" PERFORMER "Joan Sutherland - Francesco Molinari-Pradelli - Orchestra and Chorus of the R..." INDEX 01 11:37:00 TRACK 04 AUDIO TITLE "Verdi: La Traviata: E'strano... Ah fors'e lui... Sempre libera" PERFORMER "Joan Sutherland - Francesco Molinari-Pradelli - Orchestra and Chorus of the R..." INDEX 01 20:20:00 TRACK 05 AUDIO TITLE "Thomas: Hamlet: A vos jeux, mes amis" PERFORMER "Joan Sutherland - Francesco Molinari-Pradelli - Orchestra and Chorus of the R..." INDEX 01 27:05:00 TRACK 06 AUDIO TITLE "Delibes: Lakme: Ah! Ou va la jeune Indoue" PERFORMER "Joan Sutherland - Francesco Molinari-Pradelli - Orchestra and Chorus of the R..." INDEX 01 35:56:00 TRACK 07 AUDIO TITLE "Meyerbeer: Les Huguenots: O beau pays de la Touraine!" PERFORMER "Joan Sutherland - Francesco Molinari-Pradelli - Orchestra and Chorus of the R..." INDEX 01 43:48:00 TRACK 08 AUDIO TITLE "Verdi: Rigoletto: Gualtier Malde... Caro nome" PERFORMER "Joan Sutherland - Francesco Molinari-Pradelli - Orchestra and Chorus of the R..." INDEX 01 49:33:00



Показать сообщения:    

Текущее время: 06-Дек 22:56

Часовой пояс: UTC + 3


Вы не можете начинать темы
Вы не можете отвечать на сообщения
Вы не можете редактировать свои сообщения
Вы не можете удалять свои сообщения
Вы не можете голосовать в опросах
Вы не можете прикреплять файлы к сообщениям
Вы не можете скачивать файлы