(Opera) Smetana - Libuse (Podvalova, Srubar, Kalas, Blachut - Chor und Sinfonie Orchester des Prager Rundfunks, Klima) - 2001, APE (image+.cue) lossless


 

[Цитировать]

Bedrich Smetana - Libuse
Жанр: Opera
Страна-производитель диска: Germany
Год издания диска: 2001
Издатель (лейбл): Cantus Classics
Номер по каталогу: 5.00168
Дата записи: 1949
Аудиокодек: APE
Тип рипа: image+.cue
Битрейт аудио: lossless
Продолжительность: 79'13+79'40
Источник: собственный рип
Наличие сканов в содержимом раздачи: да
Треклист:
CD1
1. Slovutna dcero Kroka
2. Nemohu dale
3. Beda, mezi vlastnimi bratry
4. Ten had tu schazi
5. Napotja kone ted a cekejte
6. Muj ujec zval me hrobu otcovu
7. Heja, Heja (Anfang
CD2
1. Heja, Heja (Fortsetzung)
2. Do konce dilo je hotovo
3. Ja ale zustanu
4. Od Libuse ti pozdrav nesem
5. Mir zjednam mezi
6. On jdel Jeste
7. Nuz vitej nam
8. Nerekla vam, ze dala vsechnu moc
9. Hoy,tvrdy Vysehrad
10. Bohoye mocni
Исполнители:
Bedrich Smetana - Libuse
Opera in 3 Acts
Libretto: Josef Wenzig
Libuse - Marie Podvalova, soprano
Premysl - Theodor Srubar, bariton
Chrudas - Karel Kalas, bass
Stalav - Beno Blachut, tenor
Lutubor - Jaroslav Veverka, bass
Krasuva - Ludmilla Cervinkova, soprano
Chor und Sinfonie Orchester des Prager Rundfunks
Alois Klima

Лог создания рипа

CD1

Exact Audio Copy V1.0 beta 3 from 29. August 2011
EAC extraction logfile from 17. December 2014, 12:28
Smetana / Libussa, Klima CD1
Used drive : TSSTcorpCDDVDW SE-208AB Adapter: 1 ID: 0
Read mode : Secure
Utilize accurate stream : Yes
Defeat audio cache : Yes
Make use of C2 pointers : No
Read offset correction : 6
Overread into Lead-In and Lead-Out : No
Fill up missing offset samples with silence : Yes
Delete leading and trailing silent blocks : No
Null samples used in CRC calculations : Yes
Used interface : Native Win32 interface for Win NT & 2000
Used output format : Monkey's Audio Lossless Encoder
Selected bitrate : High Lossless Compression
Quality : High
Add ID3 tag : Yes
Command line compressor : C:\Program Files (x86)\Exact Audio Copy\MAC\MAC.exe
TOC of the extracted CD
Track | Start | Length | Start sector | End sector
---------------------------------------------------------
1 | 0:00.00 | 10:04.64 | 0 | 45363
2 | 10:04.64 | 4:32.21 | 45364 | 65784
3 | 14:37.10 | 5:46.25 | 65785 | 91759
4 | 20:23.35 | 21:29.65 | 91760 | 188499
5 | 41:53.25 | 20:59.39 | 188500 | 282963
6 | 62:52.64 | 11:06.37 | 282964 | 332950
7 | 73:59.26 | 5:14.23 | 332951 | 356523
Range status and errors
Selected range
Filename D:\EAC\Smetana - Libussa, Klima CD1.wav
Peak level 70.9 %
Extraction speed 2.2 X
Range quality 100.0 %
Test CRC D9B735CA
Copy CRC D9B735CA
Copy OK
No errors occurred
AccurateRip summary
Track 1 accurately ripped (confidence 2) [DC090242] (AR v1)
Track 2 accurately ripped (confidence 2) [6C9E57EE] (AR v1)
Track 3 accurately ripped (confidence 2) [EB7742B5] (AR v1)
Track 4 accurately ripped (confidence 2) [DCC2B5A8] (AR v1)
Track 5 accurately ripped (confidence 2) [256C9752] (AR v1)
Track 6 accurately ripped (confidence 2) [2CFD3FDC] (AR v1)
Track 7 accurately ripped (confidence 2) [DFC42520] (AR v1)
All tracks accurately ripped
End of status report
---- CUETools DB Plugin V2.1.3
[CTDB TOCID: gqToJ_2GDrLUgOtPs1DLuGRI6XQ-] disk not present in database, Submit result: gqToJ_2GDrLUgOtPs1DLuGRI6XQ- has been uploaded
==== Log checksum F56FEDF92F186E1F1A902411DF8109390E12F5634DA265E780572A0E26DC0F0F ====

CD2

Exact Audio Copy V1.0 beta 3 from 29. August 2011
EAC extraction logfile from 7. July 2014, 22:31
Smetana / Libussa, Klima CD2
Used drive : TSSTcorpCDDVDW SE-208AB Adapter: 1 ID: 1
Read mode : Secure
Utilize accurate stream : Yes
Defeat audio cache : Yes
Make use of C2 pointers : No
Read offset correction : 6
Overread into Lead-In and Lead-Out : No
Fill up missing offset samples with silence : Yes
Delete leading and trailing silent blocks : No
Null samples used in CRC calculations : Yes
Used interface : Native Win32 interface for Win NT & 2000
Used output format : Monkey's Audio Lossless Encoder
Selected bitrate : High Lossless Compression
Quality : High
Add ID3 tag : No
Command line compressor : C:\Program Files (x86)\Exact Audio Copy\MAC\MAC.exe
TOC of the extracted CD
Track | Start | Length | Start sector | End sector
---------------------------------------------------------
1 | 0:00.00 | 6:37.46 | 0 | 29820
2 | 6:37.46 | 3:20.02 | 29821 | 44822
3 | 9:57.48 | 5:10.06 | 44823 | 68078
4 | 15:07.54 | 12:56.12 | 68079 | 126290
5 | 28:03.66 | 8:02.38 | 126291 | 162478
6 | 36:06.29 | 2:52.71 | 162479 | 175449
7 | 38:59.25 | 2:43.59 | 175450 | 187733
8 | 41:43.09 | 5:05.40 | 187734 | 210648
9 | 46:48.49 | 18:40.69 | 210649 | 294717
10 | 65:29.43 | 14:10.38 | 294718 | 358505
Range status and errors
Selected range
Filename D:\EAC\Smetana - Libussa, Klima CD2.wav
Peak level 79.9 %
Extraction speed 2.2 X
Range quality 100.0 %
Test CRC A6B94212
Copy CRC A6B94212
Copy OK
No errors occurred
AccurateRip summary
Track 1 accurately ripped (confidence 2) [4F41D39B] (AR v1)
Track 2 accurately ripped (confidence 2) [7B89D421] (AR v1)
Track 3 accurately ripped (confidence 2) [F4E36549] (AR v1)
Track 4 accurately ripped (confidence 2) [4CADAD35] (AR v1)
Track 5 accurately ripped (confidence 2) [AEEB78AC] (AR v1)
Track 6 accurately ripped (confidence 2) [9F1AF3B2] (AR v1)
Track 7 accurately ripped (confidence 2) [C3AD3870] (AR v1)
Track 8 accurately ripped (confidence 2) [0007C117] (AR v1)
Track 9 accurately ripped (confidence 2) [A8D29DCD] (AR v1)
Track 10 accurately ripped (confidence 2) [747E9F3B] (AR v1)
All tracks accurately ripped
End of status report
---- CUETools DB Plugin V2.1.3
[CTDB TOCID: zfl.6RodaoHo2GYtppPd14Sj0IE-] disk not present in database, Submit result: zfl.6RodaoHo2GYtppPd14Sj0IE- has been uploaded
==== Log checksum 986BF5E5D3F66AB0B11C3DA1767152A53AB5DFB13199ADB447FD0161AF758C74 ====

Содержание индексной карты (.CUE)

CD1

REM GENRE Oper
REM DATE 2001
REM DISCID 5F129107
REM COMMENT "ExactAudioCopy v1.0b3"
PERFORMER "Smetana"
TITLE "Libussa, Klima CD1"
FILE "Smetana - Libussa, Klima CD1.ape" WAVE
TRACK 01 AUDIO
TITLE "Slovutna dcero Kroka"
PERFORMER "Smetana"
ISRC 000000000000
INDEX 01 00:00:00
TRACK 02 AUDIO
TITLE "Nemohu dale"
PERFORMER "Smetana"
ISRC 000000000000
INDEX 01 10:04:64
TRACK 03 AUDIO
TITLE "Beda, mezi vlastnimi bratry"
PERFORMER "Smetana"
ISRC 000000000000
INDEX 01 14:37:10
TRACK 04 AUDIO
TITLE "Ten had tu schazi"
PERFORMER "Smetana"
ISRC 000000000000
INDEX 01 20:23:35
TRACK 05 AUDIO
TITLE "Napotja kone ted a cekejte"
PERFORMER "Smetana"
ISRC 000000000000
INDEX 01 41:53:25
TRACK 06 AUDIO
TITLE "Muj ujec zval me hrobu otcovu"
PERFORMER "Smetana"
ISRC 000000000000
INDEX 01 62:52:64
TRACK 07 AUDIO
TITLE "Heja, Heja (Anfang)"
PERFORMER "Smetana"
ISRC 000000000000
INDEX 01 73:59:26

CD2

REM GENRE Oper
REM DATE 2001
REM DISCID 9612AC0A
REM COMMENT "ExactAudioCopy v1.0b3"
PERFORMER "Smetana"
TITLE "Libussa, Klima CD2"
FILE "Smetana - Libussa, Klima CD2.ape" WAVE
TRACK 01 AUDIO
TITLE "Heja, Heja (Fortsetzung)"
PERFORMER "Smetana"
ISRC 000000000000
INDEX 01 00:00:00
TRACK 02 AUDIO
TITLE "Do konce dilo je hotovo"
PERFORMER "Smetana"
ISRC 000000000000
INDEX 01 06:37:46
TRACK 03 AUDIO
TITLE "Ja ale zustanu"
PERFORMER "Smetana"
ISRC 000000000000
INDEX 01 09:57:48
TRACK 04 AUDIO
TITLE "Od Libuse ti pozdrav nesem"
PERFORMER "Smetana"
ISRC 000000000000
INDEX 01 15:07:54
TRACK 05 AUDIO
TITLE "mir zjednam mezi"
PERFORMER "Smetana"
ISRC 000000000000
INDEX 01 28:03:66
TRACK 06 AUDIO
TITLE "On jdel Jeste"
PERFORMER "Smetana"
ISRC 000000000000
INDEX 01 36:06:29
TRACK 07 AUDIO
TITLE "Nuz vitej nam"
PERFORMER "Smetana"
ISRC 000000000000
INDEX 01 38:59:25
TRACK 08 AUDIO
TITLE "Nerekla vam, ze dala vsechnu moc"
PERFORMER "Smetana"
ISRC 000000000000
INDEX 01 41:43:09
TRACK 09 AUDIO
TITLE "Hoy,tvrdy Vysehrad"
PERFORMER "Smetana"
ISRC 000000000000
INDEX 01 46:48:49
TRACK 10 AUDIO
TITLE "Bohoye mocni"
PERFORMER "Smetana"
ISRC 000000000000
INDEX 01 65:29:43
Доп. информация:
Libuse was written in 1872 for a coronation that ended up not taking place, and it was finally premiered in 1881 at the wedding of the crown prince instead.
While "formally" an opera in three acts it is in many ways more of a dramatic cantata full of powerful drama, rousing choruses and overall rather monumental in character - far removed from The Bartered Bride in other words, even if the folk music-inspired melodic language still gives away the composer (with more than a little Wagner added).
Although the melodies themselves are not quite as memorable as the ones in The Bartered Bride, Libuse is still an impressive, powerful and memorable work, noble and bold but also warmly lyrical, even touching, and inventive enough to keep the listener occupied throughout.



Показать сообщения:    

Текущее время: 06-Дек 20:58

Часовой пояс: UTC + 3


Вы не можете начинать темы
Вы не можете отвечать на сообщения
Вы не можете редактировать свои сообщения
Вы не можете удалять свои сообщения
Вы не можете голосовать в опросах
Вы не можете прикреплять файлы к сообщениям
Вы не можете скачивать файлы