(Classical) Antonio Caldara - La concordia de' pianeti (Behle, Cangemi, Donose, Fagioli, Galou, Mena, Tittoto; La Cetra, Andrea Marcon) Archiv 479 3356 - 2014, FLAC (image+.cue) lossless


 

[Цитировать]

Antonio Caldara - La concordia de' pianeti (Behle, Cangemi, Donose, Fagioli, Galou, Mena, Tittoto; La Cetra, Andrea Marcon)
Жанр: Classical
Год издания диска: 2014
Издатель (лейбл): Deutsche Grammophon
Номер по каталогу: 00289 479 3356
Дата записи: 2014
Аудиокодек: FLAC
Тип рипа: image+.cue
Битрейт аудио: lossless
Продолжительность: CD1:58'14; CD2:49'53
Источник: собственный рип
Наличие сканов в содержимом раздачи: да (только обложки)
Исполнители:
Venere - Delphine Galou
Diana - Veronica Cangemi
Giove - Ruxandra Donose
Apollo - Franco Fagioli
Marte - Carlos Mena
Mercurio - Daniel Behle
Saturno - Luca Tittoto
La Cetra Barockorchester & Vokalensemble Basel
Conductor - Andrea Marcon

Треклист:

CD1
01. Introduzione (03:54)
02. Coro - Oggi brillate (04:39)
03. Recit. Venere e Mercurio - Qual fia costei? (01:24)
04. Aria di Mercurio - Tal se gemma (04:55)
05. Recit. Diana, Mercurio e Venere - Di Mercurio costume (01:28)
06. Aria di Venere - Non si turba e non si duole (06:15)
07. Recit. Giove, Venere, Diana e Mercurio - Ben sovente (01:46)
08. Aria di Diana - Ad essa io cedero (03:30)
09. Recit. Saturno e Giove - Mercurio non risponde? (02:37)
10. Aria di Saturno - Di quel bel nome al suono (04:50)
11. Recit. Marte, Apollo, Diana e Venere - Se tanto ottien laggiu (01:34)
12. Aria di Marte - Non v'e bella che non creda (04:33)
13. Recit. Mercurio, Giove e Apollo - Mal crede il Dio guerrier (01:47)
14. Aria di Apollo - So ch'io dal suolo alzai (04:40)
15. Recit. Giove - Mal discerni a i grandi (01:44)
16. Aria di Giove - A la bontade (04:22)
17. Recit. Venere, Diana, Saturno, Giove e Mercurio - Giove e mio nume (01:34)
18. Coro - Questo giorno celebrate (02:36)
CD2
01. Recit. Venere e Giove - Qual se improvisa face (01:33)
02. Aria di Venere - Ad Elisa ancor d'intorno (03:10)
03. Recit. Mercurio, Saturno e Giove - Piu belle sempre furo' (01:22)
04. Aria di Mercurio - Madre d' Amor tu sei (05:15)
05. Recit. Diana e Giove - Poiche tanto prometti (01:41)
06. Aria di Diana - Voti amanti (04:07)
07. Recit. Apollo - Ben cedi, o Cintia (01:26)
08. Aria di Apollo - Questo di cosi giocondo (04:19)
09. Recit. Marte e Venere - No, non e il solo (01:31)
10. Aria di Marte - Da mia tromba (04:16)
11. Recit. Saturno - Mi piace, o Diva, o Numi (01:16)
12. Aria di Saturno - Pari a quella (03:34)
13. Recit. Giove e Tutti - Il giusto augurio accetto (01:22)
14. Aria di Giove - Goda il mondo (05:39)
15. Recit. Venere, Diana, Apollo, Giove e Tutti - Si, goda il mondo (00:37)
16. Coro - Tu sei cara in pari guisa (01:16)
17. Licenza, recit. Venere - Ecco, Elisa, gli applausi (01:16)
18. Licenza, aria die Venere - La concordia de' Pianeti (04:36)
19. Coro - Tu sei cara in pari guisa (01:31)

LOG EAC CD1:

Exact Audio Copy V1.0 beta 3 from 29. August 2011
EAC extraction logfile from 2. January 2015, 15:11
Andrea Marcon - La Cetra / Caldara - La concordia de’ pianeti CD1
Used drive : PIONEER DVD-RW DVR-218L Adapter: 0 ID: 0
Read mode : SecureUtilize accurate stream : YesDefeat audio cache : YesMake use of C2 pointers : No
Read offset correction : 6Overread into Lead-In and Lead-Out : NoFill up missing offset samples with silence : YesDelete leading and trailing silent blocks : NoNull samples used in CRC calculations : YesUsed interface : Native Win32 interface for Win NT & 2000
Used output format : User Defined EncoderSelected bitrate : 128 kBit/sQuality : HighAdd ID3 tag : NoCommand line compressor : C:\Program Files (x86)\Exact Audio Copy\Flac\flac.exeAdditional command line options : -V -8 -T "Date=%year%" -T "Genre=%genre%" %source%
TOC of the extracted CD
Track | Start | Length | Start sector | End sector---------------------------------------------------------1 | 0:00.00 | 3:54.57 | 0 | 176062 | 3:54.57 | 4:39.45 | 17607 | 385763 | 8:34.27 | 1:24.18 | 38577 | 448944 | 9:58.45 | 4:55.18 | 44895 | 670375 | 14:53.63 | 1:28.14 | 67038 | 736516 | 16:22.02 | 6:15.53 | 73652 | 1018297 | 22:37.55 | 1:46.61 | 101830 | 1098408 | 24:24.41 | 3:30.03 | 109841 | 1255939 | 27:54.44 | 2:37.68 | 125594 | 13743610 | 30:32.37 | 4:50.00 | 137437 | 15918611 | 35:22.37 | 1:34.34 | 159187 | 16627012 | 36:56.71 | 4:33.26 | 166271 | 18677113 | 41:30.22 | 1:47.49 | 186772 | 19484514 | 43:17.71 | 4:40.29 | 194846 | 21587415 | 47:58.25 | 1:44.08 | 215875 | 22368216 | 49:42.33 | 4:22.35 | 223683 | 24336717 | 54:04.68 | 1:34.07 | 243368 | 25042418 | 55:39.00 | 2:35.40 | 250425 | 262089
Range status and errors
Selected range
Filename C:\Program Files (x86)\Exact Audio Copy\Flac\Caldara - La concordia de’ pianeti CD1.wav
Peak level 97.0 %Extraction speed 1.8 XRange quality 100.0 %Test CRC 5C1BF659Copy CRC 5C1BF659Copy OK
No errors occurred
AccurateRip summary
Track 1 accurately ripped (confidence 3) [88F0DFB3] (AR v2)Track 2 accurately ripped (confidence 3) [664AF86E] (AR v2)Track 3 accurately ripped (confidence 3) [008B9C1F] (AR v2)Track 4 accurately ripped (confidence 3) [AE01B485] (AR v2)Track 5 accurately ripped (confidence 3) [C674C72D] (AR v2)Track 6 accurately ripped (confidence 2) [2E8678AA] (AR v2)Track 7 accurately ripped (confidence 2) [16D0ACE3] (AR v2)Track 8 accurately ripped (confidence 2) [2443CC02] (AR v2)Track 9 accurately ripped (confidence 2) [AB67C93A] (AR v2)Track 10 accurately ripped (confidence 2) [B044CDAA] (AR v2)Track 11 accurately ripped (confidence 2) [603DF0F5] (AR v2)Track 12 accurately ripped (confidence 2) [58C06D50] (AR v2)Track 13 accurately ripped (confidence 2) [8362E636] (AR v2)Track 14 accurately ripped (confidence 2) [DAC6095A] (AR v2)Track 15 accurately ripped (confidence 2) [DBC02E1B] (AR v2)Track 16 accurately ripped (confidence 2) [FB6C60D8] (AR v2)Track 17 accurately ripped (confidence 2) [793A0839] (AR v2)Track 18 accurately ripped (confidence 2) [28E95D67] (AR v2)
All tracks accurately ripped
End of status report
---- CUETools DB Plugin V2.1.3
[CTDB TOCID: MhbqWiMhh5fsWkEfhKPqGdLU21c-] disk not present in database, Submit result: MhbqWiMhh5fsWkEfhKPqGdLU21c- has been uploaded
==== Log checksum 5A54F6966FF81A62BD91A0D1AF8F44C8716A33D126087DE0C180B50A1A1C6B8D ====

LOG EAC CD2:

Exact Audio Copy V1.0 beta 3 from 29. August 2011
EAC extraction logfile from 2. January 2015, 16:15
Andrea Marcon - La Cetra / Caldara - La concordia de’ pianeti CD2
Used drive : PIONEER DVD-RW DVR-218L Adapter: 0 ID: 0
Read mode : SecureUtilize accurate stream : YesDefeat audio cache : YesMake use of C2 pointers : No
Read offset correction : 6Overread into Lead-In and Lead-Out : NoFill up missing offset samples with silence : YesDelete leading and trailing silent blocks : NoNull samples used in CRC calculations : YesUsed interface : Native Win32 interface for Win NT & 2000
Used output format : User Defined EncoderSelected bitrate : 128 kBit/sQuality : HighAdd ID3 tag : NoCommand line compressor : C:\Program Files (x86)\Exact Audio Copy\Flac\flac.exeAdditional command line options : -V -8 -T "Date=%year%" -T "Genre=%genre%" %source%
TOC of the extracted CD
Track | Start | Length | Start sector | End sector---------------------------------------------------------1 | 0:00.00 | 1:33.15 | 0 | 69892 | 1:33.15 | 3:10.11 | 6990 | 212503 | 4:43.26 | 1:22.30 | 21251 | 274304 | 6:05.56 | 5:15.74 | 27431 | 511295 | 11:21.55 | 1:41.33 | 51130 | 587376 | 13:03.13 | 4:07.62 | 58738 | 773247 | 17:11.00 | 1:26.01 | 77325 | 837758 | 18:37.01 | 4:19.14 | 83776 | 1032149 | 22:56.15 | 1:31.12 | 103215 | 11005110 | 24:27.27 | 4:16.42 | 110052 | 12929311 | 28:43.69 | 1:16.68 | 129294 | 13506112 | 30:00.62 | 3:34.20 | 135062 | 15113113 | 33:35.07 | 1:22.59 | 151132 | 15734014 | 34:57.66 | 5:39.10 | 157341 | 18277515 | 40:37.01 | 0:37.08 | 182776 | 18555816 | 41:14.09 | 1:16.12 | 185559 | 19127017 | 42:30.21 | 1:16.70 | 191271 | 19704018 | 43:47.16 | 4:36.37 | 197041 | 21777719 | 48:23.53 | 1:31.35 | 217778 | 224637
Range status and errors
Selected range
Filename C:\Program Files (x86)\Exact Audio Copy\Flac\Caldara - La concordia de’ pianeti CD2.wav
Peak level 97.0 %Extraction speed 1.8 XRange quality 100.0 %Test CRC D17504E0Copy CRC D17504E0Copy OK
No errors occurred
AccurateRip summary
Track 1 accurately ripped (confidence 2) [1BB2B2B9] (AR v2)Track 2 accurately ripped (confidence 2) [3C14A1AC] (AR v2)Track 3 accurately ripped (confidence 2) [B52518D8] (AR v2)Track 4 accurately ripped (confidence 2) [AFE98E04] (AR v2)Track 5 accurately ripped (confidence 2) [EDF3CD0A] (AR v2)Track 6 accurately ripped (confidence 2) [16FE8153] (AR v2)Track 7 accurately ripped (confidence 2) [A31C72EB] (AR v2)Track 8 accurately ripped (confidence 2) [216BD113] (AR v2)Track 9 accurately ripped (confidence 2) [85831773] (AR v2)Track 10 accurately ripped (confidence 2) [538C2F16] (AR v2)Track 11 accurately ripped (confidence 2) [9BFF59E2] (AR v2)Track 12 accurately ripped (confidence 2) [648958D0] (AR v2)Track 13 accurately ripped (confidence 2) [13755D3C] (AR v2)Track 14 accurately ripped (confidence 2) [989A2B45] (AR v2)Track 15 accurately ripped (confidence 2) [845EB0A0] (AR v2)Track 16 accurately ripped (confidence 2) [47079AD0] (AR v2)Track 17 accurately ripped (confidence 2) [D0DF8451] (AR v2)Track 18 accurately ripped (confidence 2) [A2F5A11E] (AR v2)Track 19 accurately ripped (confidence 2) [9B57639A] (AR v2)
All tracks accurately ripped
End of status report
---- CUETools DB Plugin V2.1.3
[CTDB TOCID: MQDoDdRmJCRMmw73h2WeOoo5rR8-] disk not present in database, Submit result: MQDoDdRmJCRMmw73h2WeOoo5rR8- has been uploaded
==== Log checksum D93E197AD8112E2766D919C57707ED38525E8802C04A628B7713CB08B0FA5FA7 ====



Показать сообщения:    

Текущее время: 03-Дек 12:39

Часовой пояс: UTC + 3


Вы не можете начинать темы
Вы не можете отвечать на сообщения
Вы не можете редактировать свои сообщения
Вы не можете удалять свои сообщения
Вы не можете голосовать в опросах
Вы не можете прикреплять файлы к сообщениям
Вы не можете скачивать файлы