(Opera) Gluck - Orfeo ed Euridice / Глюк - Орфей и Эвридика [Carnegie Hall, 1967, 2CD] (Dietrich Fischer-Dieskau, Elisabeth Schwarzkopf, Lucia Popp / Orchestra and Chorus of the American Opera Society, Jonel Perlea) - 2008, FLAC (image+.cue) lossless


 

[Цитировать]

Gluck - Orfeo ed Euridice

Жанр: Opera
Страна-производитель диска: Made in Slovenia
Год издания диска: 2008
Издатель (лейбл): Golden Melodram
Номер по каталогу: DP-SAZAS - GM 5.0073
Дата записи: 1967
Аудиокодек: FLAC
Тип рипа: image+.cue
Битрейт аудио: lossless
Продолжительность: 40'43 + 53'58
Источник: релизер
сайт-источник/ник/другое: siegbrunn
Треклист:

скрытый текст

DISC 1
1 Act 1. Ouverture
2 Act 1. Ah, se intorno
3 Act 1. Basta, o compagni
4 Act 1. Chiamo il mio ben cos?
5 Act 1. Gli sguardi trattieni
6 Act 2. Chi mai dell' Erebo
7 Act 2. Deh, placatevi con me
DISC 2
1 Act 2. Dance of the blessed spirits
2 Act 2. Che puro ciel
3 Act 2. Vieni ai regni del riposo
4 Act 2. Dance
5 Act 2. Anime avventurose
6 Act 3. Vieni, segui i miei passi
7 Act 3. Qual vita ? desta?
8 Act 3. Che fiero momento
9 Act 3. Che far? senza Euridice
Исполнители:

скрытый текст

Gluck
Orfeo ed Euridice
Orfeo - Dietrich Fischer-Dieskau
Euridice - Elisabeth Schwarzkopf
Amor - Lucia Popp
Orchestra and Chorus of the American Opera Society
Jonel PERLEA, conductor
Live recording, April 4, 1967
New York, Carnegie Hall
MONO

Лог создания рипа

CD1

скрытый текст

Exact Audio Copy V1.0 beta 3 from 29. August 2011
EAC extraction logfile from 31. March 2014, 21:15
Jonel Perlea - American Opera Society / Gluck - Orfeo ed Euridice - CD-1
Used drive : TSSTcorpCDDVDW SH-224DB Adapter: 0 ID: 1
Read mode : Secure
Utilize accurate stream : Yes
Defeat audio cache : Yes
Make use of C2 pointers : No
Read offset correction : 6
Overread into Lead-In and Lead-Out : Yes
Fill up missing offset samples with silence : Yes
Delete leading and trailing silent blocks : No
Null samples used in CRC calculations : Yes
Used interface : Native Win32 interface for Win NT & 2000
Used output format : Internal WAV Routines
Sample format : 44.100 Hz; 16 Bit; Stereo
TOC of the extracted CD
Track | Start | Length | Start sector | End sector
---------------------------------------------------------
1 | 0:00.00 | 3:06.30 | 0 | 13979
2 | 3:06.30 | 4:50.06 | 13980 | 35735
3 | 7:56.36 | 6:02.50 | 35736 | 62935
4 | 13:59.11 | 9:55.44 | 62936 | 107604
5 | 23:54.55 | 5:41.61 | 107605 | 133240
6 | 29:36.41 | 3:59.34 | 133241 | 151199
7 | 33:36.00 | 7:07.69 | 151200 | 183293
Range status and errors
Selected range
Filename G:\Gluck - Orfeo ed Euridice - Jonel Perlea - New York 1967 - Melodram\CD 1\CDImage.wav
Peak level 73.5 %
Extraction speed 2.7 X
Range quality 99.9 %
Copy CRC 45B69055
Copy OK
No errors occurred
End of status report
CD2

скрытый текст

Exact Audio Copy V1.0 beta 3 from 29. August 2011
EAC extraction logfile from 31. March 2014, 21:37
Jonel Perlea - American Opera Society / Gluck - Orfeo ed Euridice - CD-2
Used drive : TSSTcorpCDDVDW SH-224DB Adapter: 0 ID: 1
Read mode : Secure
Utilize accurate stream : Yes
Defeat audio cache : Yes
Make use of C2 pointers : No
Read offset correction : 6
Overread into Lead-In and Lead-Out : Yes
Fill up missing offset samples with silence : Yes
Delete leading and trailing silent blocks : No
Null samples used in CRC calculations : Yes
Used interface : Native Win32 interface for Win NT & 2000
Used output format : Internal WAV Routines
Sample format : 44.100 Hz; 16 Bit; Stereo
TOC of the extracted CD
Track | Start | Length | Start sector | End sector
---------------------------------------------------------
1 | 0:00.00 | 7:42.08 | 0 | 34657
2 | 7:42.08 | 5:06.41 | 34658 | 57648
3 | 12:48.49 | 5:18.23 | 57649 | 81521
4 | 18:06.72 | 3:01.49 | 81522 | 95145
5 | 21:08.46 | 2:53.27 | 95146 | 108147
6 | 24:01.73 | 5:26.57 | 108148 | 132654
7 | 29:28.55 | 6:04.61 | 132655 | 160015
8 | 35:33.41 | 6:32.52 | 160016 | 189467
9 | 42:06.18 | 9:00.43 | 189468 | 230010
10 | 51:06.61 | 2:52.04 | 230011 | 242914
Range status and errors
Selected range
Filename G:\Gluck - Orfeo ed Euridice - Jonel Perlea - New York 1967 - Melodram\CD 2\CDImage.wav
Peak level 74.7 %
Extraction speed 2.9 X
Range quality 99.9 %
Copy CRC 22B43F95
Copy OK
No errors occurred
End of status report



Показать сообщения:    

Текущее время: 03-Дек 12:40

Часовой пояс: UTC + 3


Вы не можете начинать темы
Вы не можете отвечать на сообщения
Вы не можете редактировать свои сообщения
Вы не можете удалять свои сообщения
Вы не можете голосовать в опросах
Вы не можете прикреплять файлы к сообщениям
Вы не можете скачивать файлы