(Opera) Верди - Макбет / Verdi - Macbeth (Gencer, Corradi, Fiorentini, Guelfi, Maddalena - Orchestra del Teatro La Fenice, Gavazzeni) - 1999, APE (image+.cue) lossless


 

[Цитировать]

Giuseppe Verdi (1813-1901) - MacBeth
Жанр: Opera
Страна-производитель диска: EU
Год издания диска: 1999
Издатель (лейбл): Mondo Musica
Номер по каталогу: MFOH 10101
Дата записи: 1968
Аудиокодек: APE
Тип рипа: image+.cue
Битрейт аудио: lossless
Продолжительность: 72'50+58'20
Источник: собственный рип
Наличие сканов в содержимом раздачи: да
Треклист:

CD1

1. Atto Primo: Preludio
2. Atto Primo: Chor D'intro: Che Faceste? Dite Su
3. Atto Primo: Scena E Duetto: Due Vaticini Compiuti Or Sono
4. Atto Primo: Chor Di Streghe
5. Atto Primo: Scena E Cavatina: Vieni T'affretta
6. Atto Primo: Scena E Marcia: Oh Donna Mia!
7. Atto Primo: Gran Scena E Duetto: Fatal Mia Donna! Un urmure
8. Atto Primo: Scena E Sestetto
9. Atto Secondo: Scena Ed Aria: La Luce Langue
10. Atto Secondo: Chor Di Sicari: Chi V'impose Unirvi A Noi?
11. Atto Secondo: Gran Scena: Come Dal Ciel Precipita
12. Atto Secondo: Finale Secondo Atto

CD2

1. Atto Terzo: Chor D'intro
2. Atto Terzo: Gran Scena Delle Apparizioni: Fuggi, O Regal Fantasma
3. Atto Terzo: Coro E Ballabile: Ondine E Silfidi
4. Atto Terzo: Scena E Duetto
5. Atto Quarto: Chor Di Profughi: Scozzesi Patria Oppressa
6. Atto Quarto: Scena E Aria: Ah, La Paterna Mano
7. Atto Quarto: Gran Scena Del Sonnambulismo: Una Maccbia E Qui
8. Atto Quarto: Scena E Aria: Pieta, Rispetto, Amore
9. Atto Quarto: Scena E Battaglia
10. Atto Quarto: Inno Di Vittoria
Исполнители:
Giuseppe Verdi (1813-1901) - MacBeth
Melodrama in Four acts
Libretto: Francesco Maria Piave
Macbeth - Gian Giacomo Guelfi (Baritone)
Lady Macbeth - Leyla Gencer (Soprano)
Banco - Lorenzo Gaetani (Bass)
Macduff - Giorgio Casalato Lamberti (Tenor)
Malcolm - Gian Paolo Corradi (Tenor)
Una dama - Mirella Fiorentine (Mezzo Soprano)
Un Dottore - Alessandro Maddalena (Bass)
Un servo - Ledo Freschi (Bass)
Un Assassino - Bruno Tessari (Bass)
Un Araldo - Alberto Carusi (Bass)
Orchestra e Coro del Teatro La Fenice
Gianandrea Gavazzeni

Лог создания рипа

CD1

Exact Audio Copy V1.0 beta 3 from 29. August 2011
EAC extraction logfile from 2. September 2014, 1:43
Verdi / Macbeth, Gavazzeni CD1
Used drive : TS8XDVDSTRANSCEND Adapter: 1 ID: 1
Read mode : Secure
Utilize accurate stream : Yes
Defeat audio cache : Yes
Make use of C2 pointers : No
Read offset correction : 6
Overread into Lead-In and Lead-Out : No
Fill up missing offset samples with silence : Yes
Delete leading and trailing silent blocks : No
Null samples used in CRC calculations : Yes
Used interface : Native Win32 interface for Win NT & 2000
Used output format : Monkey's Audio Lossless Encoder
Selected bitrate : High Lossless Compression
Quality : High
Add ID3 tag : No
Command line compressor : C:\Program Files (x86)\Exact Audio Copy\MAC\MAC.exe
TOC of the extracted CD
Track | Start | Length | Start sector | End sector
---------------------------------------------------------
1 | 0:00.00 | 2:44.25 | 0 | 12324
2 | 2:44.25 | 3:30.73 | 12325 | 28147
3 | 6:15.23 | 6:46.10 | 28148 | 58607
4 | 13:01.33 | 1:50.00 | 58608 | 66857
5 | 14:51.33 | 8:00.42 | 66858 | 102899
6 | 22:52.00 | 2:42.33 | 102900 | 115082
7 | 25:34.33 | 11:19.25 | 115083 | 166032
8 | 36:53.58 | 7:55.55 | 166033 | 201712
9 | 44:49.38 | 6:30.70 | 201713 | 231032
10 | 51:20.33 | 3:10.55 | 231033 | 245337
11 | 54:31.13 | 3:52.45 | 245338 | 262782
12 | 58:23.58 | 14:25.47 | 262783 | 327704
Range status and errors
Selected range
Filename D:\EAC\Verdi - Macbeth, Gavazzeni CD1.wav
Peak level 84.1 %
Extraction speed 3.4 X
Range quality 100.0 %
Test CRC FAB3447D
Copy CRC FAB3447D
Copy OK
No errors occurred
AccurateRip summary
Track 1 cannot be verified as accurate (confidence 1) [FB97E3FF], AccurateRip returned [FBBFC384] (AR v2)
Track 2 cannot be verified as accurate (confidence 1) [2F8AE3BC], AccurateRip returned [57482270] (AR v2)
Track 3 cannot be verified as accurate (confidence 1) [904CE8B5], AccurateRip returned [F9E8C8F5] (AR v2)
Track 4 cannot be verified as accurate (confidence 1) [1BDA6F31], AccurateRip returned [55B7623F] (AR v2)
Track 5 cannot be verified as accurate (confidence 1) [8F0FE88B], AccurateRip returned [CFF38662] (AR v2)
Track 6 cannot be verified as accurate (confidence 1) [A34A07D2], AccurateRip returned [2575EDF0] (AR v2)
Track 7 cannot be verified as accurate (confidence 1) [B8D78419], AccurateRip returned [1C664D6E] (AR v2)
Track 8 cannot be verified as accurate (confidence 1) [4BCA0F73], AccurateRip returned [7D01DD1E] (AR v2)
Track 9 cannot be verified as accurate (confidence 1) [1FAB9828], AccurateRip returned [8552E171] (AR v2)
Track 10 cannot be verified as accurate (confidence 1) [EE419B67], AccurateRip returned [CDB03E9C] (AR v2)
Track 11 cannot be verified as accurate (confidence 1) [D5E6A965], AccurateRip returned [7363D622] (AR v2)
Track 12 cannot be verified as accurate (confidence 1) [636852E8], AccurateRip returned [AD928ACF] (AR v2)
No tracks could be verified as accurate
You may have a different pressing from the one(s) in the database
End of status report
---- CUETools DB Plugin V2.1.3
[CTDB TOCID: FpWPpIAqWdGuPeZd2uKTQ9fyWAY-] disk not present in database, Submit result: unrecognized or virtual drive
==== Log checksum 9FE79FB96974AA39D8DE12A4A38DEBCF4687F3389C222E71A43E44FECC295774 ====

CD2

Exact Audio Copy V1.0 beta 3 from 29. August 2011
EAC extraction logfile from 2. September 2014, 1:44
Verdi / Macbeth, Gavazzeni CD2
Used drive : TSSTcorpCDDVDW SE-208AB Adapter: 1 ID: 0
Read mode : Secure
Utilize accurate stream : Yes
Defeat audio cache : Yes
Make use of C2 pointers : No
Read offset correction : 6
Overread into Lead-In and Lead-Out : No
Fill up missing offset samples with silence : Yes
Delete leading and trailing silent blocks : No
Null samples used in CRC calculations : Yes
Used interface : Native Win32 interface for Win NT & 2000
Used output format : Monkey's Audio Lossless Encoder
Selected bitrate : High Lossless Compression
Quality : High
Add ID3 tag : No
Command line compressor : C:\Program Files (x86)\Exact Audio Copy\MAC\MAC.exe
TOC of the extracted CD
Track | Start | Length | Start sector | End sector
---------------------------------------------------------
1 | 0:00.00 | 3:27.50 | 0 | 15574
2 | 3:27.50 | 11:37.50 | 15575 | 67899
3 | 15:05.25 | 3:43.30 | 67900 | 84654
4 | 18:48.55 | 3:19.72 | 84655 | 99651
5 | 22:08.52 | 6:38.23 | 99652 | 129524
6 | 28:47.00 | 6:00.45 | 129525 | 156569
7 | 34:47.45 | 11:58.30 | 156570 | 210449
8 | 46:46.00 | 4:30.70 | 210450 | 230769
9 | 51:16.70 | 3:45.20 | 230770 | 247664
10 | 55:02.15 | 3:16.60 | 247665 | 262424
Range status and errors
Selected range
Filename D:\EAC\Verdi - Macbeth, Gavazzeni CD2.wav
Peak level 84.1 %
Extraction speed 2.1 X
Range quality 100.0 %
Test CRC 4694892B
Copy CRC 4694892B
Copy OK
No errors occurred
AccurateRip summary
Track 1 cannot be verified as accurate (confidence 1) [A193E61B], AccurateRip returned [D8EA663D] (AR v2)
Track 2 cannot be verified as accurate (confidence 1) [1B4E2CC7], AccurateRip returned [A3F93FCE] (AR v2)
Track 3 cannot be verified as accurate (confidence 1) [9594BCF6], AccurateRip returned [A327BAFE] (AR v2)
Track 4 cannot be verified as accurate (confidence 1) [2B1D299D], AccurateRip returned [38EF8700] (AR v2)
Track 5 cannot be verified as accurate (confidence 1) [57A1F534], AccurateRip returned [2B03EA9A] (AR v2)
Track 6 cannot be verified as accurate (confidence 1) [3F601793], AccurateRip returned [520CCED8] (AR v2)
Track 7 cannot be verified as accurate (confidence 1) [D847BC43], AccurateRip returned [EC27D935] (AR v2)
Track 8 cannot be verified as accurate (confidence 1) [6223B718], AccurateRip returned [1F91A5B1] (AR v2)
Track 9 cannot be verified as accurate (confidence 1) [7DB8BE3B], AccurateRip returned [56BECD32] (AR v2)
Track 10 cannot be verified as accurate (confidence 1) [68A3C1C9], AccurateRip returned [54A81007] (AR v2)
No tracks could be verified as accurate
You may have a different pressing from the one(s) in the database
End of status report
---- CUETools DB Plugin V2.1.3
[CTDB TOCID: RSc0abetgjvTJ48pqCnlxHTWZ_4-] disk not present in database, Submit result: RSc0abetgjvTJ48pqCnlxHTWZ_4- has been uploaded
==== Log checksum AB6C9F059E8646D8E69ED39FAAB0650049278A22CDCF1C7E9C53E237056642C4 ====

Содержание индексной карты (.CUE)

CD1

REM GENRE Opera
REM DATE 1968
REM DISCID A911110C
REM COMMENT "ExactAudioCopy v1.0b3"
CATALOG 0000000000000
PERFORMER "Verdi"
TITLE "Macbeth, Gavazzeni CD1"
FILE "Verdi - Macbeth, Gavazzeni CD1.ape" WAVE
TRACK 01 AUDIO
TITLE "Atto Primo - 1. Preludio"
PERFORMER "Verdi"
INDEX 01 00:00:00
TRACK 02 AUDIO
TITLE "Atto Primo - 2. Coro d' introduzione"
PERFORMER "Verdi"
INDEX 01 02:44:25
TRACK 03 AUDIO
TITLE "Atto Primo - 3. Scena e detto"
PERFORMER "Verdi"
INDEX 01 06:15:23
TRACK 04 AUDIO
TITLE "Atto Primo - 4. Coro distreghe-Stretta dell'introduzione"
PERFORMER "Verdi"
INDEX 01 13:01:33
TRACK 05 AUDIO
TITLE "Atto Primo - 5. Scena e Cavatina"
PERFORMER "Verdi"
INDEX 01 14:51:33
TRACK 06 AUDIO
TITLE "Atto Primo - 6. Scena e marcia"
PERFORMER "Verdi"
INDEX 01 22:52:00
TRACK 07 AUDIO
TITLE "Atto Primo - 7. Gran scena e duetto"
PERFORMER "Verdi"
INDEX 01 25:34:33
TRACK 08 AUDIO
TITLE "Atto Primo - 8. Scena a sestetto-Finale primo atto"
PERFORMER "Verdi"
INDEX 01 36:53:58
TRACK 09 AUDIO
TITLE "Atto Secondo - 1. Scena ed aria"
PERFORMER "Verdi"
INDEX 01 44:49:38
TRACK 10 AUDIO
TITLE "Atto Secondo - 3. Coro di sicari"
PERFORMER "Verdi"
INDEX 01 51:20:33
TRACK 11 AUDIO
TITLE "Atto Secondo - 4. Gran scena"
PERFORMER "Verdi"
INDEX 01 54:31:13
TRACK 12 AUDIO
TITLE "Atto Secondo - 5. Finale secondo atto"
PERFORMER "Verdi"
INDEX 01 58:23:58

CD2

REM GENRE Opera
REM DATE 1968
REM DISCID 7D0DAB0A
REM COMMENT "ExactAudioCopy v1.0b3"
CATALOG 0000000000000
PERFORMER "Verdi"
TITLE "Macbeth, Gavazzeni CD2"
FILE "Verdi - Macbeth, Gavazzeni CD2.ape" WAVE
TRACK 01 AUDIO
TITLE "Atto Terzo - 1. Coro d'introduzione"
PERFORMER "Verdi"
INDEX 01 00:00:00
TRACK 02 AUDIO
TITLE "Atto Terzo - 2. Gran scena delle apparizioni"
PERFORMER "Verdi"
INDEX 01 03:27:50
TRACK 03 AUDIO
TITLE "Atto Terzo - 3. Coro e ballabile"
PERFORMER "Verdi"
INDEX 01 15:05:25
TRACK 04 AUDIO
TITLE "Atto Terzo - 4. Scena e duetto-Finale terzo atto"
PERFORMER "Verdi"
INDEX 01 18:48:55
TRACK 05 AUDIO
TITLE "Atto Quarto - 1. Coro di profughi"
PERFORMER "Verdi"
INDEX 01 22:08:52
TRACK 06 AUDIO
TITLE "Atto Quarto - 2. Scena e aria"
PERFORMER "Verdi"
INDEX 01 28:47:00
TRACK 07 AUDIO
TITLE "Atto Quarto - 3. Gran scena del sonnambulismo"
PERFORMER "Verdi"
INDEX 01 34:47:45
TRACK 08 AUDIO
TITLE "Atto Quarto - 4. Scena e aria"
PERFORMER "Verdi"
INDEX 01 46:46:00
TRACK 09 AUDIO
TITLE "Atto Quarto - 5. Scena e battaglia"
PERFORMER "Verdi"
INDEX 01 51:16:70
TRACK 10 AUDIO
TITLE "Atto Quarto - 6. Inno di vittoria-Finale"
PERFORMER "Verdi"
INDEX 01 55:02:15



Показать сообщения:    

Текущее время: 10-Дек 17:48

Часовой пояс: UTC + 3


Вы не можете начинать темы
Вы не можете отвечать на сообщения
Вы не можете редактировать свои сообщения
Вы не можете удалять свои сообщения
Вы не можете голосовать в опросах
Вы не можете прикреплять файлы к сообщениям
Вы не можете скачивать файлы