(Baroque) Henry Purcell -The Fairy Queen; Dido and Aeneas (Vyvyan, Burrowes, Bowman, Pears, Janet Baker, English Chamber Orchestra, Aldeburgh Festival Strings, Benjamin Britten, Steuart Bedford ) - 2001, FLAC (image+.cue) lossless


 

[Цитировать]

Henry Purcell - The Fairy Queen; Dido & Aeneas Жанр: Baroque
Страна-производитель диска: Germany
Год издания диска: 2001
Издатель (лейбл): Decca
Номер по каталогу: 468 561-2
Дата записи: 1970 (The Fairy Queen) 1975 (Dido and Aeneas)
Аудиокодек: FLAC
Тип рипа: image+.cue
Битрейт аудио: lossless
Продолжительность: 2:37:02
Источник: собственный рип
Наличие сканов в содержимом раздачи: да
Исполнители:
Fairy Queen:
Jennifer Vyvyan (1 Soprano)
Mary Wells (2 Soprano)
Norma Burrowes (3 Soprano)
Peter Pears (1 Tenor)
Ian Partridge (2 Tenor)
Charles Brett (1 Counter Tenor)
James Bowman (2 Counter Tenor)
Alfreda Hodgson (Mezzo Soprano)
John Shirley-Quirk (Baritone)
Owen Brannigan (Bass)
English Chamber Orchestra, Ambrosian Opera Chorus
Conductor: Benjamin Britten
Dido and Aeneas:
Dame Janet Baker (Dido / Mezzo Soprano)
Norma Burrowes (Belinda / Soprano)
Felicity Lott (2 Woman / Soprano)
Peter Pears (Aeneas / Tenor)
Anna Reynolds (Sorceress/ Mezzo Soprano)
Felicity Palmer (1 Witch/ Soprano)
Alfreda Hodgson (2 Witch / Mezzo Soprano)
Robert Tear (1 Sailor / Tenor)
London Opera Chorus, Aldeburgh Festival Orchestra
Conductor: Steuart Bedford
Треклист:

CD1: The Fairy Queen

The Fairy Queen, semi-opera, Z. 629
1 Part 1. Oberon's Birthday. Symphony 6:54
2 Now the night is chas'd away 2:42
3 Let the fifes and the clarions 2:05
4 When a cruel long winter 2:51
5 Hail! great parent 2:17
6 Thus the ever grateful Spring 2:49
7 Here's the Summer, sprightly, gay 1:15
8 See, my many-coloured fields 3:02
9 Next, Winter comes slowly 2:58
10 Hail! great parent 2:18
11 Part 2. Night and Silence. Prelude 2:32
12 The Songsters/May the God of Wit inspire 1:57
13 Echo/Now join your warbling voices all 2:15
14 Fill up the bowl, then 6:37
15 See, even Night herself is here 5:24
16 I am come to lock all fast 0:43
17 One charming night 2:16
18 Hush, no more 4:04
19 Dance 1:27
20 Part 3. The Sweet Passion. Overture 1:45
21 Part 3. The Sweet Passion. If love's a sweet passion 2:41
22 The Plaint: O let me weep, for ever weep! 7:50
23 Now the maids and the men 3:44
24 A Dance of Haymakers 0:56
25 A thousand, thousand ways 3:07
26 Hornpipe & Rondeau 2:33

CD2: The Fairy Queen (cont.) & Dido and Aeneas

The Fairy Queen, semi-opera, Z. 629
1 Symphony 1:28
2 Hark! Hark! the echoing air 2:30
3 Sure the dull God of Marriage 2:26
4 See, I obey 1:50
5 Turn then thine eyes 1:10
6 My torch indeed... they shall be as happy 2:57
7 Chaconne 3:34
8 They shall be as happy 0:55
Dido and Aeneas, opera, Z. 626
9 Overture 2:14
10 Act 1. Shake the cloud from off your brow 1:09
11 Ah! Belinda I am prest with torment 5:16
12 Whence could so much virtue spring?" 2:06
13 Fear no danger to ensue 1:36
14 See, your royal guest appears 5:14
15 Prelude for the Witches - Wayward sisters 3:19
16 Ruin'd ere the set of sun? 5:29
17 Act 2. Ritornelle - Thanks to these lonesome vales 3:45
18 Oft she visits this lov'd mountain 2:29
19 Behold, upon my bending spear 1:20
20 Stay, Prince, and hear great Jove's command 6:05
21 Prelude - Come away, fellow sailors 2:18
22 See, the flags and streamers curling 2:19
23 Your counsel all is urg'd in vain 3:40
24 But death, alas!... When I am laid in earth 6:29
25 With drooping wings ye Cupids come 4:59

Лог создания рипа

Лог создания рипа CD1

Exact Audio Copy V1.0 beta 2 from 29. April 2011
EAC extraction logfile from 30. November 2014, 10:08
Britten / Bedford / The Fairy Queen - Dido and Aeneas CD1
Used drive : _NEC DVD_RW ND-3551A Adapter: 0 ID: 0
Read mode : Secure
Utilize accurate stream : Yes
Defeat audio cache : Yes
Make use of C2 pointers : No
Read offset correction : 48
Overread into Lead-In and Lead-Out : No
Fill up missing offset samples with silence : Yes
Delete leading and trailing silent blocks : No
Null samples used in CRC calculations : Yes
Used interface : Native Win32 interface for Win NT & 2000
Used output format : User Defined Encoder
Selected bitrate : 128 kBit/s
Quality : High
Add ID3 tag : No
Command line compressor : D:\Program Files\Exact Audio Copy\Flac\flac.exe
Additional command line options : -V -8 -T "Date=%year%" -T "Genre=%genre%" %source%
TOC of the extracted CD
Track | Start | Length | Start sector | End sector
---------------------------------------------------------
1 | 0:00.00 | 6:53.47 | 0 | 31021
2 | 6:53.47 | 2:42.11 | 31022 | 43182
3 | 9:35.58 | 2:05.11 | 43183 | 52568
4 | 11:40.69 | 2:50.43 | 52569 | 65361
5 | 14:31.37 | 2:16.38 | 65362 | 75599
6 | 16:48.00 | 2:48.50 | 75600 | 88249
7 | 19:36.50 | 1:14.54 | 88250 | 93853
8 | 20:51.29 | 3:01.43 | 93854 | 107471
9 | 23:52.72 | 2:58.30 | 107472 | 120851
10 | 26:51.27 | 2:22.48 | 120852 | 131549
11 | 29:14.00 | 2:32.18 | 131550 | 142967
12 | 31:46.18 | 1:57.32 | 142968 | 151774
13 | 33:43.50 | 2:14.70 | 151775 | 161894
14 | 35:58.45 | 6:37.00 | 161895 | 191669
15 | 42:35.45 | 5:24.00 | 191670 | 215969
16 | 47:59.45 | 0:42.68 | 215970 | 219187
17 | 48:42.38 | 2:15.67 | 219188 | 229379
18 | 50:58.30 | 4:04.22 | 229380 | 247701
19 | 55:02.52 | 1:32.23 | 247702 | 254624
20 | 56:35.00 | 1:44.70 | 254625 | 262494
21 | 58:19.70 | 2:40.45 | 262495 | 274539
22 | 61:00.40 | 7:50.35 | 274540 | 309824
23 | 68:51.00 | 3:43.58 | 309825 | 326607
24 | 72:34.58 | 0:55.57 | 326608 | 330789
25 | 73:30.40 | 3:06.40 | 330790 | 344779
26 | 76:37.05 | 2:33.15 | 344780 | 356269
Range status and errors
Selected range
Filename C:\RIP\Purcell - The Fairy Queen (CD1).wav
Peak level 98.7 %
Extraction speed 3.0 X
Range quality 99.9 %
Test CRC C80B574A
Copy CRC C80B574A
Copy OK
No errors occurred
AccurateRip summary
Track 1 accurately ripped (confidence 5) [CBEADBF3] (AR v2)
Track 2 accurately ripped (confidence 5) [0454C0C7] (AR v2)
Track 3 accurately ripped (confidence 5) [C631F525] (AR v2)
Track 4 accurately ripped (confidence 5) [03FF57A6] (AR v2)
Track 5 accurately ripped (confidence 5) [4E9C068F] (AR v2)
Track 6 accurately ripped (confidence 5) [99E48645] (AR v2)
Track 7 accurately ripped (confidence 5) [89389DCA] (AR v2)
Track 8 accurately ripped (confidence 5) [6734A14F] (AR v2)
Track 9 accurately ripped (confidence 5) [3A13C8BA] (AR v2)
Track 10 accurately ripped (confidence 5) [0781A0B5] (AR v2)
Track 11 accurately ripped (confidence 5) [7A6A382D] (AR v2)
Track 12 accurately ripped (confidence 5) [C54AB34E] (AR v2)
Track 13 accurately ripped (confidence 5) [22268495] (AR v2)
Track 14 accurately ripped (confidence 5) [DA90E8D0] (AR v2)
Track 15 accurately ripped (confidence 5) [DA45B819] (AR v2)
Track 16 accurately ripped (confidence 5) [43A6226B] (AR v2)
Track 17 accurately ripped (confidence 5) [99426D63] (AR v2)
Track 18 accurately ripped (confidence 5) [863255A1] (AR v2)
Track 19 accurately ripped (confidence 5) [257CCA1F] (AR v2)
Track 20 accurately ripped (confidence 5) [EDB62632] (AR v2)
Track 21 accurately ripped (confidence 5) [DA713CDD] (AR v2)
Track 22 accurately ripped (confidence 5) [262C7BEE] (AR v2)
Track 23 accurately ripped (confidence 5) [E341AA1C] (AR v2)
Track 24 accurately ripped (confidence 5) [807BF245] (AR v2)
Track 25 accurately ripped (confidence 5) [96ADC1DE] (AR v2)
Track 26 accurately ripped (confidence 5) [946CFFB5] (AR v2)
All tracks accurately ripped
End of status report
==== Log checksum 2418565CA65C8AF3E4CB2C27EDA0A140B1034D1DC6DC92C29F2877FBC83CB2B2 ====

Лог создания рипа CD2

Exact Audio Copy V1.0 beta 2 from 29. April 2011
EAC extraction logfile from 30. November 2014, 11:01
Britten / Bedford / The Fairy Queen - Dido and Aeneas Disc 2
Used drive : _NEC DVD_RW ND-3551A Adapter: 0 ID: 0
Read mode : Secure
Utilize accurate stream : Yes
Defeat audio cache : Yes
Make use of C2 pointers : No
Read offset correction : 48
Overread into Lead-In and Lead-Out : No
Fill up missing offset samples with silence : Yes
Delete leading and trailing silent blocks : No
Null samples used in CRC calculations : Yes
Used interface : Native Win32 interface for Win NT & 2000
Used output format : User Defined Encoder
Selected bitrate : 128 kBit/s
Quality : High
Add ID3 tag : No
Command line compressor : D:\Program Files\Exact Audio Copy\Flac\flac.exe
Additional command line options : -V -8 -T "Date=%year%" -T "Genre=%genre%" %source%
TOC of the extracted CD
Track | Start | Length | Start sector | End sector
---------------------------------------------------------
1 | 0:00.00 | 1:28.32 | 0 | 6631
2 | 1:28.32 | 2:29.72 | 6632 | 17878
3 | 3:58.29 | 2:25.61 | 17879 | 28814
4 | 6:24.15 | 1:50.25 | 28815 | 37089
5 | 8:14.40 | 1:10.15 | 37090 | 42354
6 | 9:24.55 | 2:57.33 | 42355 | 55662
7 | 12:22.13 | 3:33.62 | 55663 | 71699
8 | 15:56.00 | 1:05.58 | 71700 | 76632
9 | 17:01.58 | 2:17.38 | 76633 | 86945
10 | 19:19.21 | 1:09.10 | 86946 | 92130
11 | 20:28.31 | 5:15.54 | 92131 | 115809
12 | 25:44.10 | 2:06.10 | 115810 | 125269
13 | 27:50.20 | 1:36.08 | 125270 | 132477
14 | 29:26.28 | 5:13.39 | 132478 | 155991
15 | 34:39.67 | 3:19.05 | 155992 | 170921
16 | 37:58.72 | 5:28.57 | 170922 | 195578
17 | 43:27.54 | 3:44.46 | 195579 | 212424
18 | 47:12.25 | 2:29.02 | 212425 | 223601
19 | 49:41.27 | 1:20.09 | 223602 | 229610
20 | 51:01.36 | 6:05.18 | 229611 | 257003
21 | 57:06.54 | 2:17.61 | 257004 | 267339
22 | 59:24.40 | 3:19.24 | 267340 | 282288
23 | 62:43.64 | 3:40.07 | 282289 | 298795
24 | 66:23.71 | 6:29.24 | 298796 | 327994
25 | 72:53.20 | 4:59.18 | 327995 | 350437
Range status and errors
Selected range
Filename C:\RIP\Purcell - The Fairy Queen (CD2).wav
Peak level 100.0 %
Extraction speed 3.0 X
Range quality 100.0 %
Copy CRC C404BFB5
Copy OK
No errors occurred
AccurateRip summary
Track 1 accurately ripped (confidence 2) [9DCA24C4] (AR v2)
Track 2 accurately ripped (confidence 2) [09497A4D] (AR v2)
Track 3 accurately ripped (confidence 2) [BFFAEB07] (AR v2)
Track 4 accurately ripped (confidence 2) [E3E520D1] (AR v2)
Track 5 accurately ripped (confidence 2) [59834BF3] (AR v2)
Track 6 accurately ripped (confidence 2) [F7984495] (AR v2)
Track 7 accurately ripped (confidence 2) [BB097E9B] (AR v2)
Track 8 accurately ripped (confidence 2) [89025E13] (AR v2)
Track 9 accurately ripped (confidence 2) [009A1695] (AR v2)
Track 10 accurately ripped (confidence 2) [B3414D74] (AR v2)
Track 11 accurately ripped (confidence 2) [52E376E6] (AR v2)
Track 12 accurately ripped (confidence 2) [35B1F6E7] (AR v2)
Track 13 accurately ripped (confidence 2) [908B4840] (AR v2)
Track 14 accurately ripped (confidence 2) [FDC817E6] (AR v2)
Track 15 accurately ripped (confidence 2) [B335B6F0] (AR v2)
Track 16 accurately ripped (confidence 2) [75DCB41F] (AR v2)
Track 17 accurately ripped (confidence 2) [11794847] (AR v2)
Track 18 accurately ripped (confidence 2) [EBCEBAF8] (AR v2)
Track 19 accurately ripped (confidence 2) [CC08286D] (AR v2)
Track 20 accurately ripped (confidence 2) [686FC2CD] (AR v2)
Track 21 accurately ripped (confidence 2) [76AD8C5C] (AR v2)
Track 22 accurately ripped (confidence 2) [2056A851] (AR v2)
Track 23 accurately ripped (confidence 2) [3E78B027] (AR v2)
Track 24 accurately ripped (confidence 2) [0EC7D93D] (AR v2)
Track 25 accurately ripped (confidence 2) [87631F00] (AR v2)
All tracks accurately ripped
End of status report
==== Log checksum 337982FE9D352E22789C97E5EE1EF6465A26F2CD583A0033004D451792C40462 ====



Показать сообщения:    

Текущее время: 08-Дек 01:17

Часовой пояс: UTC + 3


Вы не можете начинать темы
Вы не можете отвечать на сообщения
Вы не можете редактировать свои сообщения
Вы не можете удалять свои сообщения
Вы не можете голосовать в опросах
Вы не можете прикреплять файлы к сообщениям
Вы не можете скачивать файлы