(Opera) Bellini - Norma - Souliotis, Del Monaco, Cossotto, Cava - Varviso - 2014, APE (image+.cue) lossless


 

[Цитировать]

Bellini - Norma - Souliotis, Del Monaco, Cossotto, Cava - Varviso - 2014, APE (image+.cue) lossless
Жанр: Opera
Страна-производитель диска: Australia
Год издания диска: 2014
Издатель (лейбл): Decca
Номер по каталогу: 480 7277
Дата записи: 1967
Аудиокодек: APE
Тип рипа: image+.cue
Битрейт аудио: lossless
Продолжительность: 125:46
Источник: собственный рип
Наличие сканов в содержимом раздачи: нет

Исполнители

Conductor - Silvio VarvisoOrchestra e Coro dell'Accademia Nazionale di Santa Cecilia
Norma - Elena SouliotisAdalgisa - Fiorenza CossottoPollione - Mario Del MonacoOroveso - Carlo CavaClotilde - Giuliana TavolacciniFlavio - Athos Cesarini

ТреклистCD1

01 Sinfonia02 Act I, Scene 1 - Ite sul colle, O Druidi03 Act I, Scene 1 - Svanir le voci!04 Act I, Scene 1 - Meco all'altar di Venere05 Act I, Scene 1 - Me protegge, me difende06 Act I, Scene 1 - Norma viene07 Act I, Scene 1 - Sediziose voci, voci di guerra08 Act I, Scene 1 - Casta Diva09 Act I, Scene 1 - Fine al rito10 Act I, Scene 1 - Ah! bello a me ritorna11 Act I, Scene 1 - Sgombra e la sacra selva, compuito il rito12 Act I, Scene 1 - Deh! proteggimi, o Dio!13 Act I, Scene 1 - Eccola! va, mi lascia, ragion non odo14 Act I, Scene 1 - Va, crudele, al Dio spietato

CD2

01 Act I, Scene 2 - Vanne, e li cela entrambi02 Act I, Scene 2 - Adalgisa!03 Act I, Scene 2 - Oh! rimembranza!04 Act I, Scene 2 - Ah! si, fa core, abbracciami05 Act I, Scene 2 - Ma di' ... l'amato giovane?06 Act I, Scene 2 - Oh non tremare07 Act I, Scene 2 - Oh! di qual sei tu vittima08 Act I, Scene 2 - Norma! de' tuoi rimproveri09 Act I, Scene 2 - Perfido!10 Act I, Scene 2 - Vanne, si, mi lascia, indegno11 Act II, Scene 1 - Introduzione12 Act II, Scene 1 - Dormono entrambi13 Act II, Scene 1 - Mi chiami, o Norma!14 Act II, Scene 1 - Deh! con te, con te li prendi15 Act II, Scene 1 - Mira, o Norma16 Act II, Scene 1 - Si, fino all'ore estreme17 Act II, Scene 2 - Ei tornera18 Act II, Scene 2 - Squilla il bronzo del Dio!19 Act II, Scene 2 - Guerra, guerra!20 Act II, Scene 2 - Ne compi il rito, o Norma?21 Act II, Scene 2 - In mia man alfin tu sei22 Act II, Scene 2 - Dammi qual ferro23 Act II, Scene 2 - Qual cor tradisti, qual cor perdesti24 Act II, Scene 2 - Deh! non volerli vittime

Лог создания рипаCD1

Exact Audio Copy V1.0 beta 3 from 29. August 2011
EAC extraction logfile from 24. November 2014, 22:20
Souliotis, Del Monaco, Cossotto, Cava - Silvio Varviso - Coro e Orchestra dell'Accademia di Santa Cecilia di Roma / Bellini: Norma - CD1
Used drive : TS8XDVDRTranscend Adapter: 2 ID: 1
Read mode : SecureUtilize accurate stream : YesDefeat audio cache : YesMake use of C2 pointers : No
Read offset correction : 6Overread into Lead-In and Lead-Out : NoFill up missing offset samples with silence : YesDelete leading and trailing silent blocks : NoNull samples used in CRC calculations : YesUsed interface : Native Win32 interface for Win NT & 2000
Used output format : Monkey's Audio Lossless EncoderSelected bitrate : Normal Lossless CompressionQuality : HighAdd ID3 tag : YesCommand line compressor : C:\Program Files (x86)\Monkey's Audio\MAC.exeAdditional command line options : %source% %dest% -c3000
TOC of the extracted CD
Track | Start | Length | Start sector | End sector --------------------------------------------------------- 1 | 0:00.00 | 5:33.57 | 0 | 25031 2 | 5:33.57 | 4:09.55 | 25032 | 43761 3 | 9:43.37 | 2:46.43 | 43762 | 56254 4 | 12:30.05 | 3:49.67 | 56255 | 73496 5 | 16:19.72 | 1:29.35 | 73497 | 80206 6 | 17:49.32 | 2:16.35 | 80207 | 90441 7 | 20:05.67 | 4:07.63 | 90442 | 109029 8 | 24:13.55 | 6:07.47 | 109030 | 136601 9 | 30:21.27 | 1:13.03 | 136602 | 142079 10 | 31:34.30 | 2:47.22 | 142080 | 154626 11 | 34:21.52 | 3:24.00 | 154627 | 169926 12 | 37:45.52 | 1:51.50 | 169927 | 178301 13 | 39:37.27 | 1:43.10 | 178302 | 186036 14 | 41:20.37 | 8:04.63 | 186037 | 222399
Range status and errors
Selected range
Filename C:\Users\Alex\Music\Bellini - NORMA - Souliotis, Del Monaco, Cossotto - Varviso (1967)\CD1.wav
Peak level 87.0 % Extraction speed 1.6 X Range quality 100.0 % Test CRC CB251564 Copy CRC CB251564 Copy OK
No errors occurred
AccurateRip summary
Track 1 not present in databaseTrack 2 not present in databaseTrack 3 not present in databaseTrack 4 not present in databaseTrack 5 not present in databaseTrack 6 not present in databaseTrack 7 not present in databaseTrack 8 not present in databaseTrack 9 not present in databaseTrack 10 not present in databaseTrack 11 not present in databaseTrack 12 not present in databaseTrack 13 not present in databaseTrack 14 not present in database
None of the tracks are present in the AccurateRip database
End of status report
==== Log checksum 2F5FB2BC1AEBF9F6D4DF9C71FC0D12575676874A1716039D00D99AAF3B1E65C7 ====

CD2

Exact Audio Copy V1.0 beta 3 from 29. August 2011
EAC extraction logfile from 24. November 2014, 23:04
Souliotis, Del Monaco, Cossotto, Cava - Silvio Varviso - Coro e Orchestra dell'Accademia di Santa Cecilia di Roma / Bellini: Norma - CD2
Used drive : TS8XDVDRTranscend Adapter: 2 ID: 1
Read mode : SecureUtilize accurate stream : YesDefeat audio cache : YesMake use of C2 pointers : No
Read offset correction : 6Overread into Lead-In and Lead-Out : NoFill up missing offset samples with silence : YesDelete leading and trailing silent blocks : NoNull samples used in CRC calculations : YesUsed interface : Native Win32 interface for Win NT & 2000
Used output format : Monkey's Audio Lossless EncoderSelected bitrate : Normal Lossless CompressionQuality : HighAdd ID3 tag : YesCommand line compressor : C:\Program Files (x86)\Monkey's Audio\MAC.exeAdditional command line options : %source% %dest% -c3000
TOC of the extracted CD
Track | Start | Length | Start sector | End sector --------------------------------------------------------- 1 | 0:00.00 | 4:19.50 | 0 | 19474 2 | 4:19.50 | 3:13.27 | 19475 | 33976 3 | 7:33.02 | 4:27.20 | 33977 | 54021 4 | 12:00.22 | 3:05.28 | 54022 | 67924 5 | 15:05.50 | 1:26.60 | 67925 | 74434 6 | 16:32.35 | 1:28.65 | 74435 | 81099 7 | 18:01.25 | 1:10.40 | 81100 | 86389 8 | 19:11.65 | 2:36.05 | 86390 | 98094 9 | 21:47.70 | 1:17.60 | 98095 | 103929 10 | 23:05.55 | 1:52.45 | 103930 | 112374 11 | 24:58.25 | 3:17.15 | 112375 | 127164 12 | 28:15.40 | 5:12.15 | 127165 | 150579 13 | 33:27.55 | 2:30.70 | 150580 | 161899 14 | 35:58.50 | 3:52.50 | 161900 | 179349 15 | 39:51.25 | 4:45.07 | 179350 | 200731 16 | 44:36.32 | 2:02.43 | 200732 | 209924 17 | 46:39.00 | 4:04.47 | 209925 | 228271 18 | 50:43.47 | 1:23.20 | 228272 | 234516 19 | 52:06.67 | 1:06.60 | 234517 | 239526 20 | 53:13.52 | 3:51.53 | 239527 | 256904 21 | 57:05.30 | 6:04.12 | 256905 | 284216 22 | 63:09.42 | 3:04.10 | 284217 | 298026 23 | 66:13.52 | 5:51.23 | 298027 | 324374 24 | 72:05.00 | 4:16.25 | 324375 | 343599
Range status and errors
Selected range
Filename C:\Users\Alex\Music\Bellini - NORMA - Souliotis, Del Monaco, Cossotto - Varviso (1967)\CD2.wav
Peak level 86.9 % Extraction speed 4.4 X Range quality 100.0 % Test CRC B5E6C422 Copy CRC B5E6C422 Copy OK
No errors occurred
AccurateRip summary
Track 1 not present in databaseTrack 2 not present in databaseTrack 3 not present in databaseTrack 4 not present in databaseTrack 5 not present in databaseTrack 6 not present in databaseTrack 7 not present in databaseTrack 8 not present in databaseTrack 9 not present in databaseTrack 10 not present in databaseTrack 11 not present in databaseTrack 12 not present in databaseTrack 13 not present in databaseTrack 14 not present in databaseTrack 15 not present in databaseTrack 16 not present in databaseTrack 17 not present in databaseTrack 18 not present in databaseTrack 19 not present in databaseTrack 20 not present in databaseTrack 21 not present in databaseTrack 22 not present in databaseTrack 23 not present in databaseTrack 24 not present in database
None of the tracks are present in the AccurateRip database
End of status report
==== Log checksum 9BF0E988974E85D0F2ADE9447914A9A00B0A08AC6F969FFA55D3D3B1728BD7B0 ====

Содержание индексной карты (.CUE)CD1

CD1REM GENRE OperaREM DATE 1967REM DISCID C80B950EREM COMMENT "ExactAudioCopy v1.0b3"PERFORMER "Souliotis, Del Monaco, Cossotto, Cava - Silvio Varviso - Coro e Orchestra dell'Accademia di Santa Cecilia di Roma"TITLE "Bellini: Norma - CD1"FILE "CD1.ape" WAVE TRACK 01 AUDIO TITLE "Sinfonia" PERFORMER "Souliotis, Del Monaco, Cossotto, Cava - Silvio Varviso - Coro e Orchestra dell'Accademia di Santa Cecilia di Roma" INDEX 01 00:00:00 TRACK 02 AUDIO TITLE "Act I, Scene 1 - Ite sul colle, O Druidi" PERFORMER "Souliotis, Del Monaco, Cossotto, Cava - Silvio Varviso - Coro e Orchestra dell'Accademia di Santa Cecilia di Roma" INDEX 01 05:33:57 TRACK 03 AUDIO TITLE "Act I, Scene 1 - Svanir le voci!" PERFORMER "Souliotis, Del Monaco, Cossotto, Cava - Silvio Varviso - Coro e Orchestra dell'Accademia di Santa Cecilia di Roma" INDEX 01 09:43:37 TRACK 04 AUDIO TITLE "Act I, Scene 1 - Meco all'altar di Venere" PERFORMER "Souliotis, Del Monaco, Cossotto, Cava - Silvio Varviso - Coro e Orchestra dell'Accademia di Santa Cecilia di Roma" INDEX 01 12:30:05 TRACK 05 AUDIO TITLE "Act I, Scene 1 - Me protegge, me difende" PERFORMER "Souliotis, Del Monaco, Cossotto, Cava - Silvio Varviso - Coro e Orchestra dell'Accademia di Santa Cecilia di Roma" INDEX 01 16:19:72 TRACK 06 AUDIO TITLE "Act I, Scene 1 - Norma viene" PERFORMER "Souliotis, Del Monaco, Cossotto, Cava - Silvio Varviso - Coro e Orchestra dell'Accademia di Santa Cecilia di Roma" INDEX 01 17:49:32 TRACK 07 AUDIO TITLE "Act I, Scene 1 - Sediziose voci, voci di guerra" PERFORMER "Souliotis, Del Monaco, Cossotto, Cava - Silvio Varviso - Coro e Orchestra dell'Accademia di Santa Cecilia di Roma" INDEX 01 20:05:67 TRACK 08 AUDIO TITLE "Act I, Scene 1 - Casta Diva" PERFORMER "Souliotis, Del Monaco, Cossotto, Cava - Silvio Varviso - Coro e Orchestra dell'Accademia di Santa Cecilia di Roma" INDEX 01 24:13:55 TRACK 09 AUDIO TITLE "Act I, Scene 1 - Fine al rito" PERFORMER "Souliotis, Del Monaco, Cossotto, Cava - Silvio Varviso - Coro e Orchestra dell'Accademia di Santa Cecilia di Roma" INDEX 01 30:21:27 TRACK 10 AUDIO TITLE "Act I, Scene 1 - Ah! bello a me ritorna" PERFORMER "Souliotis, Del Monaco, Cossotto, Cava - Silvio Varviso - Coro e Orchestra dell'Accademia di Santa Cecilia di Roma" INDEX 01 31:34:30 TRACK 11 AUDIO TITLE "Act I, Scene 1 - Sgombra e la sacra selva, compuito il rito" PERFORMER "Souliotis, Del Monaco, Cossotto, Cava - Silvio Varviso - Coro e Orchestra dell'Accademia di Santa Cecilia di Roma" INDEX 01 34:21:52 TRACK 12 AUDIO TITLE "Act I, Scene 1 - Deh! proteggimi, o Dio!" PERFORMER "Souliotis, Del Monaco, Cossotto, Cava - Silvio Varviso - Coro e Orchestra dell'Accademia di Santa Cecilia di Roma" INDEX 01 37:45:52 TRACK 13 AUDIO TITLE "Act I, Scene 1 - Eccola! va, mi lascia, ragion non odo" PERFORMER "Souliotis, Del Monaco, Cossotto, Cava - Silvio Varviso - Coro e Orchestra dell'Accademia di Santa Cecilia di Roma" INDEX 01 39:37:27 TRACK 14 AUDIO TITLE "Act I, Scene 1 - Va, crudele, al Dio spietato" PERFORMER "Souliotis, Del Monaco, Cossotto, Cava - Silvio Varviso - Coro e Orchestra dell'Accademia di Santa Cecilia di Roma" INDEX 01 41:20:37

CD2

REM GENRE OperaREM DATE 1967REM DISCID 5D11E518REM COMMENT "ExactAudioCopy v1.0b3"PERFORMER "Souliotis, Del Monaco, Cossotto, Cava - Silvio Varviso - Coro e Orchestra dell'Accademia di Santa Cecilia di Roma"TITLE "Bellini: Norma - CD2"FILE "CD2.ape" WAVE TRACK 01 AUDIO TITLE "Act I, Scene 2 - Vanne, e li cela entrambi" PERFORMER "Souliotis, Del Monaco, Cossotto, Cava - Silvio Varviso - Coro e Orchestra dell'Accademia di Santa Cecilia di Roma" INDEX 01 00:00:00 TRACK 02 AUDIO TITLE "Act I, Scene 2 - Adalgisa!" PERFORMER "Souliotis, Del Monaco, Cossotto, Cava - Silvio Varviso - Coro e Orchestra dell'Accademia di Santa Cecilia di Roma" INDEX 01 04:19:50 TRACK 03 AUDIO TITLE "Act I, Scene 2 - Oh! rimembranza!" PERFORMER "Souliotis, Del Monaco, Cossotto, Cava - Silvio Varviso - Coro e Orchestra dell'Accademia di Santa Cecilia di Roma" INDEX 01 07:33:02 TRACK 04 AUDIO TITLE "Act I, Scene 2 - Ah! si, fa core, abbracciami" PERFORMER "Souliotis, Del Monaco, Cossotto, Cava - Silvio Varviso - Coro e Orchestra dell'Accademia di Santa Cecilia di Roma" INDEX 01 12:00:22 TRACK 05 AUDIO TITLE "Act I, Scene 2 - Ma di' ... l'amato giovane?" PERFORMER "Souliotis, Del Monaco, Cossotto, Cava - Silvio Varviso - Coro e Orchestra dell'Accademia di Santa Cecilia di Roma" INDEX 00 15:04:66 INDEX 01 15:05:50 TRACK 06 AUDIO TITLE "Act I, Scene 2 - Oh non tremare" PERFORMER "Souliotis, Del Monaco, Cossotto, Cava - Silvio Varviso - Coro e Orchestra dell'Accademia di Santa Cecilia di Roma" INDEX 01 16:32:35 TRACK 07 AUDIO TITLE "Act I, Scene 2 - Oh! di qual sei tu vittima" PERFORMER "Souliotis, Del Monaco, Cossotto, Cava - Silvio Varviso - Coro e Orchestra dell'Accademia di Santa Cecilia di Roma" INDEX 01 18:01:25 TRACK 08 AUDIO TITLE "Act I, Scene 2 - Norma! de' tuoi rimproveri" PERFORMER "Souliotis, Del Monaco, Cossotto, Cava - Silvio Varviso - Coro e Orchestra dell'Accademia di Santa Cecilia di Roma" INDEX 01 19:11:65 TRACK 09 AUDIO TITLE "Act I, Scene 2 - Perfido!" PERFORMER "Souliotis, Del Monaco, Cossotto, Cava - Silvio Varviso - Coro e Orchestra dell'Accademia di Santa Cecilia di Roma" INDEX 01 21:47:70 TRACK 10 AUDIO TITLE "Act I, Scene 2 - Vanne, si, mi lascia, indegno" PERFORMER "Souliotis, Del Monaco, Cossotto, Cava - Silvio Varviso - Coro e Orchestra dell'Accademia di Santa Cecilia di Roma" INDEX 01 23:05:55 TRACK 11 AUDIO TITLE "Act II, Scene 1 - Introduzione" PERFORMER "Souliotis, Del Monaco, Cossotto, Cava - Silvio Varviso - Coro e Orchestra dell'Accademia di Santa Cecilia di Roma" INDEX 00 24:55:18 INDEX 01 24:58:25 TRACK 12 AUDIO TITLE "Act II, Scene 1 - Dormono entrambi" PERFORMER "Souliotis, Del Monaco, Cossotto, Cava - Silvio Varviso - Coro e Orchestra dell'Accademia di Santa Cecilia di Roma" INDEX 01 28:15:40 TRACK 13 AUDIO TITLE "Act II, Scene 1 - Mi chiami, o Norma!" PERFORMER "Souliotis, Del Monaco, Cossotto, Cava - Silvio Varviso - Coro e Orchestra dell'Accademia di Santa Cecilia di Roma" INDEX 01 33:27:55 TRACK 14 AUDIO TITLE "Act II, Scene 1 - Deh! con te, con te li prendi" PERFORMER "Souliotis, Del Monaco, Cossotto, Cava - Silvio Varviso - Coro e Orchestra dell'Accademia di Santa Cecilia di Roma" INDEX 01 35:58:50 TRACK 15 AUDIO TITLE "Act II, Scene 1 - Mira, o Norma" PERFORMER "Souliotis, Del Monaco, Cossotto, Cava - Silvio Varviso - Coro e Orchestra dell'Accademia di Santa Cecilia di Roma" INDEX 01 39:51:25 TRACK 16 AUDIO TITLE "Act II, Scene 1 - Si, fino all'ore estreme" PERFORMER "Souliotis, Del Monaco, Cossotto, Cava - Silvio Varviso - Coro e Orchestra dell'Accademia di Santa Cecilia di Roma" INDEX 01 44:36:32 TRACK 17 AUDIO TITLE "Act II, Scene 2 - Ei tornera" PERFORMER "Souliotis, Del Monaco, Cossotto, Cava - Silvio Varviso - Coro e Orchestra dell'Accademia di Santa Cecilia di Roma" INDEX 01 46:39:00 TRACK 18 AUDIO TITLE "Act II, Scene 2 - Squilla il bronzo del Dio!" PERFORMER "Souliotis, Del Monaco, Cossotto, Cava - Silvio Varviso - Coro e Orchestra dell'Accademia di Santa Cecilia di Roma" INDEX 01 50:43:47 TRACK 19 AUDIO TITLE "Act II, Scene 2 - Guerra, guerra!" PERFORMER "Souliotis, Del Monaco, Cossotto, Cava - Silvio Varviso - Coro e Orchestra dell'Accademia di Santa Cecilia di Roma" INDEX 01 52:06:67 TRACK 20 AUDIO TITLE "Act II, Scene 2 - Ne compi il rito, o Norma?" PERFORMER "Souliotis, Del Monaco, Cossotto, Cava - Silvio Varviso - Coro e Orchestra dell'Accademia di Santa Cecilia di Roma" INDEX 01 53:13:52 TRACK 21 AUDIO TITLE "Act II, Scene 2 - In mia man alfin tu sei" PERFORMER "Souliotis, Del Monaco, Cossotto, Cava - Silvio Varviso - Coro e Orchestra dell'Accademia di Santa Cecilia di Roma" INDEX 01 57:05:30 TRACK 22 AUDIO TITLE "Act II, Scene 2 - Dammi qual ferro" PERFORMER "Souliotis, Del Monaco, Cossotto, Cava - Silvio Varviso - Coro e Orchestra dell'Accademia di Santa Cecilia di Roma" INDEX 01 63:09:42 TRACK 23 AUDIO TITLE "Act II, Scene 2 - Qual cor tradisti, qual cor perdesti" PERFORMER "Souliotis, Del Monaco, Cossotto, Cava - Silvio Varviso - Coro e Orchestra dell'Accademia di Santa Cecilia di Roma" INDEX 01 66:13:52 TRACK 24 AUDIO TITLE "Act II, Scene 2 - Deh! non volerli vittime" PERFORMER "Souliotis, Del Monaco, Cossotto, Cava - Silvio Varviso - Coro e Orchestra dell'Accademia di Santa Cecilia di Roma" INDEX 01 72:05:00



Показать сообщения:    

Текущее время: 11-Дек 05:21

Часовой пояс: UTC + 3


Вы не можете начинать темы
Вы не можете отвечать на сообщения
Вы не можете редактировать свои сообщения
Вы не можете удалять свои сообщения
Вы не можете голосовать в опросах
Вы не можете прикреплять файлы к сообщениям
Вы не можете скачивать файлы