(Opera) Giordano - Fedora (Caniglia, Prandelli, Columbo, Piccini, Capozzi - Orchestra Lirica della RAI di Milano, Rossi) - 2001, APE (image+.cue) lossless


 

[Цитировать]

Umberto Giordano (1867-1948) - Fedora
Жанр: Opera
Страна-производитель диска: EU
Год издания диска: 2001
Издатель (лейбл): Mondo Musica
Номер по каталогу: MMO 91105
Дата записи: 1950
Аудиокодек: APE
Тип рипа: image+.cue
Битрейт аудио: lossless
Продолжительность: 61'49+32'53
Источник: собственный рип
Наличие сканов в содержимом раздачи: да
Треклист:
CD1
1. Act I
2. Act II
3. Act II
4. Act II
5. Act II
CD2
1. Act III
2. Act III
Исполнители:
Umberto Giordano (1867-1948) - Fedora
La Principessa Fedora Romanoff - Maria Caniglia, soprano
Il Conte Loris Ipanoff - Giacinto Prandelli, tenor
De Siriex - Scipio Columbo, bariton
La Contessa Olga Sukarev - Carmen Piccini, soprano
Il Barone Rouvel - Aldo Bertocci, tenor
Dmitri - Gilda Capozzi, contralto
Coro Lirica della RAI di Milano
Orchestra Lirica della RAI di Milano
Mario Rossi, conductor

Лог создания рипа

CD1

Exact Audio Copy V1.0 beta 3 from 29. August 2011
EAC extraction logfile from 2. September 2014, 0:35
Giordano / Fedora, Rossi CD1
Used drive : TS8XDVDSTRANSCEND Adapter: 1 ID: 1
Read mode : Secure
Utilize accurate stream : Yes
Defeat audio cache : Yes
Make use of C2 pointers : No
Read offset correction : 6
Overread into Lead-In and Lead-Out : No
Fill up missing offset samples with silence : Yes
Delete leading and trailing silent blocks : No
Null samples used in CRC calculations : Yes
Used interface : Native Win32 interface for Win NT & 2000
Used output format : Monkey's Audio Lossless Encoder
Selected bitrate : High Lossless Compression
Quality : High
Add ID3 tag : No
Command line compressor : C:\Program Files (x86)\Exact Audio Copy\MAC\MAC.exe
TOC of the extracted CD
Track | Start | Length | Start sector | End sector
---------------------------------------------------------
1 | 0:00.00 | 23:18.45 | 0 | 104894
2 | 23:18.45 | 5:01.30 | 104895 | 127499
3 | 28:20.00 | 4:58.42 | 127500 | 149891
4 | 33:18.42 | 11:26.45 | 149892 | 201386
5 | 44:45.12 | 17:03.63 | 201387 | 278174
Range status and errors
Selected range
Filename D:\EAC\Giordano - Fedora, Rossi CD1.wav
Peak level 88.0 %
Extraction speed 1.9 X
Range quality 100.0 %
Test CRC 491B15ED
Copy CRC 491B15ED
Copy OK
No errors occurred
AccurateRip summary
Track 1 accurately ripped (confidence 1) [2FB8E1B4] (AR v1)
Track 2 accurately ripped (confidence 1) [98751578] (AR v1)
Track 3 accurately ripped (confidence 1) [163AADA2] (AR v1)
Track 4 accurately ripped (confidence 1) [5ABF4C4A] (AR v1)
Track 5 accurately ripped (confidence 1) [A02B8136] (AR v1)
All tracks accurately ripped
End of status report
---- CUETools DB Plugin V2.1.3
[CTDB TOCID: QvEemrx0lWEIEOVu7Z6RxqXvCSM-] disk not present in database, Submit result: unrecognized or virtual drive
==== Log checksum AC38731FC54CC43F399F064CEA469E7EFD1ADA93F9EDD5CC6825CA99A04E63A8 ====

CD2

Exact Audio Copy V1.0 beta 3 from 29. August 2011
EAC extraction logfile from 2. September 2014, 0:12
Giordano / Fedora, Rossi CD2
Used drive : TSSTcorpCDDVDW SE-208AB Adapter: 1 ID: 0
Read mode : Secure
Utilize accurate stream : Yes
Defeat audio cache : Yes
Make use of C2 pointers : No
Read offset correction : 6
Overread into Lead-In and Lead-Out : No
Fill up missing offset samples with silence : Yes
Delete leading and trailing silent blocks : No
Null samples used in CRC calculations : Yes
Used interface : Native Win32 interface for Win NT & 2000
Used output format : Monkey's Audio Lossless Encoder
Selected bitrate : High Lossless Compression
Quality : High
Add ID3 tag : No
Command line compressor : C:\Program Files (x86)\Exact Audio Copy\MAC\MAC.exe
TOC of the extracted CD
Track | Start | Length | Start sector | End sector
---------------------------------------------------------
1 | 0:00.00 | 14:56.35 | 0 | 67234
2 | 14:56.35 | 17:56.38 | 67235 | 147972
Range status and errors
Selected range
Filename D:\EAC\Giordano - Fedora, Rossi CD2.wav
Peak level 88.0 %
Extraction speed 1.6 X
Range quality 100.0 %
Test CRC D40B4B52
Copy CRC D40B4B52
Copy OK
No errors occurred
AccurateRip summary
Track 1 accurately ripped (confidence 1) [EF561F60] (AR v1)
Track 2 accurately ripped (confidence 1) [4FD071CD] (AR v1)
All tracks accurately ripped
End of status report
---- CUETools DB Plugin V2.1.3
[CTDB TOCID: ixA100EbL.ulTX6vfBoDqYZ3pfU-] disk not present in database, Submit result: ixA100EbL.ulTX6vfBoDqYZ3pfU- has been uploaded
==== Log checksum FD39AFA1F8AB769962BD4AED8D28CC287B79360AFC17BA4B6CBC86F4390C8279 ====

Содержание индексной карты (.CUE)

CD1

REM GENRE Opera
REM DATE 1950
REM DISCID 2A0E7D05
REM COMMENT "ExactAudioCopy v1.0b3"
PERFORMER "Giordano"
TITLE "Fedora, Rossi CD1"
FILE "Giordano - Fedora, Rossi CD1.ape" WAVE
TRACK 01 AUDIO
TITLE "Act I"
PERFORMER "Giordano"
INDEX 01 00:00:00
TRACK 02 AUDIO
TITLE "Act II"
PERFORMER "Giordano"
INDEX 01 23:18:45
TRACK 03 AUDIO
TITLE "Act II"
PERFORMER "Giordano"
INDEX 01 28:20:00
TRACK 04 AUDIO
TITLE "Act II"
PERFORMER "Giordano"
INDEX 01 33:18:42
TRACK 05 AUDIO
TITLE "Act II"
PERFORMER "Giordano"
INDEX 01 44:45:12

CD2

REM GENRE Opera
REM DATE 1950
REM DISCID 1B07B402
REM COMMENT "ExactAudioCopy v1.0b3"
PERFORMER "Giordano"
TITLE "Fedora, Rossi CD2"
FILE "Giordano - Fedora, Rossi CD2.ape" WAVE
TRACK 01 AUDIO
TITLE "Act III"
PERFORMER "Giordano"
INDEX 01 00:00:00
TRACK 02 AUDIO
TITLE "Act III"
PERFORMER "Giordano"
INDEX 01 14:56:35



Показать сообщения:    

Текущее время: 05-Дек 15:34

Часовой пояс: UTC + 3


Вы не можете начинать темы
Вы не можете отвечать на сообщения
Вы не можете редактировать свои сообщения
Вы не можете удалять свои сообщения
Вы не можете голосовать в опросах
Вы не можете прикреплять файлы к сообщениям
Вы не можете скачивать файлы