(Opera, Ballet) Равель - Дитя и волшебство / Maurice Ravel - L'Enfant et les Sortileges, Ma Mere l'Oye (Magdalena Kozena, Nathalie Stutzmann, Jose Van Dam, S. Koch, A. Massis, Berliner Philharmoniker, Simon Rattle) - 2009, APE (image+.cue)


 

[Цитировать]

Maurice Ravel - L'Enfant et les Sortileges, Ma Mere l'Oye
Жанр: Opera, Ballet
Страна-производитель диска: EU
Год издания диска: 2009
Издатель (лейбл): EMI classics
Номер по каталогу: 26411972
Дата записи: 2008
Аудиокодек: APE
Тип рипа: image+.cue
Битрейт аудио: lossless
Продолжительность: 72'53
Источник: скачано с
Наличие сканов в содержимом раздачи: да
Треклист:

Maurice Ravel (1875-1937)

L'Enfant et les Sortileges, fantaisie lyrique (1920-25) 44'22
01 Introduction (4:32)
02 Votre serviteur humble, Bergere (3:17)
03 How's your mug? (9:02)
04 Oui, c'est Elle, ta Princesse enchantee (6:49)
05 Deux robinets coulent dans un reservoir! (4:29)
06 Ah! Quelle joie de te retrouver, Jardin! (7:22)
07 Sauve-toi, sotte! Et la cage? La cage? (3:02)
08 Ah! C'est l'enfant au couteau! (5:53)
Ma Mere l'Oye, ballet en un acte d'apres des contes de Charles Perrault (1911-12) 28'29
09 Prelude (3:14)
10 I. Danse du Rouet et Scene (3:45)
11 II. Pavane de la Belle au bois dormant (2:36)
12 III. Les entretiens de la Belle et de la Bete (5:05)
13 IV. Petit Poucet (4:41)
14 V. Laideronnette, Imperatrice des Pagodes (5:04)
15 VI. Le Jardin feerique (4:02)
Исполнители:
L'Enfant.................................................MAGDALENA KOZENA
Le Feu, La Princesse, Le Rossignol.................................ANNICK MASSIS
Maman, La Tasse Chinoise, La Libellule.........................NATHALIE STUTZMANN
La Bergere, La Chatte, L'cureuil, Un Patre.............................SOPHIE KOCH
Le Fauteuil, Un Arbre ............................................JOSE VAN DAM
L'Horloge Comtoise, Le Chat .................................FRANQOIS LE ROUX
La Theiere, Le Petit Vieillard, La Rainette .....................JEAN-PAUL FOUCHECOURT
Une Pastorelle, La Chauve-souris, La Chouette .......................MOJCA ERDMANN
Le Banc ..................................................SABINE PUHLMANN
Le Саnарё .............................................NORA VON BILLERBECK
Le Pouf .......................................................BIANCA REIM
La Chaise de Paille .............................................SILKE SCHWAB
Rundfunkchor Berlin Chor
Berliner Philharmoniker
Simon Rattle, cond.
Rec. 24-28.IX.2008, Philharmonie, Berlin

Лог создания рипа

Exact Audio Copy V0.99 prebeta 5 from 4. May 2009
EAC extraction logfile from 4. October 2009, 0:44
S. Rattle / Rundfunkchor Berlin, Berliner Philharmoniker / Ravel : L'enfant et les Sortileges, Ma Mere l'Oye
Used drive : Optiarc DVD RW AD-7200A Adapter: 0 ID: 0
Read mode : SecureUtilize accurate stream : YesDefeat audio cache : NoMake use of C2 pointers : No
Read offset correction : 48Overread into Lead-In and Lead-Out : NoFill up missing offset samples with silence : YesDelete leading and trailing silent blocks : NoNull samples used in CRC calculations : NoUsed interface : Installed external ASPI interface
Used output format : Monkey's Audio Lossless Encoder v3.99 DLLSample format : Normal Lossless Compression
TOC of the extracted CD
Track | Start | Length | Start sector | End sector --------------------------------------------------------- 1 | 0:00.00 | 4:32.35 | 0 | 20434 2 | 4:32.35 | 3:17.30 | 20435 | 35239 3 | 7:49.65 | 9:02.47 | 35240 | 75936 4 | 16:52.37 | 6:49.05 | 75937 | 106616 5 | 23:41.42 | 4:29.36 | 106617 | 126827 6 | 28:11.03 | 7:22.25 | 126828 | 160002 7 | 35:33.28 | 3:02.22 | 160003 | 173674 8 | 38:35.50 | 5:53.62 | 173675 | 200211 9 | 44:29.37 | 3:14.61 | 200212 | 214822 10 | 47:44.23 | 3:45.40 | 214823 | 231737 11 | 51:29.63 | 2:36.25 | 231738 | 243462 12 | 54:06.13 | 5:05.68 | 243463 | 266405 13 | 59:12.06 | 4:41.17 | 266406 | 287497 14 | 63:53.23 | 5:04.49 | 287498 | 310346 15 | 68:57.72 | 4:02.30 | 310347 | 328526 16 | 75:32.27 | 3:47.00 | 339927 | 356951
Range status and errors
Selected range
Filename J:\UPS\R.LEELS.MMLO.BP.SR\S. Rattle Rundfunkchor Berlin, Berliner Philharmoniker - Ravel L'enfant et les Sortileges, Ma Mere l'Oye.ape
Peak level 99.3 % Range quality 100.0 % Copy CRC 65EA31FF Copy OK
No errors occurred
AccurateRip summary
Track 1 accurately ripped (confidence 5) [F1A48694]Track 2 accurately ripped (confidence 5) [32E761B3]Track 3 accurately ripped (confidence 5) [64253677]Track 4 accurately ripped (confidence 5) [24D257B4]Track 5 accurately ripped (confidence 5) [3675D37C]Track 6 accurately ripped (confidence 5) [6DD4B58A]Track 7 accurately ripped (confidence 5) [698AB118]Track 8 accurately ripped (confidence 5) [2599046D]Track 9 accurately ripped (confidence 5) [2B222ABE]Track 10 accurately ripped (confidence 5) [FC155833]Track 11 accurately ripped (confidence 5) [7579CBBF]Track 12 accurately ripped (confidence 5) [67104E12]Track 13 accurately ripped (confidence 5) [A735779A]Track 14 accurately ripped (confidence 5) [0FE7A88A]Track 15 accurately ripped (confidence 5) [1C2F4454]
All tracks accurately ripped
End of status report
Доп. информация:

О диске

Не получившее широкого признания при жизни "Дитя и волшебство" сегодня считается ключевым сочинением композитора. "Нужно знать всего Равеля, чтобы понять «Дитя и волшебство», не знать «Дитя» – значит не знать Равеля". "Здесь весь Равель: мелодист, мастер отточенных гармоний, оркестратор, ремесленник и поэт. Здесь раскрываются важнейшие аспекты его личности и характера. Вообщем, это произведение, как воплощение его собственной натуры, предстаёт как синтезис, в котором мы находим в щедром изобилии все модусы равелевского письма от первого до последнего часа его творчества". Равель и сам оставил многочисленные подсказки, указывающие на его особенное отношение к своей трогательной сказке о непослушном ребёнке. Он говорил: "Я думаю о лирической фантазии, которая будет далека от традиционной условной оперы, и которую я надеюсь создать как произведение из моей жизни". Он признается, что хотел бы объединить в своём произведении Массне, Пуччини и Монтеверди, мюзик-холл и музыку джаз-бенда: Партитура “Дитя и волшебства» – это очень глубокий меланж стилей всех эпох от Баха до … Равеля!
"Моя матушка Гусыня", как образно пишет А. Корто, «даёт новую жизнь некоторым из самых прелестных эпизодов французской сказочной поэзии. Здесь нежные аккорды Паваны, под звуки которой заснула Спящая красавица; простодушно изысканное движение мелким шагом робких терций – волнения и неудачи Мальчика-с-пальчик, высмеянного птицами; хрупкий, нереальный перезвон вымышленных музыкальных инструментов Азии, сопровождающий сложный обряд омовений “Дурнушки” – императрицы Пагод; лукавая выразительность бесед Красавицы и Чудовища, рисующая столь обворожительную красавицу и столь парадоксально утонченное и сообразительное Чудовище, затем трогательная красота “Волшебного сада”». Название цикла Равеля отсылает к знаменитому сборнику сказок для детей, изданных Шарлем Пьерро в 1697 году под названием «Сказки моей матушки Гусыни, или Истории и сказки былыхи времен с поучениями». Позднее на основе сюиты возник балет «Сон Флорины» с добавлением "Прелюдии и танца прялки": эта сцена изображает начало истории - укол веретена.



Показать сообщения:    

Текущее время: 05-Дек 19:33

Часовой пояс: UTC + 3


Вы не можете начинать темы
Вы не можете отвечать на сообщения
Вы не можете редактировать свои сообщения
Вы не можете удалять свои сообщения
Вы не можете голосовать в опросах
Вы не можете прикреплять файлы к сообщениям
Вы не можете скачивать файлы