(Opera) Joyce DiDonato - Stella di Napoli (Pacini, Bellini, Carafa, Donizetti, Rossini, Mercadante, Valentini) - 2014, APE (image+.cue) lossless


 

[Цитировать]

Joyce DiDonato - Stella di Napoli (Pacini, Bellini, Carafa, Donizetti, Rossini, Mercadante, Valentini)
Жанр: Opera
Страна-производитель диска: UK
Год издания диска: 2014
Издатель (лейбл): Erato
Номер по каталогу: 08256 463656 2 3
Дата записи: 2013
Аудиокодек: APE
Тип рипа: image+.cue
Битрейт аудио: lossless
Продолжительность: 72:15
Источник: собственный рип
Наличие сканов в содержимом раздачи: нет

Исполнители

Joyce DiDonato (mezzo-soprano)Riccardo Minasi (conductor0Orchestre et choeur de l'Opera National de Lyon

Треклист

01 Pacini: Ove t'aggiri, o barbaro (Stella di Napoli)
02 Vincenzo Bellini: Dopo l'oscuro nembo (Adelson e Salvini)
03 Carafa: Oh, di sorte crudel (Le nozze di Lammermoor)
04 Gioachino Rossini: Riedi al soglio (Zelmira)
05 Mercadante: Se fino al cielo ascendere (La vestale)
06 Gaetano Donizetti: Par che mi dica ancora (Elisabetta al castello di Kenilworth)
07 Vincenzo Bellini: Deh! tu, bell'anima (I Capuleti e i Montecchi)
08 Valentini: Se il mar sommesso mormora (Il sonnambula)
09 Gaetano Donizetti: Deh! Tu di un'umile preghiera (Maria Stuarda)
10Pacini: Gran scena finale (Saffo)

Лог создания рипа

Exact Audio Copy V1.0 beta 3 from 29. August 2011
EAC extraction logfile from 30. October 2014, 23:09
Joyce DiDonato, Riccardo Minasi / Joyce DiDonato Stella di Napoli
Used drive : TS8XDVDRTranscend Adapter: 2 ID: 1
Read mode : SecureUtilize accurate stream : YesDefeat audio cache : YesMake use of C2 pointers : No
Read offset correction : 6Overread into Lead-In and Lead-Out : NoFill up missing offset samples with silence : YesDelete leading and trailing silent blocks : NoNull samples used in CRC calculations : YesUsed interface : Native Win32 interface for Win NT & 2000
Used output format : Monkey's Audio Lossless EncoderSelected bitrate : Normal Lossless CompressionQuality : HighAdd ID3 tag : YesCommand line compressor : C:\Program Files (x86)\Monkey's Audio\MAC.exeAdditional command line options : %source% %dest% -c3000
TOC of the extracted CD
Track | Start | Length | Start sector | End sector --------------------------------------------------------- 1 | 0:00.00 | 4:29.19 | 0 | 20193 2 | 4:29.19 | 6:25.28 | 20194 | 49096 3 | 10:54.47 | 9:20.33 | 49097 | 91129 4 | 20:15.05 | 8:13.27 | 91130 | 128131 5 | 28:28.32 | 4:23.60 | 128132 | 147916 6 | 32:52.17 | 7:33.45 | 147917 | 181936 7 | 40:25.62 | 4:07.68 | 181937 | 200529 8 | 44:33.55 | 5:09.63 | 200530 | 223767 9 | 49:43.43 | 8:04.10 | 223768 | 260077 10 | 57:47.53 | 14:27.15 | 260078 | 325117
Range status and errors
Selected range
Filename C:\Users\Alex\Music\Joyce DiDonato - Stella di Napoli (2014)\CDImage.wav
Peak level 98.4 % Extraction speed 1.9 X Range quality 99.9 % Test CRC 5A1E4B7A Copy CRC 5A1E4B7A Copy OK
No errors occurred
AccurateRip summary
Track 1 not present in databaseTrack 2 not present in databaseTrack 3 not present in databaseTrack 4 not present in databaseTrack 5 not present in databaseTrack 6 not present in databaseTrack 7 not present in databaseTrack 8 not present in databaseTrack 9 not present in databaseTrack 10 not present in database
None of the tracks are present in the AccurateRip database
End of status report
==== Log checksum B51000EF19C4D75D172E20C9E1FD42B0368C61D27BB3C2FCF75B107DC3201486 ====

Содержание индексной карты (.CUE)

REM GENRE OperaREM DATE 2014REM DISCID 9710EE0AREM COMMENT "ExactAudioCopy v1.0b3"PERFORMER "Joyce DiDonato - Riccardo Minasi - Orchestre et choeur de l'Opera de Lyon"TITLE "Joyce DiDonato - Stella di Napoli"FILE "CDImage.ape" WAVE TRACK 01 AUDIO TITLE "Pacini: Ove t'aggiri, o barbaro (Stella di Napoli)" PERFORMER "Joyce DiDonato - Riccardo Minasi - Orchestre et choeur de l'Opera de Lyon" INDEX 01 00:00:00 TRACK 02 AUDIO TITLE "Bellini: Dopo l'oscuro nembo (Adelson e Salvini)" PERFORMER "Joyce DiDonato - Riccardo Minasi - Orchestre et choeur de l'Opera de Lyon" INDEX 01 04:29:19 TRACK 03 AUDIO TITLE "Carafa: Oh, di sorte crudel (Le nozze di Lammermoor)" PERFORMER "Joyce DiDonato - Riccardo Minasi - Orchestre et choeur de l'Opera de Lyon" INDEX 01 10:54:47 TRACK 04 AUDIO TITLE "Rossini: Riedi al soglio (Zelmira)" PERFORMER "Joyce DiDonato - Riccardo Minasi - Orchestre et choeur de l'Opera de Lyon" INDEX 01 20:15:05 TRACK 05 AUDIO TITLE "Mercadante: Se fino al cielo ascendere (La vestale)" PERFORMER "Joyce DiDonato - Riccardo Minasi - Orchestre et choeur de l'Opera de Lyon" INDEX 01 28:28:32 TRACK 06 AUDIO TITLE "Donizetti: Par che mi dica ancora (Elisabetta al castello di Kenilworth)" PERFORMER "Joyce DiDonato - Riccardo Minasi - Orchestre et choeur de l'Opera de Lyon" INDEX 01 32:52:17 TRACK 07 AUDIO TITLE "Bellini: Deh! tu, bell'anima (I Capuleti e i Montecchi)" PERFORMER "Joyce DiDonato - Riccardo Minasi - Orchestre et choeur de l'Opera de Lyon" INDEX 01 40:25:62 TRACK 08 AUDIO TITLE "Valentini: Se il mar sommesso mormora (Il sonnambula)" PERFORMER "Joyce DiDonato - Riccardo Minasi - Orchestre et choeur de l'Opera de Lyon" INDEX 01 44:33:55 TRACK 09 AUDIO TITLE "Donizetti: Deh! Tu di un'umile preghiera (Maria Stuarda)" PERFORMER "Joyce DiDonato - Riccardo Minasi - Orchestre et choeur de l'Opera de Lyon" INDEX 01 49:43:43 TRACK 10 AUDIO TITLE "Pacini: Gran scena finale (Saffo)" PERFORMER "Joyce DiDonato - Riccardo Minasi - Orchestre et choeur de l'Opera de Lyon" INDEX 01 57:47:53



Показать сообщения:    

Текущее время: 11-Дек 14:59

Часовой пояс: UTC + 3


Вы не можете начинать темы
Вы не можете отвечать на сообщения
Вы не можете редактировать свои сообщения
Вы не можете удалять свои сообщения
Вы не можете голосовать в опросах
Вы не можете прикреплять файлы к сообщениям
Вы не можете скачивать файлы