(Classical/Barocco) Cecilia Bartoli - St Petersburg | Чечилия Бартоли - Санкт-Петербург [Araia, Raupach, Dall'Oglio, Madonis, Manfredini & Cimarosa] (I Barocchisti, Diego Fasolis) - 2014, FLAC (image+.cue) lossless


 

[Цитировать]

Cecilia Bartoli - St Petersburg
Жанр: Classical/Barocco
Страна-производитель диска: EU
Год издания диска: 2014
Издатель (лейбл): Decca
Номер по каталогу: 478 6767 |D|H|
Дата записи: XII.2013, II&IV.2014
Аудиокодек: FLAC
Тип рипа: image+.cue
Битрейт аудио: lossless
Продолжительность: 1:17'56"
Источник: собственный рип
Наличие сканов в содержимом раздачи: только обложка
Треклист:
01. Francesco Domenico Araia - 'Vado a morir' (La forza dell'amore e dell'odio)
02. Hermann Raupach - 'Разверзни пёс гортани, лая' (Gerkules)
03. Hermann Raupach - 'Иду на смерть' (Altsesta)
04. Hermann Raupach - 'O placido il mare' (Siroe, re di Persia)
05. Domenico Dall'Oglio / Luigi Madonis - 'De miei Figli' (Prologo a 'La Clemenza di Tito')
06. Vincenzo Manfredini - 'Fra' lacci tu mi credi' (Carlo Magno)
07. Francesco Domenico Araia - 'Pastor che a notte ombrosa' (Seleuco)
08. Hermann Raupach - Marcia (Altsesta)
09. Vincenzo Manfredini - 'Non turbar que' vagi rai' (Carlo Magno)
10. Domenico Cimarosa - 'Agitata in tante pene' (La vergine del sole)
11. Vincenzo Manfredini - 'A noi vivi donna eccelsa' (Carlo Magno)
Исполнители:
Cecilia Bartoli
I Barocchisti
Diego Fasolis
-

Лог создания рипа

Exact Audio Copy V1.0 beta 1 from 15. November 2010
EAC extraction logfile from 27. October 2014, 20:39
Cecilia Bartoli / St Petersburg
Used drive : Optiarc DVD RW AD-7203A Adapter: 4 ID: 1
Read mode : SecureUtilize accurate stream : YesDefeat audio cache : YesMake use of C2 pointers : No
Read offset correction : 48Overread into Lead-In and Lead-Out : NoFill up missing offset samples with silence : YesDelete leading and trailing silent blocks : NoNull samples used in CRC calculations : YesUsed interface : Native Win32 interface for Win NT & 2000
Used output format : User Defined EncoderSelected bitrate : 128 kBit/sQuality : HighAdd ID3 tag : NoCommand line compressor : C:\Program Files\FLAC\flac.exeAdditional command line options : -T "COMMENT=Ripped by GFox" -8 -V %s
TOC of the extracted CD
Track | Start | Length | Start sector | End sector --------------------------------------------------------- 1 | 0:00.00 | 7:18.10 | 0 | 32859 2 | 7:18.10 | 6:56.16 | 32860 | 64075 3 | 14:14.26 | 12:37.38 | 64076 | 120888 4 | 26:51.64 | 6:28.57 | 120889 | 150045 5 | 33:20.46 | 4:31.20 | 150046 | 170390 6 | 37:51.66 | 6:52.44 | 170391 | 201334 7 | 44:44.35 | 10:14.46 | 201335 | 247430 8 | 54:59.06 | 2:20.00 | 247431 | 257930 9 | 57:19.06 | 9:13.26 | 257931 | 299431 10 | 66:32.32 | 8:10.04 | 299432 | 336185 11 | 74:42.36 | 3:14.11 | 336186 | 350746
Range status and errors
Selected range
Filename D:\EAC\Cecilia Bartoli - St Petersburg.wav
Peak level 96.7 % Extraction speed 0.1 X Range quality 100.0 % Test CRC DABB4856 Copy CRC DABB4856 Copy OK
No errors occurred
AccurateRip summary
Track 1 not present in databaseTrack 2 not present in databaseTrack 3 not present in databaseTrack 4 not present in databaseTrack 5 not present in databaseTrack 6 not present in databaseTrack 7 not present in databaseTrack 8 not present in databaseTrack 9 not present in databaseTrack 10 not present in databaseTrack 11 not present in database
None of the tracks are present in the AccurateRip database
End of status report
==== Log checksum 5977CB710B99F17DA151128DEFD83BE381B6DE631F101363176BF20C6569C7F1 ====
-Доп. информация: Как мало мы знаем историю музыкальной культуры собственной страны: на новом диске Чечилии Бартоли 11 мировых премьер из архивов Мариинского театра - музыка итальянских и немецких композиторов, написанная по заказу трёх российских императриц XVIII века: Анны Ионановны, Елизаветы Петровны и Екатерины Великой. Приятным дополнением для российского слушателя служит то, что две арии Бартоли исполняет на русском языке... правда, это не всегда понятно-



Показать сообщения:    

Текущее время: 08-Дек 21:14

Часовой пояс: UTC + 3


Вы не можете начинать темы
Вы не можете отвечать на сообщения
Вы не можете редактировать свои сообщения
Вы не можете удалять свои сообщения
Вы не можете голосовать в опросах
Вы не можете прикреплять файлы к сообщениям
Вы не можете скачивать файлы