(Opera) Luigi Cherubini: Medea - Callas, Vickers, Tosini, Ghiaurov, Simionato - Schippers - 2011, APE (image+.cue) lossless


 

[Цитировать]

Luigi Cherubini: Medea - Callas, Vickers, Tosini, Ghiaurov, Simionato - Schippers - 2011, APE (image+.cue) lossless
Жанр: Opera
Страна-производитель диска: EU
Год издания диска: 2011
Издатель (лейбл): MYTO
Номер по каталогу: 00292
Дата записи: 1961
Аудиокодек: APE
Тип рипа: image+.cue
Битрейт аудио: lossless
Продолжительность: 49:35 + 71:21
Источник: собственный рип
Наличие сканов в содержимом раздачи: нет

Исполнители

Conductor - Thomas SchippersOrchestra - Teatro alla ScalaChorus - Teatro alla Scala
Medea - Maria CallasGlauce - Ivana TosiniNeris - Giulietta SimionatoGiasone - Jon VickersCreonte - Nicolai GhiaurovCapitano - Alfredo GiacomottiPrima Ancella - Edith MartelliSeconda Ancella - Maddalena Bonifaccio

Треклист

CD1

01. Sinfonia
02. Atto I - Quando gia corona Amor
03. Atto I - Ahime! gioir vorrei
04. Atto I - O Amore, vieni a me!
05. Atto I - No, non temer
06. Atto I - O bella Glauce
07. Atto I - Or che piu non vedro
08. Atto I - Ah! gia troppo turbo
09. Atto I - Pronube dive, Dei custodi
10. Atto I - Signior! Ferma una donna
11. Atto I - E forse qui che il vil sicuro sta?
12. Atto I - Qui tremar devi tu
13. Atto I - Taci, Giason, e affisi immoto
14. Atto I - Dei tuoi figli la madre
15. Atto I - Son vane qui minace
16. Atto I - Nemici senza cor

CD2

01. Atto II - Introduzione
02. Atto II - Soffrir non posso
03. Atto II - Date almen per pieta
04. Atto II - Re degli Dei!
05. Atto II - Ebben! Tutto mi manca!
06. Atto II - So che da mia bonta
07. Atto II - Medea! O Medea!
08. Atto II - Solo un pianto con te versare
09. Atto II - Creonte a me solo un giorno da?
10. Atto II - Figli miei, miei tesor
11. Atto II - Verra presto all'altar
12. Atto II - Hai datto pronto ascolto
13. Atto II - Ah, triste canto!
14. Atto II - Il mio furor la vostra gioia
15. Atto III - Introduzione
16. Atto III - Numi, venite a me, inferni Dei!
17. Atto III - Compiuto fu, Medea, il tuo voler
18. Atto III - Del fiero duol che il cor mi frange
19. Atto III - Neris, che hai fatto tu del dono mio?
20. Atto III - E che? Io son Medea!
21. Atto III - Oh Dei, pieta di noi!
22. Atto III - Trista Glauce fedel!
23. Atto III - Tu Glauce piangi sol
24. Atto III - T'arresta!

Лог создания рипа

CD1

Exact Audio Copy V1.0 beta 3 from 29. August 2011
EAC extraction logfile from 23. October 2014, 23:15
Callas, Vickers, Tosini, Ghiaurov, Simionato - Thomas Schippers - Orchestra e coro del Teatro alla Scala / Cherubini: Medea - CD1
Used drive : TS8XDVDRTranscend Adapter: 2 ID: 1
Read mode : Secure
Utilize accurate stream : Yes
Defeat audio cache : Yes
Make use of C2 pointers : No
Read offset correction : 6
Overread into Lead-In and Lead-Out : No
Fill up missing offset samples with silence : Yes
Delete leading and trailing silent blocks : No
Null samples used in CRC calculations : Yes
Used interface : Native Win32 interface for Win NT & 2000
Used output format : Monkey's Audio Lossless Encoder
Selected bitrate : Normal Lossless Compression
Quality : High
Add ID3 tag : Yes
Command line compressor : C:\Program Files (x86)\Monkey's Audio\MAC.exe
Additional command line options : %source% %dest% -c3000
TOC of the extracted CD
Track | Start | Length | Start sector | End sector
---------------------------------------------------------
1 | 0:00.00 | 6:23.50 | 0 | 28774
2 | 6:23.50 | 1:23.48 | 28775 | 35047
3 | 7:47.23 | 3:02.58 | 35048 | 48755
4 | 10:50.06 | 3:42.06 | 48756 | 65411
5 | 14:32.12 | 2:14.57 | 65412 | 75518
6 | 16:46.69 | 4:21.18 | 75519 | 95111
7 | 21:08.12 | 3:24.33 | 95112 | 110444
8 | 24:32.45 | 0:51.59 | 110445 | 114328
9 | 25:24.29 | 4:29.28 | 114329 | 134531
10 | 29:53.57 | 0:41.00 | 134532 | 137606
11 | 30:34.57 | 3:46.41 | 137607 | 154597
12 | 34:21.23 | 1:55.32 | 154598 | 163254
13 | 36:16.55 | 2:57.23 | 163255 | 176552
14 | 39:14.03 | 5:23.15 | 176553 | 200792
15 | 44:37.18 | 0:32.59 | 200793 | 203251
16 | 45:10.02 | 4:25.43 | 203252 | 223169
Range status and errors
Selected range
Filename H:\Maria Callas\Live Recordings\Cherubini - MEDEA - Callas, Vickers, Tosini, Ghiaurov, Simionato - Schippers (Milano, 11.12.1961)\CD1.wav
Peak level 99.2 %
Extraction speed 4.1 X
Range quality 100.0 %
Test CRC 9A981E8F
Copy CRC 9A981E8F
Copy OK
No errors occurred
End of status report
==== Log checksum 63D004D48750552665B29553C6D8586294B6BCA60E2CC1D0AB1D6076D4320D56 ====

CD2

Exact Audio Copy V1.0 beta 3 from 29. August 2011
EAC extraction logfile from 24. October 2014, 6:58
Callas, Vickers, Tosini, Ghiaurov, Simionato - Thomas Schippers - Orchestra e coro del Teatro alla Scala / Cherubini: Medea - CD2
Used drive : TS8XDVDRTranscend Adapter: 2 ID: 1
Read mode : Secure
Utilize accurate stream : Yes
Defeat audio cache : Yes
Make use of C2 pointers : No
Read offset correction : 6
Overread into Lead-In and Lead-Out : No
Fill up missing offset samples with silence : Yes
Delete leading and trailing silent blocks : No
Null samples used in CRC calculations : Yes
Used interface : Native Win32 interface for Win NT & 2000
Used output format : Monkey's Audio Lossless Encoder
Selected bitrate : Normal Lossless Compression
Quality : High
Add ID3 tag : Yes
Command line compressor : C:\Program Files (x86)\Monkey's Audio\MAC.exe
Additional command line options : %source% %dest% -c3000
TOC of the extracted CD
Track | Start | Length | Start sector | End sector
---------------------------------------------------------
1 | 0:00.00 | 1:25.02 | 0 | 6376
2 | 1:25.02 | 2:54.52 | 6377 | 19478
3 | 4:19.54 | 2:57.40 | 19479 | 32793
4 | 7:17.19 | 1:33.07 | 32794 | 39775
5 | 8:50.26 | 3:05.27 | 39776 | 53677
6 | 11:55.53 | 2:40.01 | 53678 | 65678
7 | 14:35.54 | 1:39.15 | 65679 | 73118
8 | 16:14.69 | 6:59.48 | 73119 | 104591
9 | 23:14.42 | 2:38.18 | 104592 | 116459
10 | 25:52.60 | 3:50.70 | 116460 | 133779
11 | 29:43.55 | 2:14.74 | 133780 | 143903
12 | 31:58.54 | 1:32.71 | 143904 | 150874
13 | 33:31.50 | 5:28.21 | 150875 | 175495
14 | 38:59.71 | 2:28.37 | 175496 | 186632
15 | 41:28.33 | 5:54.47 | 186633 | 213229
16 | 47:23.05 | 2:39.53 | 213230 | 225207
17 | 50:02.58 | 3:04.50 | 225208 | 239057
18 | 53:07.33 | 3:55.28 | 239058 | 256710
19 | 57:02.61 | 1:57.20 | 256711 | 265505
20 | 59:00.06 | 4:57.26 | 265506 | 287806
21 | 63:57.32 | 1:09.27 | 287807 | 293008
22 | 65:06.59 | 1:04.05 | 293009 | 297813
23 | 66:10.64 | 2:57.51 | 297814 | 311139
24 | 69:08.40 | 2:12.48 | 311140 | 321087
Range status and errors
Selected range
Filename H:\Maria Callas\Live Recordings\Cherubini - MEDEA - Callas, Vickers, Tosini, Ghiaurov, Simionato - Schippers (Milano, 11.12.1961)\CD2.wav
Peak level 90.9 %
Extraction speed 1.8 X
Range quality 99.9 %
Test CRC BE595369
Copy CRC BE595369
Copy OK
No errors occurred
End of status report
==== Log checksum E2AFFE3B6DC0ECF1E9A9E58EA87234F8A5BB4E86496A09AD989FE6482FD3CB56 ====

Содержание индексной карты (.CUE)CD1

REM GENRE OperaREM DATE 1961REM DISCID EF0B9F10REM COMMENT "ExactAudioCopy v1.0b3"PERFORMER "Callas, Vickers, Tosini, Ghiaurov, Simionato - Thomas Schippers - Orchestra e coro del Teatro alla Scala"TITLE "Cherubini: Medea - CD1"FILE "CD1.ape" WAVE TRACK 01 AUDIO TITLE "Sinfonia" PERFORMER "Callas, Vickers, Tosini, Ghiaurov, Simionato - Thomas Schippers - Orchestra e coro del Teatro alla Scala" INDEX 01 00:00:00 TRACK 02 AUDIO TITLE "Atto I - Quando gia corona Amor" PERFORMER "Callas, Vickers, Tosini, Ghiaurov, Simionato - Thomas Schippers - Orchestra e coro del Teatro alla Scala" INDEX 01 06:23:50 TRACK 03 AUDIO TITLE "Atto I - Ahime! gioir vorrei" PERFORMER "Callas, Vickers, Tosini, Ghiaurov, Simionato - Thomas Schippers - Orchestra e coro del Teatro alla Scala" INDEX 01 07:47:23 TRACK 04 AUDIO TITLE "Atto I - O Amore, vieni a me!" PERFORMER "Callas, Vickers, Tosini, Ghiaurov, Simionato - Thomas Schippers - Orchestra e coro del Teatro alla Scala" INDEX 01 10:50:06 TRACK 05 AUDIO TITLE "Atto I - No, non temer" PERFORMER "Callas, Vickers, Tosini, Ghiaurov, Simionato - Thomas Schippers - Orchestra e coro del Teatro alla Scala" INDEX 01 14:32:12 TRACK 06 AUDIO TITLE "Atto I - O bella Glauce" PERFORMER "Callas, Vickers, Tosini, Ghiaurov, Simionato - Thomas Schippers - Orchestra e coro del Teatro alla Scala" INDEX 01 16:46:69 TRACK 07 AUDIO TITLE "Atto I - Or che piu non vedro" PERFORMER "Callas, Vickers, Tosini, Ghiaurov, Simionato - Thomas Schippers - Orchestra e coro del Teatro alla Scala" INDEX 01 21:08:12 TRACK 08 AUDIO TITLE "Atto I - Ah! gia troppo turbo" PERFORMER "Callas, Vickers, Tosini, Ghiaurov, Simionato - Thomas Schippers - Orchestra e coro del Teatro alla Scala" INDEX 01 24:32:45 TRACK 09 AUDIO TITLE "Atto I - Pronube dive, Dei custodi" PERFORMER "Callas, Vickers, Tosini, Ghiaurov, Simionato - Thomas Schippers - Orchestra e coro del Teatro alla Scala" INDEX 01 25:24:29 TRACK 10 AUDIO TITLE "Atto I - Signior! Ferma una donna" PERFORMER "Callas, Vickers, Tosini, Ghiaurov, Simionato - Thomas Schippers - Orchestra e coro del Teatro alla Scala" INDEX 01 29:53:57 TRACK 11 AUDIO TITLE "Atto I - E forse qui che il vil sicuro sta?" PERFORMER "Callas, Vickers, Tosini, Ghiaurov, Simionato - Thomas Schippers - Orchestra e coro del Teatro alla Scala" INDEX 01 30:34:57 TRACK 12 AUDIO TITLE "Atto I - Qui tremar devi tu" PERFORMER "Callas, Vickers, Tosini, Ghiaurov, Simionato - Thomas Schippers - Orchestra e coro del Teatro alla Scala" INDEX 01 34:21:23 TRACK 13 AUDIO TITLE "Atto I - Taci, Giason, e affisi immoto" PERFORMER "Callas, Vickers, Tosini, Ghiaurov, Simionato - Thomas Schippers - Orchestra e coro del Teatro alla Scala" INDEX 01 36:16:55 TRACK 14 AUDIO TITLE "Atto I - Dei tuoi figli la madre" PERFORMER "Callas, Vickers, Tosini, Ghiaurov, Simionato - Thomas Schippers - Orchestra e coro del Teatro alla Scala" INDEX 01 39:14:03 TRACK 15 AUDIO TITLE "Atto I - Son vane qui minace" PERFORMER "Callas, Vickers, Tosini, Ghiaurov, Simionato - Thomas Schippers - Orchestra e coro del Teatro alla Scala" INDEX 01 44:37:18 TRACK 16 AUDIO TITLE "Atto I - Nemici senza cor" PERFORMER "Callas, Vickers, Tosini, Ghiaurov, Simionato - Thomas Schippers - Orchestra e coro del Teatro alla Scala" INDEX 01 45:10:02

CD2

REM GENRE OperaREM DATE 1961REM DISCID 6610B918REM COMMENT "ExactAudioCopy v1.0b3"PERFORMER "Callas, Vickers, Tosini, Ghiaurov, Simionato - Thomas Schippers - Orchestra e coro del Teatro alla Scala"TITLE "Cherubini: Medea - CD2"FILE "CD2.ape" WAVE TRACK 01 AUDIO TITLE "Atto II - Introduzione" PERFORMER "Callas, Vickers, Tosini, Ghiaurov, Simionato - Thomas Schippers - Orchestra e coro del Teatro alla Scala" INDEX 01 00:00:00 TRACK 02 AUDIO TITLE "Atto II - Soffrir non posso" PERFORMER "Callas, Vickers, Tosini, Ghiaurov, Simionato - Thomas Schippers - Orchestra e coro del Teatro alla Scala" INDEX 01 01:25:02 TRACK 03 AUDIO TITLE "Atto II - Date almen per pieta" PERFORMER "Callas, Vickers, Tosini, Ghiaurov, Simionato - Thomas Schippers - Orchestra e coro del Teatro alla Scala" INDEX 01 04:19:54 TRACK 04 AUDIO TITLE "Atto II - Re degli Dei!" PERFORMER "Callas, Vickers, Tosini, Ghiaurov, Simionato - Thomas Schippers - Orchestra e coro del Teatro alla Scala" INDEX 01 07:17:19 TRACK 05 AUDIO TITLE "Atto II - Ebben! Tutto mi manca!" PERFORMER "Callas, Vickers, Tosini, Ghiaurov, Simionato - Thomas Schippers - Orchestra e coro del Teatro alla Scala" INDEX 01 08:50:26 TRACK 06 AUDIO TITLE "Atto II - So che da mia bonta" PERFORMER "Callas, Vickers, Tosini, Ghiaurov, Simionato - Thomas Schippers - Orchestra e coro del Teatro alla Scala" INDEX 01 11:55:53 TRACK 07 AUDIO TITLE "Atto II - Medea! O Medea!" PERFORMER "Callas, Vickers, Tosini, Ghiaurov, Simionato - Thomas Schippers - Orchestra e coro del Teatro alla Scala" INDEX 01 14:35:54 TRACK 08 AUDIO TITLE "Atto II - Solo un pianto con te versare" PERFORMER "Callas, Vickers, Tosini, Ghiaurov, Simionato - Thomas Schippers - Orchestra e coro del Teatro alla Scala" INDEX 01 16:14:69 TRACK 09 AUDIO TITLE "Atto II - Creonte a me solo un giorno da?" PERFORMER "Callas, Vickers, Tosini, Ghiaurov, Simionato - Thomas Schippers - Orchestra e coro del Teatro alla Scala" INDEX 01 23:14:42 TRACK 10 AUDIO TITLE "Atto II - Figli miei, miei tesor" PERFORMER "Callas, Vickers, Tosini, Ghiaurov, Simionato - Thomas Schippers - Orchestra e coro del Teatro alla Scala" INDEX 01 25:52:60 TRACK 11 AUDIO TITLE "Atto II - Verra presto all'altar" PERFORMER "Callas, Vickers, Tosini, Ghiaurov, Simionato - Thomas Schippers - Orchestra e coro del Teatro alla Scala" INDEX 01 29:43:55 TRACK 12 AUDIO TITLE "Atto II - Hai datto pronto ascolto" PERFORMER "Callas, Vickers, Tosini, Ghiaurov, Simionato - Thomas Schippers - Orchestra e coro del Teatro alla Scala" INDEX 01 31:58:54 TRACK 13 AUDIO TITLE "Atto II - Ah, triste canto!" PERFORMER "Callas, Vickers, Tosini, Ghiaurov, Simionato - Thomas Schippers - Orchestra e coro del Teatro alla Scala" INDEX 01 33:31:50 TRACK 14 AUDIO TITLE "Atto II - Il mio furor la vostra gioia" PERFORMER "Callas, Vickers, Tosini, Ghiaurov, Simionato - Thomas Schippers - Orchestra e coro del Teatro alla Scala" INDEX 01 38:59:71 TRACK 15 AUDIO TITLE "Atto III - Introduzione" PERFORMER "Callas, Vickers, Tosini, Ghiaurov, Simionato - Thomas Schippers - Orchestra e coro del Teatro alla Scala" INDEX 01 41:28:33 TRACK 16 AUDIO TITLE "Atto III - Numi, venite a me, inferni Dei!" PERFORMER "Callas, Vickers, Tosini, Ghiaurov, Simionato - Thomas Schippers - Orchestra e coro del Teatro alla Scala" INDEX 01 47:23:05 TRACK 17 AUDIO TITLE "Atto III - Compiuto fu, Medea, il tuo voler" PERFORMER "Callas, Vickers, Tosini, Ghiaurov, Simionato - Thomas Schippers - Orchestra e coro del Teatro alla Scala" INDEX 01 50:02:58 TRACK 18 AUDIO TITLE "Atto III - Del fiero duol che il cor mi frange" PERFORMER "Callas, Vickers, Tosini, Ghiaurov, Simionato - Thomas Schippers - Orchestra e coro del Teatro alla Scala" INDEX 01 53:07:33 TRACK 19 AUDIO TITLE "Atto III - Neris, che hai fatto tu del dono mio?" PERFORMER "Callas, Vickers, Tosini, Ghiaurov, Simionato - Thomas Schippers - Orchestra e coro del Teatro alla Scala" INDEX 01 57:02:61 TRACK 20 AUDIO TITLE "Atto III - E che? Io son Medea!" PERFORMER "Callas, Vickers, Tosini, Ghiaurov, Simionato - Thomas Schippers - Orchestra e coro del Teatro alla Scala" INDEX 01 59:00:06 TRACK 21 AUDIO TITLE "Atto III - Oh Dei, pieta di noi!" PERFORMER "Callas, Vickers, Tosini, Ghiaurov, Simionato - Thomas Schippers - Orchestra e coro del Teatro alla Scala" INDEX 01 63:57:32 TRACK 22 AUDIO TITLE "Atto III - Trista Glauce fedel!" PERFORMER "Callas, Vickers, Tosini, Ghiaurov, Simionato - Thomas Schippers - Orchestra e coro del Teatro alla Scala" INDEX 01 65:06:59 TRACK 23 AUDIO TITLE "Atto III - Tu Glauce piangi sol" PERFORMER "Callas, Vickers, Tosini, Ghiaurov, Simionato - Thomas Schippers - Orchestra e coro del Teatro alla Scala" INDEX 01 66:10:64 TRACK 24 AUDIO TITLE "Atto III - T'arresta!" PERFORMER "Callas, Vickers, Tosini, Ghiaurov, Simionato - Thomas Schippers - Orchestra e coro del Teatro alla Scala" INDEX 01 69:08:40



Показать сообщения:    

Текущее время: 11-Дек 15:00

Часовой пояс: UTC + 3


Вы не можете начинать темы
Вы не можете отвечать на сообщения
Вы не можете редактировать свои сообщения
Вы не можете удалять свои сообщения
Вы не можете голосовать в опросах
Вы не можете прикреплять файлы к сообщениям
Вы не можете скачивать файлы