(Opera) Amilcare Ponchielli (Амилькаре Понкьелли) - La Gioconda (Callas, Cossotto, Ferraro, Vinco, Cappuccilli - Orchestra del Teatro alla Scala di Milano, Votto) - 1987, APE (image+.cue) lossless


 

[Цитировать]

Ponchielli - La Gioconda
Жанр: Opera
Страна-производитель диска: UK
Год издания диска: 1987
Издатель (лейбл): EMI
Номер по каталогу: CDS 7 49518 2
Дата записи: 1960
Аудиокодек: APE
Тип рипа: image+.cue
Битрейт аудио: lossless
Продолжительность: 52'35+54'16+59'48
Источник: собственный рип
Наличие сканов в содержимом раздачи: да
Треклист:
Треклист:

CD1

1. Preludio
2. Feste e pane!
3. E cantan su lor tombe!
4. Figlia, che reggi il tremulo pie
5. L'ora non giunse ancor del vespro santo
6. Polso di cerro!
7. Suo covo e un tugurio -
8. Che? La plebe or qui si arroga ...
9. Voce di donna o d'angelo
10. Enzo Grimaldo, Principe di Santafior, che pensi?
11. O grido di quest'anima
12. Maledici? Sta ben... l'amor t'accieca
13. O monumento!
14. Carneval! Baccanal!
15. Angele Dei...

CD2

1. Ho! He! Ho! He! Fissa il timone
2. Pescator, affonda l'esca I
3. Pescator, affonda l'esca II
4. Sia gloria ai canti dei naviganti!
5. Cielo e mar!
6. Ma chi vien?
7. Laggiu nelle nebbie remote
8. E il tuo nocciere or la fuga t'appresta
9. Stella del marinar!
10. E un anatema!
11. La attesi e il tempo colsi
12. L'amo come il fulgor del creato!
13. Il mio braccio t'afferra!
14. Maledizion! Ha preso il vol!
15. Vedi la, nel canal morto
16. S! morir ella de!
17. Ombre di mia prosapia
18. Qui chiamata m'avete?... Bella cosi, madonna...
19. Morir! e troppo orribile!
20. La gaia canzone... Prendi questo velen
21. O madre mia, nell'isola fatale ...

CD3

1. Benvenuti messeri Andrea Sagredo
2. Grazie vi rendo per le vostre laudi
3. Prodigo incanto
4. Vieni... Laciami
5. Gia ti veggo in mmota e smorta
6. Nessun v'ha visto
7. Suicidio
8. Ecco, il velen di Laura
9. Ridarti il sol, la vitta
10. O furibonda jena
11. Ten va serenata
12. La barca s'avvicina
13. Quest' ultimo bascio che il pianto
14. Ora posso morir. Tutto e compiuto
15. Vo' farmi piu gaia, piu fulgida ancora
Исполнители:
Amilcare Ponchielli (Амилькаре Понкьелли) - La Gioconda
Opera in 4 acts
Libretto: Arrigo Boito (Tobia Gorrio)
La Gioconda - Maria Callas, soprano
Laura Adorna - Fiorenza Cossotto, mezzo-soprano
Enzo Grimaldo - Pier Miranda Ferraro, tenor
Alvise Badoero - Ivo Vinco, bass
Barnaba - Piero Cappuccilli, baritone
Zuane - Leonardo Monreale, basso
Coro del Teatro alla Scala di Milano
Orchestra del Teatro alla Scala di Milano
Antonino Votto

Лог создания рипа

CD1

Exact Audio Copy V1.0 beta 3 from 29. August 2011
EAC extraction logfile from 29. August 2014, 2:12
Ponchielli / La Gioconda, Votto CD1
Used drive : TS8XDVDSTRANSCEND Adapter: 1 ID: 1
Read mode : Secure
Utilize accurate stream : Yes
Defeat audio cache : Yes
Make use of C2 pointers : No
Read offset correction : 6
Overread into Lead-In and Lead-Out : No
Fill up missing offset samples with silence : Yes
Delete leading and trailing silent blocks : No
Null samples used in CRC calculations : Yes
Used interface : Native Win32 interface for Win NT & 2000
Used output format : Monkey's Audio Lossless Encoder
Selected bitrate : High Lossless Compression
Quality : High
Add ID3 tag : No
Command line compressor : C:\Program Files (x86)\Exact Audio Copy\MAC\MAC.exe
TOC of the extracted CD
Track | Start | Length | Start sector | End sector
---------------------------------------------------------
1 | 0:00.33 | 5:04.32 | 33 | 22864
2 | 5:04.65 | 2:54.05 | 22865 | 35919
3 | 7:58.70 | 2:02.68 | 35920 | 45137
4 | 10:01.63 | 3:25.47 | 45138 | 60559
5 | 13:27.35 | 2:54.13 | 60560 | 73622
6 | 16:21.48 | 3:18.05 | 73623 | 88477
7 | 19:39.53 | 3:19.60 | 88478 | 103462
8 | 22:59.38 | 4:13.35 | 103463 | 122472
9 | 27:12.73 | 5:07.17 | 122473 | 145514
10 | 32:20.15 | 3:06.70 | 145515 | 159534
11 | 35:27.10 | 2:46.25 | 159535 | 172009
12 | 38:13.35 | 2:07.58 | 172010 | 181592
13 | 40:21.18 | 3:50.62 | 181593 | 198904
14 | 44:12.05 | 2:23.65 | 198905 | 209694
15 | 46:35.70 | 6:00.08 | 209695 | 236702
Range status and errors
Selected range
Filename D:\EAC\Ponchielli - La Gioconda, Votto CD1.wav
Peak level 86.8 %
Extraction speed 3.1 X
Range quality 100.0 %
Test CRC FAD4AF53
Copy CRC FAD4AF53
Copy OK
No errors occurred
AccurateRip summary
Track 1 cannot be verified as accurate (confidence 5) [D205F59E], AccurateRip returned [20149366] (AR v2)
Track 2 cannot be verified as accurate (confidence 5) [CC127B45], AccurateRip returned [EDE97D0F] (AR v2)
Track 3 cannot be verified as accurate (confidence 5) [F5BEF919], AccurateRip returned [CBBAE2FD] (AR v2)
Track 4 cannot be verified as accurate (confidence 5) [933C7634], AccurateRip returned [BF43973F] (AR v2)
Track 5 cannot be verified as accurate (confidence 5) [4DEB2312], AccurateRip returned [04D5B9D1] (AR v2)
Track 6 cannot be verified as accurate (confidence 5) [04BC6EC6], AccurateRip returned [0D379D46] (AR v2)
Track 7 cannot be verified as accurate (confidence 5) [D939D233], AccurateRip returned [0B2B2902] (AR v2)
Track 8 cannot be verified as accurate (confidence 5) [3A4C4392], AccurateRip returned [9C1B5821] (AR v2)
Track 9 cannot be verified as accurate (confidence 5) [1D712440], AccurateRip returned [5997A3F7] (AR v2)
Track 10 cannot be verified as accurate (confidence 5) [B7A95929], AccurateRip returned [39E46222] (AR v2)
Track 11 cannot be verified as accurate (confidence 5) [CE476A77], AccurateRip returned [5AEFCD9F] (AR v2)
Track 12 cannot be verified as accurate (confidence 5) [1B106FA5], AccurateRip returned [5A074690] (AR v2)
Track 13 cannot be verified as accurate (confidence 5) [5212D759], AccurateRip returned [B1711D3E] (AR v2)
Track 14 cannot be verified as accurate (confidence 5) [ABA0858B], AccurateRip returned [D19C55AB] (AR v2)
Track 15 cannot be verified as accurate (confidence 5) [EDD4896E], AccurateRip returned [96FC69D5] (AR v2)
No tracks could be verified as accurate
You may have a different pressing from the one(s) in the database
End of status report
---- CUETools DB Plugin V2.1.3
[CTDB TOCID: 8ZtqI6QT0KA8033JHOKyKAfhWL8-] database access error: De externe naam kan niet worden opgehaald: 'db.cuetools.net'
==== Log checksum D4B730AA4A87D6EF884764D56839E0C95D93C97C31D518FFB814F770654B70AB ====

CD2

Exact Audio Copy V1.0 beta 3 from 29. August 2011
EAC extraction logfile from 29. August 2014, 1:24
Ponchielli / La Gioconda, Votto CD2
Used drive : TS8XDVDSTRANSCEND Adapter: 1 ID: 1
Read mode : Secure
Utilize accurate stream : Yes
Defeat audio cache : Yes
Make use of C2 pointers : No
Read offset correction : 6
Overread into Lead-In and Lead-Out : No
Fill up missing offset samples with silence : Yes
Delete leading and trailing silent blocks : No
Null samples used in CRC calculations : Yes
Used interface : Native Win32 interface for Win NT & 2000
Used output format : Monkey's Audio Lossless Encoder
Selected bitrate : High Lossless Compression
Quality : High
Add ID3 tag : No
Command line compressor : C:\Program Files (x86)\Exact Audio Copy\MAC\MAC.exe
TOC of the extracted CD
Track | Start | Length | Start sector | End sector
---------------------------------------------------------
1 | 0:00.33 | 4:07.67 | 33 | 18624
2 | 4:08.25 | 1:33.60 | 18625 | 25659
3 | 5:42.10 | 2:34.53 | 25660 | 37262
4 | 8:16.63 | 4:22.47 | 37263 | 56959
5 | 12:39.35 | 4:28.53 | 56960 | 77112
6 | 17:08.13 | 4:32.25 | 77113 | 97537
7 | 21:40.38 | 2:44.62 | 97538 | 109899
8 | 24:25.25 | 0:41.18 | 109900 | 112992
9 | 25:06.43 | 2:11.05 | 112993 | 122822
10 | 27:17.48 | 0:36.72 | 122823 | 125594
11 | 27:54.45 | 1:13.38 | 125595 | 131107
12 | 29:08.08 | 2:03.20 | 131108 | 140352
13 | 31:11.28 | 1:38.15 | 140353 | 147717
14 | 32:49.43 | 1:42.50 | 147718 | 155417
15 | 34:32.18 | 3:09.60 | 155418 | 169652
16 | 37:42.03 | 2:34.62 | 169653 | 181264
17 | 40:16.65 | 2:27.63 | 181265 | 192352
18 | 42:44.53 | 3:13.00 | 192353 | 206827
19 | 45:57.53 | 2:50.12 | 206828 | 219589
20 | 48:47.65 | 3:22.33 | 219590 | 234772
21 | 52:10.23 | 2:06.35 | 234773 | 244257
Range status and errors
Selected range
Filename D:\EAC\Ponchielli - La Gioconda, Votto CD2.wav
Peak level 97.7 %
Extraction speed 3.1 X
Range quality 100.0 %
Test CRC 55769961
Copy CRC 55769961
Copy OK
No errors occurred
AccurateRip summary
Track 1 cannot be verified as accurate (confidence 5) [7E24EA09], AccurateRip returned [4F8C7B92] (AR v2)
Track 2 cannot be verified as accurate (confidence 5) [534E234B], AccurateRip returned [F9378813] (AR v2)
Track 3 cannot be verified as accurate (confidence 5) [0F128DC3], AccurateRip returned [5670C244] (AR v2)
Track 4 cannot be verified as accurate (confidence 5) [679E488B], AccurateRip returned [B8BBE9BF] (AR v2)
Track 5 cannot be verified as accurate (confidence 5) [71E9376D], AccurateRip returned [AAFFC9FD] (AR v2)
Track 6 cannot be verified as accurate (confidence 5) [2B98D0B3], AccurateRip returned [B4FEC92B] (AR v2)
Track 7 cannot be verified as accurate (confidence 5) [36E97877], AccurateRip returned [F8BAB452] (AR v2)
Track 8 cannot be verified as accurate (confidence 5) [B187CE76], AccurateRip returned [719783D1] (AR v2)
Track 9 cannot be verified as accurate (confidence 5) [2888D117], AccurateRip returned [159BD7FE] (AR v2)
Track 10 cannot be verified as accurate (confidence 5) [3DEB09FC], AccurateRip returned [ECC2741F] (AR v2)
Track 11 cannot be verified as accurate (confidence 5) [27B77146], AccurateRip returned [28FC7966] (AR v2)
Track 12 cannot be verified as accurate (confidence 5) [D9EAA1E5], AccurateRip returned [BDF3B179] (AR v2)
Track 13 cannot be verified as accurate (confidence 5) [7C7ED81E], AccurateRip returned [D9738358] (AR v2)
Track 14 cannot be verified as accurate (confidence 5) [E466EF30], AccurateRip returned [00F0533C] (AR v2)
Track 15 cannot be verified as accurate (confidence 5) [979CBDDF], AccurateRip returned [EC2E71FB] (AR v2)
Track 16 cannot be verified as accurate (confidence 5) [EDC294D5], AccurateRip returned [2FBFEFD8] (AR v2)
Track 17 cannot be verified as accurate (confidence 5) [07AC4534], AccurateRip returned [CD4676D6] (AR v2)
Track 18 cannot be verified as accurate (confidence 5) [9BECC053], AccurateRip returned [8117E928] (AR v2)
Track 19 cannot be verified as accurate (confidence 5) [4F858370], AccurateRip returned [8D8152A2] (AR v2)
Track 20 cannot be verified as accurate (confidence 5) [CA6F7B6E], AccurateRip returned [7F055332] (AR v2)
Track 21 cannot be verified as accurate (confidence 4) [E3D6517F], AccurateRip returned [DCA6E3C3] (AR v2)
No tracks could be verified as accurate
You may have a different pressing from the one(s) in the database
End of status report
---- CUETools DB Plugin V2.1.3
[CTDB TOCID: BvnHYyoMjY1EVy4pJYtqxv44p3U-] disk not present in database, Submit result: discs with pregaps not supported in this protocol version
==== Log checksum 6882F4E6D165F64D19689F6DF4FDE4B59DE86A8D225736B92643131E454E4E69 ====

CD3

Exact Audio Copy V1.0 beta 3 from 29. August 2011
EAC extraction logfile from 29. August 2014, 1:56
Ponchielli / La Gioconda, Votto CD3
Used drive : TSSTcorpCDDVDW SE-208AB Adapter: 1 ID: 0
Read mode : Secure
Utilize accurate stream : Yes
Defeat audio cache : Yes
Make use of C2 pointers : No
Read offset correction : 6
Overread into Lead-In and Lead-Out : No
Fill up missing offset samples with silence : Yes
Delete leading and trailing silent blocks : No
Null samples used in CRC calculations : Yes
Used interface : Native Win32 interface for Win NT & 2000
Used output format : Monkey's Audio Lossless Encoder
Selected bitrate : High Lossless Compression
Quality : High
Add ID3 tag : No
Command line compressor : C:\Program Files (x86)\Exact Audio Copy\MAC\MAC.exe
TOC of the extracted CD
Track | Start | Length | Start sector | End sector
---------------------------------------------------------
1 | 0:00.32 | 4:01.65 | 32 | 18171
2 | 4:02.22 | 1:31.45 | 18172 | 25041
3 | 5:33.67 | 9:41.15 | 25042 | 68631
4 | 15:15.07 | 3:19.20 | 68632 | 83576
5 | 18:34.27 | 5:19.33 | 83577 | 107534
6 | 23:53.60 | 5:43.70 | 107535 | 133329
7 | 29:37.55 | 4:13.50 | 133330 | 152354
8 | 33:51.30 | 5:18.70 | 152355 | 176274
9 | 39:10.25 | 2:51.22 | 176275 | 189121
10 | 42:01.47 | 2:38.68 | 189122 | 201039
11 | 44:40.40 | 1:07.50 | 201040 | 206114
12 | 45:48.15 | 2:02.02 | 206115 | 215266
13 | 47:50.17 | 5:01.48 | 215267 | 237889
14 | 52:51.65 | 3:53.10 | 237890 | 255374
15 | 56:45.00 | 3:03.45 | 255375 | 269144
Range status and errors
Selected range
Filename D:\EAC\Ponchielli - La Gioconda, Votto CD3.wav
Peak level 97.7 %
Extraction speed 2.0 X
Range quality 99.9 %
Test CRC 7367BED3
Copy CRC 7367BED3
Copy OK
No errors occurred
AccurateRip summary
Track 1 cannot be verified as accurate (confidence 5) [DF2855E0], AccurateRip returned [CC480FBF] (AR v2)
Track 2 cannot be verified as accurate (confidence 5) [C2B7E170], AccurateRip returned [CD4D1591] (AR v2)
Track 3 cannot be verified as accurate (confidence 5) [53C91A9B], AccurateRip returned [B9EB918C] (AR v2)
Track 4 cannot be verified as accurate (confidence 5) [65D3B7EE], AccurateRip returned [C9DF02CE] (AR v2)
Track 5 cannot be verified as accurate (confidence 5) [6684E8D4], AccurateRip returned [0C2B636F] (AR v2)
Track 6 cannot be verified as accurate (confidence 5) [0018AD80], AccurateRip returned [45DF3B8E] (AR v2)
Track 7 cannot be verified as accurate (confidence 5) [C1151152], AccurateRip returned [2B5CF69B] (AR v2)
Track 8 cannot be verified as accurate (confidence 5) [18282E23], AccurateRip returned [2FFD510B] (AR v2)
Track 9 cannot be verified as accurate (confidence 5) [0C11B6CF], AccurateRip returned [5B01749B] (AR v2)
Track 10 cannot be verified as accurate (confidence 5) [0578B00C], AccurateRip returned [34099EDD] (AR v2)
Track 11 cannot be verified as accurate (confidence 5) [201E5A7A], AccurateRip returned [586790C3] (AR v2)
Track 12 cannot be verified as accurate (confidence 5) [41C7DEBE], AccurateRip returned [465EF80F] (AR v2)
Track 13 cannot be verified as accurate (confidence 5) [68E4FE15], AccurateRip returned [9A91F08D] (AR v2)
Track 14 cannot be verified as accurate (confidence 5) [4CBA50BA], AccurateRip returned [AA53DC83] (AR v2)
Track 15 cannot be verified as accurate (confidence 5) [E91D1D31], AccurateRip returned [8F3D47F1] (AR v2)
No tracks could be verified as accurate
You may have a different pressing from the one(s) in the database
End of status report
---- CUETools DB Plugin V2.1.3
[CTDB TOCID: kLFUWwBklunrGjGcjsB7QoLo.1k-] disk not present in database, Submit result: discs with pregaps not supported in this protocol version
==== Log checksum BE64D7B628EF7E8FEE8BFD360711A70E1DA79888A32F0CACD80451968B8D1A4B ====

Содержание индексной карты (.CUE)

CD1

REM GENRE Opera
REM DATE 1960
REM DISCID D00C540F
REM COMMENT "ExactAudioCopy v1.0b3"
CATALOG 0000000000000
PERFORMER "Ponchielli"
TITLE "La Gioconda, Votto CD1"
FILE "Ponchielli - La Gioconda, Votto CD1.ape" WAVE
TRACK 01 AUDIO
TITLE "Preludio"
PERFORMER "Ponchielli"
INDEX 00 00:00:00
INDEX 01 00:00:33
TRACK 02 AUDIO
TITLE "Feste e pane!"
PERFORMER "Ponchielli"
INDEX 00 05:00:53
INDEX 01 05:04:65
TRACK 03 AUDIO
TITLE "E cantan su lor tombe!"
PERFORMER "Ponchielli"
INDEX 00 07:58:68
INDEX 01 07:58:70
TRACK 04 AUDIO
TITLE "Figlia, che reggi il tremulo pie"
PERFORMER "Ponchielli"
INDEX 00 10:01:60
INDEX 01 10:01:63
TRACK 05 AUDIO
TITLE "L'ora non giunse ancor del vespro santo"
PERFORMER "Ponchielli"
INDEX 00 13:27:33
INDEX 01 13:27:35
TRACK 06 AUDIO
TITLE "Polso di cerro!"
PERFORMER "Ponchielli"
INDEX 00 16:21:45
INDEX 01 16:21:48
TRACK 07 AUDIO
TITLE "Suo covo e un tugurio -"
PERFORMER "Ponchielli"
INDEX 00 19:39:50
INDEX 01 19:39:53
TRACK 08 AUDIO
TITLE "Che? La plebe or qui si arroga ..."
PERFORMER "Ponchielli"
INDEX 00 22:59:35
INDEX 01 22:59:38
TRACK 09 AUDIO
TITLE "Voce di donna o d'angelo"
PERFORMER "Ponchielli"
INDEX 00 27:12:70
INDEX 01 27:12:73
TRACK 10 AUDIO
TITLE "Enzo Grimaldo, Principe di Santafior, che pensi?"
PERFORMER "Ponchielli"
INDEX 00 32:20:13
INDEX 01 32:20:15
TRACK 11 AUDIO
TITLE "O grido di quest'anima"
PERFORMER "Ponchielli"
INDEX 00 35:27:08
INDEX 01 35:27:10
TRACK 12 AUDIO
TITLE "Maledici? Sta ben... l'amor t'accieca"
PERFORMER "Ponchielli"
INDEX 00 38:13:33
INDEX 01 38:13:35
TRACK 13 AUDIO
TITLE "O monumento!"
PERFORMER "Ponchielli"
INDEX 00 40:21:15
INDEX 01 40:21:18
TRACK 14 AUDIO
TITLE "Carneval! Baccanal!"
PERFORMER "Ponchielli"
INDEX 00 44:12:03
INDEX 01 44:12:05
TRACK 15 AUDIO
TITLE "Angele Dei..."
PERFORMER "Ponchielli"
INDEX 00 46:35:68
INDEX 01 46:35:70

CD2

REM GENRE Opera
REM DATE 1960
REM DISCID 2E0CB815
REM COMMENT "ExactAudioCopy v1.0b3"
CATALOG 0000000000000
PERFORMER "Ponchielli"
TITLE "La Gioconda, Votto CD2"
FILE "Ponchielli - La Gioconda, Votto CD2.ape" WAVE
TRACK 01 AUDIO
TITLE "Ho! He! Ho! He! Fissa il timone"
PERFORMER "Ponchielli"
INDEX 00 00:00:00
INDEX 01 00:00:33
TRACK 02 AUDIO
TITLE "Pescator, affonda l'esca I"
PERFORMER "Ponchielli"
INDEX 00 04:08:23
INDEX 01 04:08:25
TRACK 03 AUDIO
TITLE "Pescator, affonda l'esca II"
PERFORMER "Ponchielli"
INDEX 00 05:42:08
INDEX 01 05:42:10
TRACK 04 AUDIO
TITLE "Sia gloria ai canti dei naviganti!"
PERFORMER "Ponchielli"
INDEX 00 08:16:60
INDEX 01 08:16:63
TRACK 05 AUDIO
TITLE "Cielo e mar!"
PERFORMER "Ponchielli"
INDEX 00 12:39:33
INDEX 01 12:39:35
TRACK 06 AUDIO
TITLE "Ma chi vien?"
PERFORMER "Ponchielli"
INDEX 00 17:08:10
INDEX 01 17:08:13
TRACK 07 AUDIO
TITLE "Laggiu nelle nebbie remote"
PERFORMER "Ponchielli"
INDEX 00 21:40:35
INDEX 01 21:40:38
TRACK 08 AUDIO
TITLE "E il tuo nocciere or la fuga t'appresta"
PERFORMER "Ponchielli"
INDEX 00 24:25:23
INDEX 01 24:25:25
TRACK 09 AUDIO
TITLE "Stella del marinar!"
PERFORMER "Ponchielli"
INDEX 00 25:06:40
INDEX 01 25:06:43
TRACK 10 AUDIO
TITLE "E un anatema!"
PERFORMER "Ponchielli"
INDEX 00 27:17:45
INDEX 01 27:17:48
TRACK 11 AUDIO
TITLE "La attesi e il tempo colsi"
PERFORMER "Ponchielli"
INDEX 00 27:54:43
INDEX 01 27:54:45
TRACK 12 AUDIO
TITLE "L'amo come il fulgor del creato!"
PERFORMER "Ponchielli"
INDEX 00 29:08:05
INDEX 01 29:08:08
TRACK 13 AUDIO
TITLE "Il mio braccio t'afferra!"
PERFORMER "Ponchielli"
INDEX 00 31:11:25
INDEX 01 31:11:28
TRACK 14 AUDIO
TITLE "Maledizion! Ha preso il vol!"
PERFORMER "Ponchielli"
INDEX 00 32:49:40
INDEX 01 32:49:43
TRACK 15 AUDIO
TITLE "Vedi la, nel canal morto"
PERFORMER "Ponchielli"
INDEX 00 34:32:15
INDEX 01 34:32:18
TRACK 16 AUDIO
TITLE "S! morir ella de!"
PERFORMER "Ponchielli"
INDEX 00 37:37:43
INDEX 01 37:42:03
TRACK 17 AUDIO
TITLE "Ombre di mia prosapia"
PERFORMER "Ponchielli"
INDEX 00 40:16:63
INDEX 01 40:16:65
TRACK 18 AUDIO
TITLE "Qui chiamata m'avete?... Bella cosi, madonna..."
PERFORMER "Ponchielli"
INDEX 00 42:44:50
INDEX 01 42:44:53
TRACK 19 AUDIO
TITLE "Morir! e troppo orribile!"
PERFORMER "Ponchielli"
INDEX 00 45:57:50
INDEX 01 45:57:53
TRACK 20 AUDIO
TITLE "La gaia canzone... Prendi questo velen"
PERFORMER "Ponchielli"
INDEX 00 48:47:63
INDEX 01 48:47:65
TRACK 21 AUDIO
TITLE "O madre mia, nell'isola fatale ..."
PERFORMER "Ponchielli"
INDEX 00 52:10:20
INDEX 01 52:10:23

CD3

REM GENRE Opera
REM DATE 1959
REM DISCID C50E040F
REM COMMENT "ExactAudioCopy v1.0b3"
CATALOG 0000000000000
PERFORMER "Ponchielli"
TITLE "La Gioconda, Votto CD3"
FILE "Ponchielli - La Gioconda, Votto CD3.ape" WAVE
TRACK 01 AUDIO
TITLE "Benvenuti messeri Andrea Sagredo"
PERFORMER "Ponchielli"
INDEX 00 00:00:00
INDEX 01 00:00:32
TRACK 02 AUDIO
TITLE "Grazie vi rendo per le vostre laudi"
PERFORMER "Ponchielli"
INDEX 00 04:02:20
INDEX 01 04:02:22
TRACK 03 AUDIO
TITLE "Prodigo incanto"
PERFORMER "Ponchielli"
INDEX 00 05:33:65
INDEX 01 05:33:67
TRACK 04 AUDIO
TITLE "Vieni... Laciami"
PERFORMER "Ponchielli"
INDEX 00 15:15:05
INDEX 01 15:15:07
TRACK 05 AUDIO
TITLE "Gia ti veggo in mmota e smorta"
PERFORMER "Ponchielli"
INDEX 00 18:34:25
INDEX 01 18:34:27
TRACK 06 AUDIO
TITLE "Nessun v'ha visto"
PERFORMER "Ponchielli"
INDEX 00 23:49:35
INDEX 01 23:53:60
TRACK 07 AUDIO
TITLE "Suicidio"
PERFORMER "Ponchielli"
INDEX 00 29:37:52
INDEX 01 29:37:55
TRACK 08 AUDIO
TITLE "Ecco, il velen di Laura"
PERFORMER "Ponchielli"
INDEX 00 33:51:27
INDEX 01 33:51:30
TRACK 09 AUDIO
TITLE "Ridarti il sol, la vitta"
PERFORMER "Ponchielli"
INDEX 00 39:10:22
INDEX 01 39:10:25
TRACK 10 AUDIO
TITLE "O furibonda jena"
PERFORMER "Ponchielli"
INDEX 00 42:01:45
INDEX 01 42:01:47
TRACK 11 AUDIO
TITLE "Ten va serenata"
PERFORMER "Ponchielli"
INDEX 00 44:40:37
INDEX 01 44:40:40
TRACK 12 AUDIO
TITLE "La barca s'avvicina"
PERFORMER "Ponchielli"
INDEX 00 45:48:12
INDEX 01 45:48:15
TRACK 13 AUDIO
TITLE "Quest' ultimo bascio che il pianto"
PERFORMER "Ponchielli"
INDEX 00 47:50:15
INDEX 01 47:50:17
TRACK 14 AUDIO
TITLE "Ora posso morir. Tutto e compiuto"
PERFORMER "Ponchielli"
INDEX 00 52:51:62
INDEX 01 52:51:65
TRACK 15 AUDIO
TITLE "Vo' farmi piu gaia, piu fulgida ancora"
PERFORMER "Ponchielli"
INDEX 00 56:44:72
INDEX 01 56:45:00



Показать сообщения:    

Текущее время: 07-Дек 21:20

Часовой пояс: UTC + 3


Вы не можете начинать темы
Вы не можете отвечать на сообщения
Вы не можете редактировать свои сообщения
Вы не можете удалять свои сообщения
Вы не можете голосовать в опросах
Вы не можете прикреплять файлы к сообщениям
Вы не можете скачивать файлы