(opera, vocal) Simone Kermes, Vivica Genaux - Rival Queens - Cappella Gabetta, Andres Gabetta - Arena, Bononcini, Hasse, Giacomelli, Sarro, Vinci, Porpora, Leo, Pollarolo arias - 2014, APE (image+.cue) lossless


 

[Цитировать]

Simone Kermes, Vivica Genaux - Rival Queens - Cappella Gabetta, Andres Gabetta - Giuseppe Arena, Giovanni Bononcini, Johann Adolf Hasse, Geminiano Giacomelli, Domenico Natale Sarro, Leonardo Vinci, Nicola Antonio Porpora, Leonardo Leo, Antonio Pollarolo arias
Жанр: opera, vocal
Страна-производитель диска: EU
Год издания диска: 2014
Издатель (лейбл): Sony Classical
Дата записи: 16-19 January 2014
Аудиокодек: APE
Тип рипа: image+.cue
Битрейт аудио: lossless
Продолжительность: 79'58"
Источник: собственный рип
Наличие сканов в содержимом раздачи: нет
Треклист:
01. Simone Kermes - Giuseppe Arena - La clemenza di Tito- Come potesti, oh dio
02. Vivica Genaux - Giovanni Bononcini - Astianatte- Spera che questo cor
03. Simone Kermes, Vivica Genaux - Johann Adolf Hasse - Cleofide- Se mai piu saro geloso
04. Simone Kermes - Geminiano Giacomelli - Scipione in Cartagine nuova- Villanella nube estiva
05. Vivica Genaux - Domenico Natale Sarro - Lucio Vero- Al valor di Borea armato
06. Simone Kermes - Johann Adolf Hasse - Artaserse- Va'tra le selve ircane
07. Vivica Genaux - Leonardo Vinci - Ifigenia in Tauride- L'onda chiara, che dal fonte
08. Simone Kermes - Nicola Antonio Porpora - Adelaide- Nobil onda
09. Vivica Genaux - Attilio Ariosti - Lucio Verro- Vorreste, o mio pupille
10. Simone Kermes, Vivica Genaux - Nicola Antonio Porpora - Arianna in Naxo- In amoroso petto
11. Simone Kermes - Giovanni Bononcini - Astianatte- Svenalo, traditor!
12. Vivica Genaux - Johann Adolf Hasse - Issipile- Impallidisce in campo
13. Simone Kermes - Leonardo Leo - Ciro Riconosciuto- Beneche l'augel s'asconda
14. Vivica Genaux - Antonio Pollarolo - Lucio Papirio dittatore- Padre amoroso
15. Simone Kermes, Vivica Genaux - Johann Adolf Hasse - Artaserse- Tu vuoi ch'io viva, o cara
Исполнители:
Simone Kermes
Vivica Genaux
Cappella Gabetta
Andres Gabetta

Лог создания рипа

Simone Kermes, Vivica Genaux - Rival Queens.log

Exact Audio Copy V1.0 beta 3 from 29. August 2011
EAC extraction logfile from 29. August 2014, 10:18
Simone Kermes, Vivica Genaux, Cappella Gabetta, Andres Gabetta / Simone Kermes, Vivica Genaux - Rival Queens
Used drive : hp DVDRAM GT50N Adapter: 0 ID: 0
Read mode : Secure
Utilize accurate stream : Yes
Defeat audio cache : Yes
Make use of C2 pointers : No
Read offset correction : 103
Overread into Lead-In and Lead-Out : No
Fill up missing offset samples with silence : Yes
Delete leading and trailing silent blocks : No
Null samples used in CRC calculations : Yes
Used interface : Native Win32 interface for Win NT & 2000
Used output format : User Defined Encoder
Selected bitrate : 128 kBit/s
Quality : High
Add ID3 tag : No
Command line compressor : C:\Program Files\Exact Audio Copy\APE\MAC.exe
Additional command line options : %source% %dest% -c3000
TOC of the extracted CD
Track | Start | Length | Start sector | End sector
---------------------------------------------------------
1 | 0:00.00 | 3:19.27 | 0 | 14951
2 | 3:19.27 | 2:51.04 | 14952 | 27780
3 | 6:10.31 | 6:17.74 | 27781 | 56129
4 | 12:28.30 | 10:18.09 | 56130 | 102488
5 | 22:46.39 | 5:21.15 | 102489 | 126578
6 | 28:07.54 | 3:23.15 | 126579 | 141818
7 | 31:30.69 | 4:56.12 | 141819 | 164030
8 | 36:27.06 | 4:53.54 | 164031 | 186059
9 | 41:20.60 | 7:46.33 | 186060 | 221042
10 | 49:07.18 | 5:20.18 | 221043 | 245060
11 | 54:27.36 | 2:17.42 | 245061 | 255377
12 | 56:45.03 | 4:41.24 | 255378 | 276476
13 | 61:26.27 | 5:38.36 | 276477 | 301862
14 | 67:04.63 | 6:19.72 | 301863 | 330359
15 | 73:24.60 | 6:33.23 | 330360 | 359857
Range status and errors
Selected range
Filename D:\Temp\Simone Kermes, Vivica Genaux - Rival Queens\Новая папка\Simone Kermes, Vivica Genaux - Rival Queens.wav
Peak level 99.7 %
Extraction speed 4.4 X
Range quality 100.0 %
Test CRC BF7EEDEA
Copy CRC BF7EEDEA
Copy OK
No errors occurred
AccurateRip summary
Track 1 not present in database
Track 2 not present in database
Track 3 not present in database
Track 4 not present in database
Track 5 not present in database
Track 6 not present in database
Track 7 not present in database
Track 8 not present in database
Track 9 not present in database
Track 10 not present in database
Track 11 not present in database
Track 12 not present in database
Track 13 not present in database
Track 14 not present in database
Track 15 not present in database
None of the tracks are present in the AccurateRip database
End of status report
==== Log checksum 5ACF3B4A7175796003FFA331534F9CE4C1E86AEA2F427374151001BD2377CA31 ====

Содержание индексной карты (.CUE)

Simone Kermes, Vivica Genaux - Rival Queens.cue

REM GENRE Vocal
REM DISCID EC12BE0F
REM COMMENT "ExactAudioCopy v1.0b3"
PERFORMER "Simone Kermes, Vivica Genaux, Cappella Gabetta, Andres Gabetta"
TITLE "Simone Kermes, Vivica Genaux - Rival Queens"
FILE "Simone Kermes, Vivica Genaux - Rival Queens.ape" WAVE
TRACK 01 AUDIO
TITLE "Giuseppe Arena - La clemenza di Tito: Come potesti, oh dio"
PERFORMER "Simone Kermes"
INDEX 01 00:00:00
TRACK 02 AUDIO
TITLE "Giovanni Bononcini - Astianatte: Spera che questo cor"
PERFORMER "Vivica Genaux"
INDEX 01 03:19:27
TRACK 03 AUDIO
TITLE "Johann Adolf Hasse - Cleofide: Se mai piu saro geloso"
PERFORMER "Simone Kermes, Vivica Genaux"
INDEX 01 06:10:31
TRACK 04 AUDIO
TITLE "Geminiano Giacomelli - Scipione in Cartagine nuova: Villanella nube estiva"
PERFORMER "Simone Kermes"
INDEX 01 12:28:30
TRACK 05 AUDIO
TITLE "Domenico Natale Sarro - Lucio Vero: Al valor di Borea armato"
PERFORMER "Vivica Genaux"
INDEX 01 22:46:39
TRACK 06 AUDIO
TITLE "Johann Adolf Hasse - Artaserse: Va'tra le selve ircane"
PERFORMER "Simone Kermes"
INDEX 01 28:07:54
TRACK 07 AUDIO
TITLE "Leonardo Vinci - Ifigenia in Tauride: L'onda chiara, che dal fonte"
PERFORMER "Vivica Genaux"
INDEX 01 31:30:69
TRACK 08 AUDIO
TITLE "Nicola Antonio Porpora - Adelaide: Nobil onda"
PERFORMER "Simone Kermes"
INDEX 01 36:27:06
TRACK 09 AUDIO
TITLE "Attilio Ariosti - Lucio Verro: Vorreste, o mio pupille"
PERFORMER "Vivica Genaux"
INDEX 01 41:20:60
TRACK 10 AUDIO
TITLE "Nicola Antonio Porpora - Arianna in Naxo: In amoroso petto"
PERFORMER "Simone Kermes, Vivica Genaux"
INDEX 01 49:07:18
TRACK 11 AUDIO
TITLE "Giovanni Bononcini - Astianatte: Svenalo, traditor!"
PERFORMER "Simone Kermes"
INDEX 01 54:27:36
TRACK 12 AUDIO
TITLE "Johann Adolf Hasse - Issipile: Impallidisce in campo"
PERFORMER "Vivica Genaux"
INDEX 01 56:45:03
TRACK 13 AUDIO
TITLE "Leonardo Leo - Ciro Riconosciuto: Beneche l'augel s'asconda"
PERFORMER "Simone Kermes"
INDEX 01 61:26:27
TRACK 14 AUDIO
TITLE "Antonio Pollarolo - Lucio Papirio dittatore: Padre amoroso"
PERFORMER "Vivica Genaux"
INDEX 01 67:04:63
TRACK 15 AUDIO
TITLE "Johann Adolf Hasse - Artaserse: Tu vuoi ch'io viva, o cara"
PERFORMER "Simone Kermes, Vivica Genaux"
INDEX 01 73:24:60



Показать сообщения:    

Текущее время: 10-Дек 06:07

Часовой пояс: UTC + 3


Вы не можете начинать темы
Вы не можете отвечать на сообщения
Вы не можете редактировать свои сообщения
Вы не можете удалять свои сообщения
Вы не можете голосовать в опросах
Вы не можете прикреплять файлы к сообщениям
Вы не можете скачивать файлы